#TITLE:JEHANNEDARC;
#SUBTITLE:;
#ARTIST:BlackY;
#TITLETRANSLIT:;
#SUBTITLETRANSLIT:;
#ARTISTTRANSLIT:;
#GENRE:;
#CREDIT:;
#MUSIC:JEHANNEDARC.ogg;
#BANNER:JEHANNEDARC.png;
#BACKGROUND:JEHANNEDARC-bg.png;
#CDTITLE:;
#SAMPLESTART:72.895;
#SAMPLELENGTH:15.000;
#SELECTABLE:YES;
#OFFSET:0.899;
#BPMS:0.000=200.000;
#STOPS:;
#BGCHANGES:;
#FGCHANGES:;

//--------------- dance-single - forcednature ----------------
#NOTES:
     dance-single:
     forcednature:
     Beginner:
     7:
     0,0,0,0,0:
0000
0000
0000
0000
,
0000
0000
0000
0000
,
0000
0000
0000
0000
,
0000
0000
0000
0000
,
0000
0000
0000
0000
,
0000
0000
0000
0000
,
0010
0000
0000
1001
0000
0000
0000
0000
,
0000
0000
0000
0000
,
0100
0000
0000
0100
0000
0000
0100
0000
,
0000
0000
0110
0000
,
1001
0000
1000
0000
,
0001
0100
0001
0000
,
0010
0010
0010
0000
,
0100
0000
1000
0000
,
1001
0000
0001
0000
,
0100
0000
0100
0000
,
0010
1000
0010
1000
,
0100
0000
0000
0000
,
0110
0000
0010
0000
,
0001
0000
1000
0000
,
0010
0010
0100
0100
,
0000
0000
0000
0000
,
1001
0000
1000
0000
,
0001
0100
0001
0000
,
0010
0000
0100
0000
,
1000
0001
1000
0000
,
0010
0000
0100
0000
,
0001
0010
0001
0000
,
0100
0000
0010
0000
,
1000
0100
1000
0000
,
1001
0000
0001
0000
,
0100
0010
1000
0000
,
0001
0000
1000
0000
,
0100
0010
0001
0000
,
1001
0000
1000
0000
,
0010
0010
0010
0000
,
0100
0000
0001
0000
,
0020
0000
0000
0030
,
1001
0000
1000
0000
,
0001
0000
0001
0000
,
0000
0110
0000
1000
,
1000
0000
0001
0000
0000
0001
0000
0000
,
2002
0000
3003
0000
,
0220
0000
0330
0000
,
1000
1000
0001
0001
,
0010
0010
0100
1000
,
0001
0000
0100
0000
,
0010
0010
0010
0000
,
1000
0000
0001
0000
,
0010
0100
0010
0000
,
0110
0000
1000
0000
,
0001
0001
0001
0000
,
0100
0010
0100
0000
,
1001
0000
0000
0000
,
1000
0000
0100
0000
,
0010
0010
0010
0000
,
0001
0000
0100
0000
,
0010
1000
0010
1000
,
0001
0000
0010
0000
,
0100
0100
0100
0000
,
1000
0001
1000
0001
,
0100
0000
0000
0000
,
1001
0000
0000
0110
0000
0000
1001
0000
,
0000
0100
0001
1000
,
0010
0000
1000
0100
,
0010
0000
0001
1000
,
0010
0000
0100
0001
,
0010
0000
0000
0010
0000
0000
0010
0000
,
0100
0000
1000
0001
,
0100
0010
1000
0000
,
0000
1001
0000
0001
,
0010
0100
1000
0000
,
0110
0000
1000
0001
,
0000
0100
0000
0000
0100
0000
0000
0100
,
0000
0010
1000
0001
,
0010
0000
0100
1000
,
0001
0001
1000
1000
,
0010
0000
0100
0001
,
0000
1001
0000
1000
,
0100
0010
0100
1000
,
0001
0000
0100
0010
,
0100
0001
0010
0100
,
0110
0000
0010
0001
,
1000
0010
0100
0000
,
0110
0000
0010
1000
,
0001
1000
0100
0000
,
0010
0010
0010
0000
,
0001
0001
0001
0000
,
1000
0010
0100
0000
,
0001
0010
0100
1000
,
0001
0001
0001
0001
,
1000
0010
0100
0001
,
0020
0000
0000
0000
,
0000
0000
0000
0000
,
0000
0000
0000
0000
,
0000
0000
0000
0000
,
0030
0000
0000
0000
;

//--------------- dance-single - forcednature ----------------
#NOTES:
     dance-single:
     forcednature:
     Easy:
     10:
     0,0,0,0,0:
0000
0000
0000
0000
,
0000
0000
0000
0000
,
0000
0000
0000
0000
,
0000
0000
0000
0000
,
0000
0000
0000
0000
,
0000
0000
0000
0000
,
0010
0000
0000
0010
0000
0000
2002
0000
0000
0000
0000
0000
0000
0000
0000
0000
,
0000
0000
0000
3003
,
1000
0000
0000
1000
0000
0000
0001
0000
0000
0001
0000
0000
0100
0000
0020
0000
,
0000
0030
0110
0000
,
1001
1000
0001
0001
,
0100
0100
0010
0010
,
1000
0001
0010
0100
,
1000
0001
0100
0100
,
0010
0010
1000
1000
,
0001
0001
0010
0010
,
0001
0100
0001
0000
1000
0100
1000
0000
,
0020
0000
0200
0330
,
0001
0000
0000
1000
0000
0000
0001
0000
1000
0000
0000
0001
0000
0000
1000
0000
,
0010
0000
0000
0100
0000
0000
0010
0000
0100
0000
0000
0010
0000
0000
0100
0000
,
0002
0023
0230
2300
,
0002
0000
0000
3003
,
0001
0100
0001
0000
0010
0000
0100
0000
,
0010
0001
1000
0000
,
0010
0100
0010
1000
,
0001
0010
0100
0000
,
1000
0001
0100
0010
,
1000
0100
0010
0000
,
0001
1000
0010
0100
,
0001
0010
0001
0000
0010
0001
0010
0000
,
0100
1000
0001
0100
,
0010
1000
0001
0000
,
0110
0100
1000
0001
,
0110
0000
1000
0000
0010
0100
0010
0000
,
1000
0000
0100
0010
0100
0000
1000
0000
,
0001
0100
0001
0000
0010
0000
0100
0000
,
1000
0001
1000
0000
0010
0000
0100
0000
,
2002
0000
0000
3003
,
0001
0001
0100
0100
,
0010
0000
0010
0000
1000
0000
0000
1001
,
0000
0110
0001
0001
,
0010
0000
0000
0000
0100
0000
0000
1000
0000
0000
0100
0000
0000
1000
0000
0000
,
0020
0000
0000
0030
,
0200
0000
0000
0300
,
0002
1000
2003
0001
,
3001
1000
0001
1000
0001
1000
0010
0000
,
0100
0000
0001
0010
,
0100
0000
1000
0001
1000
0000
0010
0000
,
0100
0000
0001
0000
,
1000
0100
1000
0010
,
0100
0000
0001
0000
,
0010
0000
0001
0100
0001
0000
0010
0000
,
0100
0000
0000
0000
0000
0000
0000
0000
1000
0000
0000
0000
0000
0000
0000
0000
0100
0000
0000
0000
0000
0000
0000
0000
1000
0000
0000
0000
0000
0000
0000
0000
0000
0001
0000
0000
0000
0000
0000
0000
0000
0000
1000
0000
0000
0000
0000
0000
,
0020
0000
0100
0130
,
0000
0000
0000
0000
0000
0000
0001
0000
0000
1000
0000
0000
0000
0000
1000
0000
0000
0000
0001
0000
0000
0000
0000
0000
,
0100
0000
0000
0101
0000
0000
1000
0000
1000
0100
0000
0000
,
0010
0000
0001
0000
0100
0010
0100
0000
,
0001
0000
0000
1000
0000
0000
0001
0000
0000
1000
0000
0000
0001
0000
1000
0000
,
0000
0110
0001
0100
,
0110
1000
0100
0010
,
0001
1000
0001
0000
1000
0001
1000
0000
,
0020
0000
0000
0030
,
0101
0000
0000
1100
0000
0000
0101
0000
,
0000
1000
0100
0000
1000
0001
1000
0000
,
0110
0001
1000
0010
,
0100
0000
0000
0001
0000
0000
0100
0000
0000
0001
0000
0000
0010
0000
0000
0000
,
0110
0100
1000
0001
,
1000
0000
0010
0100
0000
0100
0001
0000
,
0011
0000
0000
1010
0000
0000
1001
0000
,
0000
0100
0010
0000
0100
0000
1001
0000
,
0000
0110
0001
1000
,
0010
0000
0100
0000
0001
0000
1000
0100
,
1000
0000
0000
0000
0001
0000
0000
0000
0100
0000
0000
0100
0000
0000
0100
0000
,
0000
0000
0010
0000
0000
1000
0000
0000
0001
0000
0000
1000
0000
0000
0100
0000
,
0010
0001
0010
0000
0001
0000
1000
0000
,
0110
0000
0000
0000
0001
0000
0000
1000
0000
0000
0001
0000
1000
0000
0000
0000
,
0010
0100
0010
0000
0100
0010
0100
0000
,
1001
0000
0000
0000
0001
0000
0000
0000
0010
0000
0000
0100
0000
0000
1000
0000
,
0000
0000
0000
0000
0001
0000
0000
0001
0000
0000
0100
0000
0001
0000
0000
0000
,
1000
0000
0000
1000
0000
0000
0100
0000
0000
0010
0000
0000
0001
0000
0000
0000
,
1001
0000
0001
0000
0100
0000
0010
1000
,
0010
0100
0001
1000
,
1001
0000
1000
0100
0000
0010
0001
0000
,
0000
0100
0010
0000
1000
0001
1000
0000
,
0001
0000
1000
0000
0100
0010
0100
0000
,
1000
0001
1000
0000
1000
0010
1000
0000
,
0100
0000
0000
0010
0000
0000
0100
0000
0000
0010
0000
0000
0001
0000
0000
0000
,
0100
0000
0000
0010
0000
0000
0100
0000
0000
0010
0000
0000
1000
0000
0000
0000
,
0001
0000
0000
0010
0000
0000
0100
0000
1000
0000
0000
0010
0000
0000
0100
0000
,
0000
0000
0001
0000
0000
1000
0000
0000
0100
0000
0000
0010
0000
0000
0001
0000
,
1000
1000
0001
0001
,
0100
0010
0100
0010
1000
0001
0010
0000
,
0220
0000
0000
0000
,
0000
0000
0000
0000
,
0000
0000
0000
0000
,
0000
0000
0000
0000
,
0330
0000
0000
0000
;

//--------------- dance-single - forcednature ----------------
#NOTES:
     dance-single:
     forcednature:
     Medium:
     13:
     0,0,0,0,0:
0000
0000
0000
0000
,
0000
0000
0000
0000
,
0000
0000
0000
0000
,
0000
0000
0000
0000
,
0000
0000
0000
0000
,
0000
0000
0000
0000
,
1000
0000
0000
0001
0000
0000
2002
0000
0000
0000
0000
0000
0000
0000
0000
0000
,
0000
0000
3003
0100
,
0010
0000
0000
1000
0000
0000
0010
0000
0000
0001
0000
0000
0010
0000
0200
0000
,
0000
0300
2002
3003
,
0110
1000
0001
0001
,
0100
0010
0100
0000
0001
0000
0010
0000
,
0100
1000
0100
0000
0010
0000
0010
0000
,
0001
1000
0001
1000
0020
0000
0230
0000
,
0301
0010
0001
0010
0100
1000
0100
1000
,
0001
0100
0001
0100
0010
1000
0010
1000
,
0100
0010
0001
0100
0010
1000
0100
0010
,
0002
0000
0000
2000
0000
0000
3003
0000
,
0001
0000
0000
0100
0000
0000
0001
0000
1000
0000
0000
0100
0000
0000
1000
0000
,
0001
0000
0000
0010
0000
0000
0001
0000
1000
0000
0000
0010
0000
0000
1000
0000
,
0100
0010
0100
0010
0001
1000
0001
1000
,
0020
0100
0130
1001
,
1000
0100
0010
0000
0001
0000
0100
0000
,
0001
0000
0010
0000
0001
0100
0001
0000
,
1000
0010
1000
0000
0001
0000
0010
0000
,
0100
0000
1000
0000
0010
0100
0010
0000
,
1000
0001
1000
0000
0100
0000
0010
0000
,
0001
0000
0100
0000
0010
1000
0010
0000
,
0100
0001
0100
0000
0010
0000
1000
0000
,
0001
0010
0100
0000
1000
0001
1000
0000
,
0010
0100
0001
0000
0010
0000
0100
0000
,
1000
0000
0001
0000
0100
0000
0010
1000
,
0001
0000
0010
0000
0100
0000
0010
0001
,
1000
0000
0000
0010
0000
0000
0100
0000
0001
0000
0100
0000
0001
0000
0000
0000
,
1001
0000
1000
0100
0010
0001
0010
0000
,
0001
1000
0010
0100
0001
1000
0100
0000
,
0010
0001
0010
0000
0100
1000
0001
1000
,
0020
0000
0000
0030
,
0200
0001
0302
0010
,
0023
0000
0100
0000
0230
1000
0000
1000
,
0300
0010
0002
0000
0203
0000
0010
0000
,
0310
0000
1000
0000
0010
0000
0000
0100
0000
0000
0001
0000
0000
1000
0000
0000
,
2002
0000
0000
3003
,
0220
0000
0000
0330
,
1000
0001
1000
0001
0010
0100
0010
0100
,
1000
0010
0100
0001
1000
0100
0010
0000
,
0002
0000
0203
0320
,
1030
0100
1000
0100
0020
0000
0032
0000
,
2003
0000
3020
0000
0130
0001
0020
0000
,
0130
0001
0100
0001
0200
0000
2300
0000
,
3002
0000
0203
0320
,
1030
0001
1000
0001
0020
0000
0230
0000
,
1300
0000
0000
0000
0000
0000
0000
0000
0010
0000
0000
0000
0000
0000
0000
0000
1000
0000
0000
0000
0010
0000
0000
0000
0100
0000
0000
0000
0000
0000
0000
0000
0000
0001
0000
0000
0000
0000
0000
0000
0000
0000
1000
0000
0000
0000
0000
0000
,
0200
0000
0000
0000
0310
0100
0020
0000
,
0030
0000
0000
0000
0000
0000
0001
0000
0000
0200
0000
0000
0000
0000
0310
0000
1000
0000
0020
0000
0000
0000
0000
0000
,
0130
1000
0100
1000
0200
0000
0302
0000
,
0023
0000
0000
0230
0000
0000
1300
0001
1000
0001
0000
0010
,
0100
0000
0000
1000
0000
0000
0010
0000
0000
0100
0000
0000
0001
0000
0010
0000
,
0100
0000
1100
0000
0001
0100
0001
0000
,
0110
0000
1001
0000
1000
0100
1000
0000
,
0001
0010
0100
1000
0001
0100
0010
1000
,
0002
1000
2000
3003
,
0101
0000
1000
0100
0000
0001
0100
1000
,
0000
0010
0100
0010
1000
0001
0010
0000
,
0100
1000
0001
0000
0100
0000
0101
0000
,
0001
0000
0000
0001
1000
0000
0010
0000
0000
0100
0000
0000
0001
0000
0010
0000
,
0200
1000
0320
0032
,
2003
0000
0000
0000
0000
0000
3020
0000
0000
0000
0000
0000
0130
0000
0001
0100
,
0001
0000
0010
0100
0000
1000
0100
0010
,
0000
0001
1000
0001
1000
0000
0220
0000
,
0330
0000
1001
0000
0001
0100
1000
0000
,
0200
0000
0010
0000
0302
0000
1003
0001
,
0010
0000
0000
0000
0100
0000
1000
0001
1000
0000
0000
0100
0000
0000
0110
0000
,
0000
0000
0001
0000
0100
0001
0000
0000
0010
0000
0000
0010
0000
0000
0100
0000
,
1000
0000
0001
0000
0100
0000
0002
0000
0000
0000
0000
0000
0013
0000
0001
1000
,
0001
0000
0000
0000
1000
0000
0000
0100
0000
0000
0010
0000
0001
0100
0000
0001
,
0100
0010
1000
0010
0100
0100
0001
0001
,
1000
0000
0000
0000
0100
0000
0010
0000
0001
0000
0000
1000
0000
0000
1001
0000
,
0000
0000
0000
0000
0110
0000
0000
0001
0000
0000
1000
0000
0010
0000
0100
0000
,
0001
0000
0000
0010
0000
0000
0001
0000
0000
0100
0000
0000
0010
0000
1000
0000
,
0001
0000
0000
0000
1001
0000
0000
0000
1000
0000
0000
0100
0000
0000
0010
0000
,
0001
0000
0100
0000
0001
0000
0000
0000
1000
0000
0000
1000
0100
0000
0010
0000
,
0001
0000
0100
1000
0000
0100
0001
1000
,
0000
0100
0010
0000
0001
1000
0010
0010
,
0100
0000
0000
0100
0001
0000
1000
0000
0100
0000
0100
0000
0010
0000
0001
0000
,
1000
0010
1000
0100
0010
0001
0100
0001
,
0010
0000
0000
0011
0000
0000
0100
0000
0000
1100
0000
0000
0001
0000
1000
0000
,
0010
0000
0000
1010
0000
0000
0100
0000
0000
0101
0000
0000
1000
0000
0001
0000
,
1000
0000
0000
0100
0000
0000
0010
0001
0010
0000
0000
0100
0000
0000
1001
0000
,
0000
0000
0110
0000
0000
1000
0000
0000
0001
0000
0000
0001
1000
0000
0100
0000
,
0010
0000
0000
0010
0001
0000
0000
0001
1000
0000
0000
1000
0010
0000
0000
0010
,
0100
0000
0001
0000
1000
0000
0100
0000
0010
0000
0010
0000
0001
1000
0001
0000
,
0200
0000
0000
0000
,
0000
0000
0000
0000
,
0000
0000
0000
0000
,
0000
0000
0000
0000
,
0300
0000
0000
0000
;

//--------------- dance-single - forcednature ----------------
#NOTES:
     dance-single:
     forcednature:
     Hard:
     16:
     0,0,0,0,0:
0000
0000
0000
0000
,
0000
0000
0000
0000
,
0000
0000
0000
0000
,
0000
0000
0000
0000
,
0000
0000
0000
0000
,
0000
0000
0000
0020
,
0130
0000
0000
0110
0000
0000
2002
0000
0000
0000
0000
0000
0000
0000
0000
0000
,
0000
0000
0000
0000
0000
0000
0000
0000
3003
0000
0000
0000
1000
0001
1000
0001
,
1000
0000
0000
0010
0000
0000
0100
0000
0000
0001
0000
0000
0010
0000
0220
0000
,
0000
0330
2002
3003
,
1000
0000
0100
0000
0010
0000
0000
0000
0001
0000
0100
0000
0010
0000
0000
0010
,
1000
0000
0001
0000
0010
0000
0000
0000
0100
0000
0000
0100
1000
0000
0001
0000
,
0100
0000
0010
1000
0010
0000
0100
0000
0001
0000
0000
0001
0010
0000
0100
1000
,
0100
1000
0010
1000
0002
0000
2003
0000
,
3001
0100
0001
0010
0001
0100
0001
0010
,
0100
1000
0010
1000
0100
1000
0010
1000
,
0001
0000
0001
0000
1000
0000
1000
0000
0001
0010
0100
1000
0001
1000
0010
0000
,
0200
0000
0000
0002
0000
0000
0303
0000
,
1000
0000
0000
0100
0000
0000
1100
0000
0001
0000
0000
0100
0000
0000
0101
0000
,
1000
0000
0000
0010
0000
0000
1010
0000
0001
0000
0000
0010
0000
0000
0011
0000
,
1000
0000
0100
0000
0010
0000
0001
0000
1000
0100
1000
0000
0001
0100
0001
0000
,
0020
0000
0100
0000
0130
1000
0001
0000
,
0100
0010
0110
0000
0001
0000
1000
0010
,
0100
0001
1000
0001
0010
0100
1000
0000
,
0001
0100
0010
1000
0100
1000
0010
0000
,
0100
0001
0010
0000
0100
1000
0010
0000
,
0100
0001
1000
0010
0100
0001
1000
0000
,
0100
0010
0001
1000
0100
0100
0010
0000
,
0001
0000
0100
0000
0010
0000
0000
0000
1000
0000
0100
0000
0010
0000
0001
1000
,
0001
0000
1000
0000
0010
0000
0100
0001
0100
0000
0100
0000
0010
0000
0010
0000
,
1001
0000
0001
0000
0100
0010
1000
0000
,
0001
0010
0100
0001
0100
1000
0010
0100
,
0110
0000
0100
0000
0001
1000
0100
0010
,
0110
0000
0000
0001
1000
0000
0010
0000
0010
0000
0010
0000
0100
0000
0001
0000
,
1000
0000
0000
1000
0100
0000
0100
0000
0010
0000
0001
0000
0100
0000
0001
0000
,
0001
0001
1000
0010
1000
0200
0301
0200
,
0310
0000
0010
0000
0110
0000
0000
0000
1000
0100
1000
0000
0001
0100
0001
0000
,
0020
0000
0000
0030
,
2100
0000
0100
0000
3002
0000
0013
0001
,
0200
0000
0000
0000
0310
0000
0000
0100
0001
0000
1000
0000
0001
0000
0010
0000
,
0000
0000
0100
0000
1001
0000
0000
0000
2000
0000
0000
0000
3010
0000
0000
0010
,
0100
0000
0001
0000
0011
0000
0000
0100
0000
0000
1010
0000
0000
0100
0000
0000
,
2002
0000
0000
3003
,
0220
0000
0000
0330
,
1000
0100
1000
0010
0100
0001
0010
0001
,
1000
0001
1000
0001
1000
0001
1000
0001
1000
0001
1000
0001
0010
0000
0000
0000
,
0200
0000
0000
1300
0200
0000
0320
0000
,
0031
0100
1000
0100
0020
0000
2030
0000
,
3001
0010
0001
0010
0200
0000
0000
0000
1300
0000
0001
0100
0020
0000
0000
0000
,
1030
1000
1000
1000
0200
0000
0320
0000
,
0032
0000
0000
0103
0002
0000
0023
0000
,
0130
0001
0100
1000
0020
0000
0230
0000
,
0301
0000
0000
0000
0000
0000
0000
0000
0001
0000
0000
0000
0010
0000
0000
0000
0100
0000
0000
0000
1000
0000
0000
0000
0001
0000
0000
0000
0000
0000
0000
0000
0000
0101
0000
0000
0000
0000
0000
0000
0000
0000
1000
0000
0000
0000
0000
0000
,
0010
0000
0000
0000
0100
0000
0010
0000
1000
0000
0001
0010
0200
0000
0000
0000
,
1300
0000
0000
0000
0000
0000
0010
0000
0000
1001
0000
0000
0000
0000
0001
0000
0100
0000
0020
0000
0000
0000
0000
0000
,
1030
0000
0000
0100
0000
0000
0001
0000
0000
0100
0000
0000
0010
0000
0000
0000
0010
0000
0002
0000
0000
0000
0000
0000
,
0103
0000
0000
0001
0000
0000
0100
0000
0000
0001
0000
0000
2000
0000
0000
0000
0000
0000
0000
0000
0000
0000
0000
0000
3100
0000
0000
0000
0010
0000
0000
0000
0001
0000
0000
0000
0010
0000
0000
0000
0000
0000
0000
0000
0100
0000
0000
0000
,
1000
0000
0000
1100
0000
0000
0001
0000
0000
0101
0000
0000
0010
0100
0010
0000
,
0100
0000
1001
0000
1000
0010
0001
0000
,
0110
0000
1001
0000
0001
0010
1000
0000
,
0010
0000
0001
0000
0100
0000
0001
0000
1000
0100
1000
0000
0001
0100
0001
0000
,
0020
0000
0000
0000
0000
0000
0000
0000
0031
0010
0100
1000
0010
0000
0000
0000
,
1001
0000
0000
0000
1000
0000
1100
0000
0000
0000
0001
0000
0100
0000
0010
1000
,
0000
0000
0100
0000
0010
0000
0001
1000
0001
0000
0100
0000
0110
0000
0000
0000
,
1000
0001
1002
0000
0100
0000
1000
0000
,
0013
0000
0000
0010
0001
0000
0101
0000
0000
1010
0000
0000
1000
0000
0001
0010
,
0200
0000
0001
0000
1300
0010
0100
0001
,
2000
0000
0000
0000
0100
0000
3002
0000
0000
0000
0010
0000
1003
0000
0001
0010
,
0100
0000
0000
0000
1000
0000
0101
0000
0000
0000
0001
0000
1100
0000
1000
0010
,
0000
0000
0100
0000
0100
0000
0100
0001
1000
0000
0000
0000
0110
0000
0000
0000
,
0000
0000
0001
1000
0020
0000
0000
0000
0100
0000
0000
0000
0001
0000
0000
0000
,
2030
0000
0000
0000
0000
0000
0100
0000
0000
0000
0000
0000
0002
3000
0000
0000
0000
0000
0013
0000
0000
0100
0000
0000
,
0210
0000
0000
0000
1300
0000
0010
0100
0001
0000
0000
0011
0000
0000
1100
0000
,
0000
0000
0001
0000
1000
0010
0000
0100
0001
0000
1000
0001
0000
0010
0100
0000
,
1000
0000
0001
0000
1001
0000
0000
0000
0001
0000
0100
0000
0010
0000
1000
0001
,
1000
0000
0000
0000
1100
0000
0000
0110
0000
0000
0011
0000
0001
1000
0000
0001
,
0100
0000
0010
0000
1000
0000
0001
0000
1000
0100
1000
0000
0001
0100
0001
0000
,
0010
0000
0000
0000
0100
0000
0010
0001
1000
0000
0001
0100
0000
0010
1000
0000
,
0000
0000
0000
0000
1001
0000
0000
1100
0000
0000
0100
0000
0010
0000
0001
1000
,
0010
0000
0100
0001
0000
0001
0010
0000
0010
0100
0000
0100
1000
0000
0010
0100
,
0002
0000
0000
0000
0010
0000
0000
0000
1003
0000
0001
0100
0000
0100
0010
0000
,
1000
0000
0100
0000
1000
0001
1000
0000
0010
0000
0100
0001
0000
0010
0001
0000
,
0101
0000
1000
1100
0010
0010
1001
0000
,
0000
0000
0100
0000
0110
0000
0000
0000
0001
0000
0100
0000
0010
1000
0001
0000
,
0010
0000
0100
1000
0000
0001
0100
0010
1000
0010
1000
0000
0001
0000
0010
0000
,
0100
1000
0100
0000
0010
0001
0010
0000
0001
0100
0001
0000
1000
0010
1000
0000
,
0001
0000
0000
0011
0000
0000
1000
0000
0000
1010
0000
0000
0100
0000
0010
0000
,
0101
0000
0000
1000
0000
0000
1100
0000
0000
0001
0000
0000
1000
0000
0100
0000
,
0010
0000
0000
0010
0001
0000
1000
0001
0100
0000
0000
0110
0000
0000
1001
0000
,
0000
0000
0001
0000
0100
1000
0000
0100
0010
0000
0100
0001
1000
0010
1000
0000
,
0001
0000
1000
0100
0010
0000
0001
0100
0010
0000
1000
0001
0010
0000
0001
1000
,
0010
0000
0010
0000
0100
0000
0100
0000
0001
1000
0001
1000
0001
1000
0001
1000
,
0200
0320
0032
0203
,
0320
2030
3002
0023
,
0230
0320
0032
0203
,
0320
2030
3002
0023
,
0030
0000
0000
0000
;

//--------------- dance-double - forcednature ----------------
#NOTES:
     dance-double:
     forcednature:
     Easy:
     10:
     0,0,0,0,0:
00000000
00000000
00000000
00000000
,
00000000
00000000
00000000
00000000
,
00000000
00000000
00000000
00000000
,
00000000
00000000
00000000
00000000
,
00000000
00000000
00000000
00000000
,
00000000
00000000
00000000
00000000
,
00010000
00000000
00000000
00001000
00000000
00000000
00022000
00000000
00000000
00000000
00000000
00000000
00000000
00000000
00000000
00000000
,
00000000
00000000
00000000
00033000
,
00000100
00000000
00000000
00000100
00000000
00000000
00010000
00000000
00000000
00010000
00000000
00000000
00001000
00000000
02000000
00000000
,
00000000
03000000
01100000
00000000
,
10010000
10000000
01000000
01000000
,
00010000
00010000
00001000
00001000
,
00000100
00000001
00000010
00000001
,
00000100
00001000
00010000
00010000
,
00100000
00100000
10000000
10000000
,
01000000
01000000
00010000
00010000
,
00001000
00010000
00001000
00000000
00010000
00001000
00010000
00000000
,
00000200
00000000
00002000
00003300
,
00010000
00000000
00000000
00000100
00000000
00000000
00010000
00000000
00001000
00000000
00000000
01000000
00000000
00000000
00001000
00000000
,
00010000
00000000
00000000
00000010
00000000
00000000
00010000
00000000
00001000
00000000
00000000
00100000
00000000
00000000
00001000
00000000
,
00020000
00230000
20300000
32000000
,
00200000
00000000
00000000
03300000
,
10000000
00010000
10000000
00000000
00100000
00000000
00010000
00000000
,
00001000
00000010
00000100
00000000
,
00001000
00000001
00000100
00000010
,
00010000
00001000
00100000
00000000
,
00010000
01000000
00001000
00010000
,
00000100
00001000
00000010
00000000
,
00010000
00001000
00100000
00010000
,
10000000
00100000
10000000
00000000
00100000
10000000
00100000
00000000
,
01000000
00010000
01000000
00001000
,
00010000
00000100
00001000
00000000
,
00000110
00000010
00001000
00000001
,
00001001
00000000
00001000
00000000
00000100
00001000
00000100
00000000
,
00010000
00000000
00001000
01000000
00001000
00000000
00010000
00000000
,
00100000
01000000
00100000
00000000
10000000
00000000
00010000
00000000
,
00100000
00010000
00100000
00000000
00001000
00000000
00010000
00000000
,
00020020
00000000
00000000
00030030
,
00000001
00000001
00000010
00000010
,
00000100
00000000
00000100
00000000
00010000
00000000
00000000
00011000
,
00000000
01000000
00010000
00010000
,
00100000
00000000
00000000
00000000
00010000
00000000
00000000
10000000
00000000
00000000
00010000
00000000
00000000
10000000
00000000
00000000
,
00200000
00000000
00000000
00300000
,
00020000
00000000
00000000
00030000
,
00002000
00010000
00023000
00000100
,
00030100
00010000
00000100
00010000
00000100
00010000
00001000
00000000
,
00000100
00000000
00000001
00000010
,
00000100
00000000
00001000
00000001
00001000
00000000
00000010
00000000
,
00010000
00000000
00001000
00000000
,
00100000
00010000
01000000
00010000
,
00100000
00000000
01000000
00000000
,
10000000
00000000
00010000
01000000
00010000
00000000
00100000
00000000
,
00001000
00000000
00000000
00000000
00000000
00000000
00000000
00000000
00010000
00000000
00000000
00000000
00000000
00000000
00000000
00000000
00001000
00000000
00000000
00000000
00000000
00000000
00000000
00000000
00010000
00000000
00000000
00000000
00000000
00000000
00000000
00000000
00000000
00000100
00000000
00000000
00000000
00000000
00000000
00000000
00000000
00000000
00001000
00000000
00000000
00000000
00000000
00000000
,
00000200
00000000
00000010
00000310
,
00000000
00000000
00000000
00000000
00000000
00000000
00000001
00000000
00000000
00001000
00000000
00000000
00000000
00000000
00001000
00000000
00000000
00000000
00001000
00000000
00000000
00000000
00000000
00000000
,
00000010
00010000
00001000
00100000
,
01000000
00000000
10000000
00000000
00010000
01000000
00010000
00000000
,
00100000
00000000
00000000
00001000
00000000
00000000
00100000
00000000
00000000
00001000
00000000
00000000
00010000
00000000
00000100
00000000
,
00000000
00001000
00000001
00000100
,
00001000
00010000
01000000
10000000
,
00100000
01000000
00100000
00000000
01000000
00010000
01000000
00000000
,
00002000
00000000
00000000
00003000
,
00010100
00000000
00000000
01001000
00000000
00000000
00010100
00000000
,
00000000
00010000
00001000
00000000
01000000
00010000
01000000
00000000
,
01100000
00100000
10000000
01000000
,
00010000
00000000
00000000
00001000
00000000
00000000
00010000
00000000
00000000
00001000
00000000
00000000
00010000
00000000
00000000
00000000
,
00010100
00000100
00001000
00000001
,
00000100
00000000
00000010
00010000
00000000
00010000
00001000
00000000
,
00101000
00000000
00000000
00010010
00000000
00000000
00101000
00000000
,
00000000
00001000
00010000
00000000
00100000
00000000
01100000
00000000
,
00000000
10010000
10000000
01000000
,
00100000
00000000
00010000
00000000
00100000
00000000
00001000
00010000
,
00001000
00000000
00000000
00000000
00000010
00000000
00000000
00000000
00000100
00000000
00000000
00000100
00000000
00000000
00000100
00000000
,
00000000
00000000
00001000
00000000
00000000
00000001
00000000
00000000
00000100
00000000
00000000
00000010
00000000
00000000
00001000
00000000
,
00000001
00000010
00000001
00000000
00000100
00000000
00001000
00000000
,
00010000
00000000
00000000
00000000
00100000
00000000
00000000
10000000
00000000
00000000
00100000
00000000
10000000
00000000
00000000
00000000
,
01000000
00100000
00010000
00000000
00100000
00001000
00010000
00000000
,
00011000
00000000
00000000
00000000
00001000
00000000
00000000
00000000
00000010
00000000
00000000
00000100
00000000
00000000
00000010
00000000
,
00000000
00000000
00000000
00000000
00000001
00000000
00000000
00000001
00000000
00000000
00000100
00000000
00000010
00000000
00000000
00000000
,
00001000
00000000
00000000
00001000
00000000
00000000
00000100
00000000
00000000
00010000
00000000
00000000
00001000
00000000
00000000
00000000
,
00011000
00000000
00010000
00000000
00100000
00000000
10000000
00010000
,
10000000
01000000
00010000
00001000
,
00011000
00000000
00010000
00001000
00000000
00001000
00000100
00000000
,
00000000
00000010
00001000
00000000
00000001
00000010
00000001
00000000
,
00001000
00000000
00000010
00000000
00010000
00001000
00010000
00000000
,
00000100
00010000
00001000
00000000
01000000
00001000
00010000
00000000
,
00100000
00000000
00000000
10000000
00000000
00000000
00100000
00000000
00000000
10000000
00000000
00000000
00010000
00000000
00000000
00000000
,
00100000
00000000
00000000
00001000
00000000
00000000
00100000
00000000
00000000
00001000
00000000
00000000
00010000
00000000
00000000
00000000
,
00000010
00000000
00000000
00001000
00000000
00000000
00000001
00000000
00001000
00000000
00000000
00000100
00000000
00000000
00000010
00000000
,
00000000
00000000
00000001
00000000
00000000
00000100
00000000
00000000
00001000
00000000
00000000
00010000
00000000
00000000
00001000
00000000
,
00010000
00010000
00100000
00100000
,
10000000
00010000
10000000
00010000
00100000
00001000
00010000
00000000
,
00000200
00000000
00000000
00000000
,
00000000
00000000
00000000
00000000
,
00000000
00000000
00000000
00000000
,
00000000
00000000
00000000
00000000
,
00000300
00000000
00000000
00000000
;

//--------------- dance-double - forcednature ----------------
#NOTES:
     dance-double:
     forcednature:
     Medium:
     13:
     0,0,0,0,0:
00000000
00000000
00000000
00000000
,
00000000
00000000
00000000
00000000
,
00000000
00000000
00000000
00000000
,
00000000
00000000
00000000
00000000
,
00000000
00000000
00000000
00000000
,
00000000
00000000
00000000
00000000
,
00001000
00000000
00000000
00010000
00000000
00000000
00022000
00000000
00000000
00000000
00000000
00000000
00000000
00000000
00000000
00000000
,
00000000
00000000
00033000
00000100
,
00001000
00000000
00000000
00000001
00000000
00000000
00000100
00000000
00000000
00000010
00000000
00000000
00001000
00000000
00000002
00000000
,
00000000
00000003
00000220
00000330
,
00011000
00010000
00001000
00001000
,
01000000
00010000
01000000
00000000
00100000
00000000
10000000
00000000
,
01000000
00100000
01000000
00000000
00010000
00000000
00010000
00000000
,
00001000
00000100
00001000
00000100
00000002
00000000
00002003
00000000
,
00003100
00010000
00000100
00010000
00001000
01000000
00001000
01000000
,
00010000
00100000
00010000
00100000
00001000
00010000
00001000
00010000
,
00000100
00001000
00000010
00010000
00001000
00100000
00010000
01000000
,
00200000
00000000
00000000
20000000
00000000
00000000
30300000
00000000
,
10000000
00000000
00000000
01000000
00000000
00000000
00010000
00000000
00001000
00000000
00000000
00000100
00000000
00000000
00000001
00000000
,
00000010
00000000
00000000
00001000
00000000
00000000
00010000
00000000
00100000
00000000
00000000
00010000
00000000
00000000
00001000
00000000
,
00010000
00000100
00001000
00000010
00010000
00001000
00100000
00010000
,
02000000
00100000
03100000
10010000
,
10000000
01000000
00010000
00000000
00001000
00000000
00000100
00000000
,
00000010
00000000
00000100
00000000
00001000
00010000
00001000
00000000
,
00100000
00001000
00010000
00000000
00100000
00000000
10000000
00000000
,
00010000
00000000
10000000
00000000
01000000
00010000
00001000
00000000
,
00010000
00001000
00000100
00000000
00000001
00000000
00000010
00000000
,
00000100
00000000
00001000
00000000
00000001
00000100
00000010
00000000
,
00001000
00000100
00010000
00000000
00001000
00000000
01000000
00000000
,
00100000
10000000
00010000
00000000
00100000
00001000
00010000
00000000
,
00000010
00001000
00000001
00000000
00000010
00000000
00000100
00000000
,
00001000
00000000
00000100
00000000
00010000
00000000
00001000
01000000
,
00010000
00000000
00100000
00000000
01000000
00000000
10000000
00100000
,
01000000
00000000
00000000
00010000
00000000
00000000
01000000
00000000
00001000
00000000
00010000
00000000
00001000
00000000
00000000
00000000
,
00011000
00000000
00010000
00000100
00001000
00000100
00000010
00000000
,
00000001
00001000
00000010
00010000
00001000
01000000
00010000
00000000
,
00100000
00001000
00010000
00000000
00100000
10000000
00010000
10000000
,
02000000
00000000
00000000
03000000
,
00020000
00001000
00032000
00000100
,
00003200
00000000
00000001
00000000
00000302
00000010
00000000
00000010
,
00000003
00000001
00002000
00000000
00003020
00000000
00010000
00000000
,
00010030
00000000
00001000
00000000
00100000
00000000
00000000
00010000
00000000
00000000
10000000
00000000
00000000
00010000
00000000
00000000
,
02000000
00000000
00000000
03000000
,
00022000
00000000
00000000
00033000
,
00000100
00010000
00000100
00010000
00001000
01000000
00001000
01000000
,
00010000
00100000
00001000
00010000
00000010
00001000
00000100
00000000
,
00000020
00000000
00000032
00000203
,
00001300
00010000
00001000
00010000
00200000
00000000
20300000
00000000
,
32000000
00000000
03020000
00000000
00031000
00000010
00000200
00000000
,
00001300
00000001
00001000
00000001
00000200
00000000
00002300
00000000
,
00023000
00000000
00230000
20300000
,
31000000
00100000
01000000
00100000
00020000
00000000
02030000
00000000
,
03001000
00000000
00000000
00000000
00000000
00000000
00000000
00000000
00010000
00000000
00000000
00000000
00000000
00000000
00000000
00000000
00001000
00000000
00000000
00000000
00010000
00000000
00000000
00000000
00000100
00000000
00000000
00000000
00000000
00000000
00000000
00000000
00000000
00001000
00000000
00000000
00000000
00000000
00000000
00000000
00000000
00000000
00000001
00000000
00000000
00000000
00000000
00000000
,
00000200
00000000
00000000
00000000
00001300
00010000
00002000
00000000
,
00003000
00000000
00000000
00000000
00000000
00000000
00010000
00000000
00000000
00200000
00000000
00000000
00000000
00000000
10300000
00000000
00010000
00000000
20000000
00000000
00000000
00000000
00000000
00000000
,
31000000
00010000
01000000
00010000
00002000
00000000
00003020
00000000
,
00000230
00000000
00000000
00002300
00000000
00000000
00003001
00000100
00000001
00000100
00000000
00000100
,
00000010
00000000
00000000
00010000
00000000
00000000
00001000
00000000
00000000
01000000
00000000
00000000
00010000
00000000
10000000
00000000
,
01000000
00000000
01100000
00000000
00100000
00001000
00010000
00000000
,
00001000
00000000
00011000
00000000
00010000
00000100
00001000
00000000
,
00000001
00000100
00000010
00010000
00001000
00100000
01000000
10000000
,
00200000
01000000
02000000
03300000
,
10010000
00000000
10000000
01000000
00000000
00010000
00001000
00000010
,
00000000
00000100
00001000
00000100
00010000
00001000
00010000
00000000
,
00100000
10000000
00010000
00000000
00100000
00000000
00011000
00000000
,
00000100
00000000
00000000
00000100
00001000
00000000
00000001
00000000
00000000
00000100
00000000
00000000
00000001
00000000
00000010
00000000
,
00000200
00001000
00020300
00032000
,
02003000
00000000
00000000
03020000
00000000
00000000
00130000
01000000
,
10000000
00000000
00100000
00010000
00000000
00001000
00000100
00001000
,
00000000
00010000
01000000
00010000
00001000
00000000
00022000
00000000
,
00033000
00000000
00010100
00000000
00000100
00001000
00000010
00000000
,
00020000
00000000
00001000
00000000
00032000
00000000
00103000
00010000
,
01000000
00000000
00000000
00000000
00100000
00000000
10000000
00010000
10000000
00000000
00000000
01000000
00000000
00000000
00010000
00000000
,
00000000
00000000
00001000
00000000
00010000
00001000
00000000
00000000
00000010
00000000
00000000
00000010
00000000
00000000
00000100
00000000
,
00001000
00000001
00000100
00000002
00000000
00000000
00000013
00000100
,
00001000
00000000
00000000
00000000
00000010
00000000
00000000
00010000
00000000
00000000
00001000
00000000
00100000
00010000
00000000
00010000
,
01000000
00100000
10000000
00100000
00010000
00010000
00001000
00001000
,
00000010
00000000
00000000
00000000
00000100
00000000
00001000
00000000
00000001
00000000
00000000
00000100
00000000
00000000
00000101
00000000
,
00000000
00000000
00000000
00000000
00001010
00000000
00000000
00010000
00000000
00000000
00001000
00000000
00100000
00000000
00010000
00000000
,
10000000
00000000
00000000
00100000
00000000
00000000
00010000
00000000
00000000
00001000
00000000
00000000
00000100
00000000
00000001
00000000
,
00001000
00000000
00000000
00000000
00000110
00000000
00000000
00000000
00000001
00000000
00000000
00000010
00000000
00000000
00001000
00000000
,
00010000
00000000
01000000
00000000
00010000
00000000
00000000
00000000
00001000
00000000
00000000
00001000
00010000
00000000
00100000
00000000
,
10000000
00000000
01000000
00010000
00000000
00001000
00000100
00001000
,
00000000
00010000
00100000
00000000
00010000
00001000
00000010
00000010
,
00000100
00000000
00000000
00000100
00001000
00000000
00000001
00000000
00000100
00000000
00000100
00000000
00001000
00000000
00010000
00000000
,
00100000
10000000
00100000
01000000
00100000
00010000
00001000
00000010
,
00000100
00000000
00000000
00010000
00000000
00000000
00001000
00000000
00000000
00010000
00000000
00000000
00100000
00000000
00000000
00000000
,
01000000
00000000
00000000
00001000
00000000
00000000
00010000
00000000
00000000
00001000
00000000
00000000
00000010
00000000
00000000
00000000
,
00000100
00000000
00000000
00001000
00000000
00000000
00000001
00000100
00000001
00000000
00000000
00000010
00000000
00000000
00001000
00000000
,
00000000
00000000
00010000
00000000
00000000
00100000
00000000
00000000
10000000
00000000
00000000
10000000
00010000
00000000
00100000
00000000
,
00001000
00000000
00000000
00001000
00010000
00000000
00000000
00010000
00000100
00000000
00000000
00000100
00001000
00000000
00000000
00001000
,
00000001
00000000
00000100
00000000
00001000
00000000
00010000
00000000
00100000
00000000
00100000
00000000
10000000
00010000
10000000
00000000
,
02000000
00000000
00000000
00000000
,
00000000
00000000
00000000
00000000
,
00000000
00000000
00000000
00000000
,
00000000
00000000
00000000
00000000
,
03000000
00000000
00000000
00000000
;

//--------------- dance-double - forcednature ----------------
#NOTES:
     dance-double:
     forcednature:
     Hard:
     16:
     0,0,0,0,0:
00000000
00000000
00000000
00000000
,
00000000
00000000
00000000
00000000
,
00000000
00000000
00000000
00000000
,
00000000
00000000
00000000
00000000
,
00000000
00000000
00000000
00000000
,
00000000
00000000
00000000
00011000
,
01000000
00000000
00000000
00010000
00000000
00000000
20200000
00000000
00000000
00000000
00000000
00000000
00000000
00000000
00000000
00000000
,
00000000
00000000
00000000
00000000
00000000
00000000
00000000
00000000
30300000
00000000
00000000
00000000
10000000
01000000
00100000
00010000
,
01000000
00000000
00000000
00001000
00000000
00000000
00010000
00000000
00000000
00000100
00000000
00000000
00001000
00000000
00000002
00000000
,
00000000
00000003
00000220
00000330
,
00000001
00000000
00000100
00000000
00001000
00000000
00000000
00000000
00000100
00000000
00001000
00000000
00010000
00000000
00000000
00010000
,
00100000
00000000
10000000
00000000
00010000
00000000
00000000
00000000
00100000
00000000
00000000
00100000
01000000
00000000
10000000
00000000
,
00010000
00000000
01000000
00001000
01000000
00000000
00010000
00000000
00100000
00000000
00000000
00100000
00001000
00000000
00010000
00000010
,
00010000
00001000
00000010
00000100
00002000
00000000
00003002
00000000
,
00000103
00001000
00010000
00001000
00000100
00001000
00010000
00001000
,
00010000
01000000
00010000
00001000
00010000
01000000
00010000
00001000
,
00100000
00000000
00100000
00000000
00010000
00000000
00010000
00000000
10000000
00100000
10000000
00010000
01000000
00001000
00010000
00000000
,
00000200
00000000
00000000
00002000
00000000
00000000
00003300
00000000
,
00010000
00000000
00000000
00001000
00000000
00000000
00000010
00000000
00001000
00000000
00000000
00010000
00000000
00000000
00100000
00000000
,
00010000
00000000
00000000
00001000
00000000
00000000
00000100
00000000
00001000
00000000
00000000
00010000
00000000
00000000
01000000
00000000
,
00100000
00000000
00010000
00000000
00001000
00000000
00000100
00000000
00000010
00000001
00000010
00000000
00000001
00000100
00000001
00000000
,
00000020
00000000
00000100
00000000
00001030
00000010
00000001
00000000
,
00000100
00001000
00011000
00000000
00010000
00000000
00100000
10000000
,
00010000
10000000
01000000
00010000
00001000
00000100
00000010
00000000
,
00001000
00000100
00000001
00000100
00000010
00000001
00001000
00000000
,
00000010
00010000
00001000
00000000
00100000
00001000
00010000
00000000
,
00100000
10000000
00010000
10000000
01000000
00010000
00001000
00000000
,
00000100
00001000
00010000
00100000
10000000
10000000
01000000
00000000
,
00010000
00000000
00001000
00000000
00000010
00000000
00000000
00000000
00000100
00000000
00001000
00000000
00000001
00000000
00001000
00000010
,
00001000
00000000
00000100
00000000
00010000
00000000
00001000
01000000
00010000
00000000
00100000
00000000
01000000
00000000
00100000
00000000
,
00010000
00000000
01000000
00000000
00001000
00010000
00000100
00000000
,
00001000
00000001
00000100
00000001
00000010
00001000
00010000
00001000
,
01000000
00000000
00010000
00000000
10000000
01000000
00010000
00001000
,
00000100
00000000
00000000
00000100
00000001
00000000
00000010
00000000
00000010
00000000
00000010
00000000
00000100
00000000
00010000
00000000
,
00001000
00000000
00000000
00001000
01000000
00000000
01000000
00000000
00010000
00000000
10000000
00000000
01000000
00000000
00010000
00000000
,
00010000
00010000
00001000
00000100
00000001
00000020
00001030
00000020
,
00000130
00000000
00000100
00000000
00000110
00000000
00000000
00000000
00001000
00000100
00001000
00000000
00000100
00010000
00000100
00000000
,
00020000
00000000
00000000
00030000
,
00002000
00000000
01000000
00000000
02003000
00000000
03010000
01000000
,
00200000
00000000
00000000
00000000
10300000
00000000
00000000
10000000
01000000
00000000
00010000
00000000
00001000
00000000
00000010
00000000
,
00000000
00000000
00000100
00000000
00001001
00000000
00000000
00000000
00000002
00000000
00000000
00000000
00000103
00000000
00000000
00000100
,
00000010
00000000
00010000
00000000
00010010
00000000
00000000
00000100
00000000
00000000
00010010
00000000
00000000
00001000
00000000
00000000
,
00020200
00000000
00000000
00030300
,
02002000
00000000
00000000
03003000
,
00001000
00010000
00100000
01000000
00001000
00010000
01000000
00100000
,
00010000
10000000
00010000
10000000
00010000
10000000
00010000
10000000
00010000
10000000
00010000
10000000
00100000
00000000
00000000
00000000
,
00020000
00000000
00000000
00031000
00000020
00000000
00000230
00000000
,
00001300
00000010
00000001
00000010
00000200
00000000
00000302
00000000
,
00000013
00000100
00000010
00000100
00002000
00000000
00000000
00000000
00003010
00000000
00010000
00001000
00020000
00000000
00000000
00000000
,
00130000
00100000
00100000
00100000
20000000
00000000
32000000
00000000
,
03020000
00000000
00000000
00031000
00000200
00000000
00000302
00000000
,
00000013
00000100
00001000
00000100
00020000
00000000
00032000
00000000
,
01003000
00000000
00000000
00000000
00000000
00000000
00000000
00000000
01000000
00000000
00000000
00000000
00010000
00000000
00000000
00000000
00001000
00000000
00000000
00000000
00010000
00000000
00000000
00000000
00000010
00000000
00000000
00000000
00000000
00000000
00000000
00000000
00000000
00000100
00000000
00000000
00000000
00000000
00000000
00000000
00000000
00000000
00001000
00000000
00000000
00000000
00000000
00000000
,
00010000
00000000
00000000
00000000
00100000
00000000
10000000
00000000
00010000
00000000
10000000
01000000
00200000
00000000
00000000
00000000
,
00302000
00000000
00000000
00000000
00000000
00000000
00013000
00000000
00000000
00000010
00000000
00000000
00000000
00000000
00000100
00000000
00001000
00000000
00000200
00000000
00000000
00000000
00000000
00000000
,
00000301
00000000
00000000
00000010
00000000
00000000
00001000
00000000
00000000
00000010
00000000
00000000
00000100
00000000
00000000
00000000
00000100
00000000
00020000
00000000
00000000
00000000
00000000
00000000
,
00031000
00000000
00000000
01000000
00000000
00000000
00001000
00000000
00000000
01000000
00000000
00000000
00020000
00000000
00000000
00000000
00000000
00000000
00000000
00000000
00000000
00000000
00000000
00000000
00130000
00000000
00000000
00000000
01000000
00000000
00000000
00000000
10000000
00000000
00000000
00000000
01000000
00000000
00000000
00000000
00000000
00000000
00000000
00000000
01000000
00000000
00000000
00000000
,
00010000
00000000
00000000
00001000
00000000
00000000
00010000
00000000
00000000
00000010
00000000
00000000
00001000
00000001
00001000
00000000
,
00000100
00000000
00011000
00000000
01000000
00010000
00100000
00000000
,
01000000
00000000
00011000
00000000
00000100
00001000
00000010
00000000
,
00000100
00000000
00001000
00000000
00010000
00000000
00001000
00000000
00100000
00010000
00100000
00000000
01000000
10000000
01000000
00000000
,
00020000
00000000
00000000
00000000
00000000
00000000
00000000
00000000
00031000
00010000
00000100
00001000
00000100
00000000
00000000
00000000
,
00000011
00000000
00000000
00000000
00000001
00000000
00000100
00000000
00000000
00000000
00001000
00000000
00000100
00000000
00001000
00010000
,
00000000
00000000
01000000
00000000
10000000
00000000
00010000
00100000
00010000
00000000
01000000
00000000
01100000
00000000
00000000
00000000
,
10000000
01000000
00020000
00000000
00001000
00000000
00100000
00000000
,
00031000
00000000
00000000
00001000
00000010
00000000
00000100
00000000
00000000
00001000
00000000
00000000
00000011
00000000
00000000
00000001
,
00000200
00000000
00001000
00000000
00000310
00001000
00010000
01000000
,
00200000
00000000
00000000
00000000
10000000
00000000
02300000
00000000
00000000
00000000
00010000
00000000
03001000
00000000
01000000
00001000
,
00010000
00000000
00000000
00000000
00000100
00000000
00000001
00000000
00000000
00000000
00000100
00000000
00001000
00000000
00000010
00010000
,
00000000
00000000
00001000
00000000
00001000
00000000
00001000
01000000
00010000
00000000
00000000
00000000
10100000
00000000
00000000
00000000
,
00000000
00000000
10000000
01000000
00200000
00000000
00000000
00000000
10000000
00000000
00000000
00000000
00010000
00000000
00000000
00000000
,
00302000
00000000
00010000
00000000
00003200
00000000
00000301
00000100
,
00000120
00000000
00000000
00000000
00001030
00000000
00000010
00010000
00001000
00000000
00000000
01001000
00000000
00000000
00010100
00000000
,
00000000
00000000
00010000
00000000
00000000
00100000
00000000
00000000
10000000
00000000
00000000
01000000
00000000
00000000
00010000
00000000
,
00001000
00000000
00000010
00000000
00000100
00000000
00000000
00000000
00001000
00000000
00000001
00000000
00000100
00000000
00000010
00001000
,
00000010
00000000
00000000
00000000
00010000
00000000
00000000
00100000
00000000
00000000
10000000
00000000
00010000
10000000
00000000
10000000
,
01000000
00000000
00010000
00000000
00001000
00000000
00010000
00000000
00000100
00001000
00000100
00000000
00000010
00000001
00000010
00000000
,
00000100
00000000
00000000
00000000
00010000
00000000
00001000
01000000
00010000
00000000
10000000
01000000
00000000
01000000
00100000
00000000
,
00000000
00000000
00000000
00000000
00011000
00000000
00000000
00000100
00000000
00000000
00001000
00000000
00000001
00000000
00001000
00000010
,
00010000
00000000
00000000
00100000
00000000
00000000
10000000
00000000
00000000
01000000
00000000
00000000
00010000
00000000
00001000
00010000
,
00002000
00000000
00000000
00000000
00000010
00000000
00000000
00000000
00013000
00000000
00001000
00000100
00000000
00000100
00000001
00000000
,
00000010
00000000
00000100
00000000
00001000
00000010
00001000
00000000
00000100
00000000
00000000
00010000
00000000
00000000
00001000
00000000
,
01001000
00000000
01000000
10000000
01000000
01000000
00010000
00000000
,
00100000
00000000
00001000
00000000
00010000
00000000
00000000
00000000
00000010
00000000
00000010
00000000
00000100
00000001
00001000
00000000
,
00000010
00000000
00000000
00000100
00000000
00000000
00001000
00010000
00001000
00010000
00001000
00000000
00010000
00000000
00100000
00000000
,
01000000
00010000
01000000
00010000
10000000
00100000
10000000
00000000
01000000
00000000
00010000
00000000
00001000
00000000
00000010
00000000
,
00000100
00000000
00000000
00000001
00000000
00000000
00000100
00000000
00000000
00010000
00000000
00000000
00001000
00000000
00000000
00000000
,
01000000
00000000
00000000
10000000
00000000
00000000
01000000
00000000
00000000
00001000
00000000
00000000
00010000
00000000
00000000
00000000
,
00000010
00000000
00000000
00000010
00001000
00000000
00000100
00000010
00000001
00000000
00000000
00001000
00000000
00000000
00010000
00000000
,
00000000
00000000
01100000
00000000
00000000
10000000
00000000
00000000
01000000
00000000
00000000
00010000
00001000
00010000
00001000
00000000
,
00000100
00000000
00000001
00000100
00000001
00000000
00001000
00000001
00001000
00000000
00000100
00001000
00000100
00000000
00010000
00001000
,
00010000
00000000
00100000
00000000
01000000
00000000
00100000
00000000
10000000
00010000
10000000
00010000
10000000
00010000
10000000
00010000
,
20000000
32000000
03200000
00320000
,
00032000
00003200
00000320
00000032
,
00000203
00000320
00002030
00023000
,
02030000
03200000
20300000
30020000
,
00030000
00000000
00000000
00000000
;
