#VERSION:0.83;
#TITLE:JAVELIN;
#SUBTITLE:;
#ARTIST:Ras;
#TITLETRANSLIT:;
#SUBTITLETRANSLIT:;
#ARTISTTRANSLIT:;
#GENRE:;
#ORIGIN:;
#CREDIT:;
#BANNER:JAVELIN.png;
#BACKGROUND:JAVELIN-bg.png;
#PREVIEWVID:;
#JACKET:JAVELIN-jacket.png;
#CDIMAGE:;
#DISCIMAGE:;
#LYRICSPATH:;
#CDTITLE:;
#MUSIC:JAVELIN.ogg;
#OFFSET:-0.032000;
#SAMPLESTART:71.827927;
#SAMPLELENGTH:15.000000;
#SELECTABLE:YES;
#BPMS:0.000=147.000;
#STOPS:;
#DELAYS:;
#WARPS:;
#TIMESIGNATURES:0.000=4=4;
#TICKCOUNTS:0.000=4;
#COMBOS:0.000=1;
#SPEEDS:0.000=1.000=0.000=0;
#SCROLLS:0.000=1.000;
#FAKES:;
#LABELS:0.000=Song Start;
#BGCHANGES:;
#KEYSOUNDS:;
#ATTACKS:
;

//---------------dance-single - ----------------
#NOTEDATA:;
#CHARTNAME:;
#STEPSTYPE:dance-single;
#DESCRIPTION:;
#CHARTSTYLE:;
#DIFFICULTY:Hard;
#METER:15;
#RADARVALUES:0.720039,0.791843,0.347872,0.394255,0.626169,652.000000,607.000000,45.000000,51.000000,0.000000,0.000000,0.000000,0.000000,0.000000,0.720039,0.791843,0.347872,0.394255,0.626169,652.000000,607.000000,45.000000,51.000000,0.000000,0.000000,0.000000,0.000000,0.000000;
#CREDIT:;
#NOTES:
// measure 0
0000
0000
0000
0000
,  // measure 1
0000
0000
0000
0000
,  // measure 2
0000
0000
0000
0000
,  // measure 3
0000
0000
0000
0000
,  // measure 4
2000
0000
0000
0100
0000
0000
3002
0000
0000
0010
0000
0000
1003
0000
0001
0000
,  // measure 5
2000
0000
0000
0010
0000
0000
3002
0000
0000
0100
0000
0000
0023
0000
0000
0000
,  // measure 6
0230
0000
0000
1000
0000
0000
0320
0000
0000
0001
0000
0000
0130
0000
0010
0000
,  // measure 7
0002
0000
0000
2003
0000
0000
3010
0000
0000
0100
0010
1000
0002
0000
0000
0000
,  // measure 8
1003
0000
0000
1100
0000
0000
1001
0000
0000
1100
0000
0000
0100
0010
0000
0010
,  // measure 9
0001
0000
1001
0000
0000
0101
0000
0000
1001
0000
1000
0010
0000
0010
0100
0000
,  // measure 10
0110
0000
0010
1000
0010
0000
0100
0001
0100
0000
0000
0101
0000
0000
1100
0000
,  // measure 11
0100
0000
1000
0100
0010
0002
0000
0000
0103
0000
0000
0100
0010
0000
0100
0000
,  // measure 12
0001
0000
0100
0010
0000
0100
0001
0000
0010
0001
0000
0001
0010
0000
0100
0010
,  // measure 13
0100
0000
0100
0000
0010
0001
0000
0001
0100
0000
0100
0020
0000
0000
0000
0000
,  // measure 14
1030
0000
0100
0000
0010
0000
0010
0100
1000
0000
1000
0010
0000
0010
0100
0000
,  // measure 15
0010
0000
1000
0100
1000
0100
0000
0100
0010
0000
0000
0020
0000
0000
0000
0000
,  // measure 16
0031
0000
0001
0100
0000
0100
0010
0000
0010
1000
0000
1000
0100
0010
0000
0100
,  // measure 17
1000
0000
1000
0000
0010
0100
0000
0100
0001
0000
0001
0010
0000
0010
1000
0000
,  // measure 18
0010
0000
0000
0011
0000
0000
0110
0000
0000
1001
0000
0000
1000
0000
0001
1000
,  // measure 19
0100
1010
0101
1001
,  // measure 20
0001
0000
0010
0000
0100
0000
0010
0000
0000
0010
1000
0000
0010
0000
0100
0000
,  // measure 21
1000
0000
0000
0101
0000
0000
0011
0000
0000
0001
0000
0001
0100
0000
0010
0000
,  // measure 22
1000
0000
0100
0000
0010
0000
0100
0000
0000
0100
0001
0000
0100
0000
0010
0000
,  // measure 23
0001
0000
0000
1100
0000
0000
1010
0000
0000
1000
0000
1000
0010
0000
0100
0000
,  // measure 24
0001
0000
0100
0000
1000
0000
0100
0000
0000
0100
0010
0000
1000
0000
0001
0000
,  // measure 25
0010
0000
0000
0110
0000
0000
1001
0000
0000
1000
0000
1000
0100
0000
0010
0000
,  // measure 26
0001
0000
0010
0000
1000
0000
0010
0100
0010
0000
0000
0011
0000
0000
1100
0000
,  // measure 27
1000
0000
0000
1000
0000
0000
0010
0000
0000
0010
0000
0100
0001
0000
1000
0000
,  // measure 28
0001
0000
0010
0000
0100
0000
1000
0000
0010
0100
0000
0100
0010
0000
1000
0000
,  // measure 29
0001
0000
0010
0100
0000
0100
0010
0000
0000
0010
0001
0000
1000
0000
0100
0000
,  // measure 30
1000
0000
0010
0000
0100
0000
0001
0000
0010
0100
0000
0100
0010
0000
0001
0000
,  // measure 31
1000
0000
0010
0100
0000
0100
0010
0000
0000
0010
0000
1000
0001
0000
0010
0000
,  // measure 32
0001
0000
1000
0000
0010
0000
0100
0000
0001
1000
0000
1000
0100
0000
0010
0000
,  // measure 33
0100
0000
1000
0001
0000
0001
0100
0000
0000
0100
0010
0000
1000
0000
0001
0000
,  // measure 34
1000
0000
0000
1100
0000
0000
1010
0000
0000
0011
0000
0000
0101
0000
0001
0000
,  // measure 35
1000
0000
0010
0100
0000
0010
1000
0000
0000
0001
0010
0001
0000
1000
0100
1000
,  // measure 36
0001
0001
0101
0001
1000
1000
1010
1000
,  // measure 37
0001
0001
0011
0001
1000
1000
1100
1000
,  // measure 38
0010
0010
1010
0010
0100
0100
0101
0100
,  // measure 39
0001
0000
0010
0000
0011
0000
0010
0000
0100
0000
0100
1000
0000
0001
0100
0000
,  // measure 40
0010
1000
0010
0000
0100
0010
0100
0000
0001
1000
0001
0000
0100
0001
0100
0000
,  // measure 41
0001
0010
0001
0000
0010
0100
0010
0000
0001
1000
0001
0000
1000
0100
1000
0000
,  // measure 42
0001
1000
0001
0100
0010
1000
0001
0000
0010
0100
0010
0001
1000
0010
0100
0000
,  // measure 43
0010
0000
1000
0001
0000
0000
0001
1000
0000
0000
0001
0000
0200
0000
0320
0000
,  // measure 44
0230
0000
0301
0000
2000
0000
3001
0000
0020
0000
0031
0000
1000
0100
1000
0000
,  // measure 45
0002
0000
0013
0000
0200
0000
0310
0000
1000
0000
0010
0100
0000
0100
0010
0000
,  // measure 46
0200
0000
1300
0000
0002
0000
1003
0000
0020
0000
1030
0000
0001
0100
0001
0000
,  // measure 47
0020
0000
0130
0000
1000
0100
1000
0000
0020
0000
0130
0000
0001
0100
0001
0000
,  // measure 48
2000
0000
3100
0000
0020
0000
0130
0000
0002
0000
0103
0000
0010
0100
0010
0000
,  // measure 49
0002
0000
1003
0000
0020
0000
1030
0000
0001
0000
0010
0001
0000
1000
0100
0000
,  // measure 50
2000
0000
3010
0000
0200
0000
0310
0000
0002
0000
0013
0000
0100
0010
0100
0000
,  // measure 51
0002
0000
0013
0000
0100
0010
0100
0000
2000
0000
3010
0000
0100
0010
1000
0001
,  // measure 52
2000
0000
3100
0000
2000
0000
3001
0000
2000
0000
3010
0000
1000
0001
0000
0100
,  // measure 53
0002
0000
0103
0000
0002
0000
0013
0000
0001
0000
1000
0001
0100
0000
0010
0000
,  // measure 54
0200
0000
0301
0000
0200
0000
1300
0000
0200
0000
0310
0000
0100
0001
0000
0001
,  // measure 55
0020
0000
0031
0000
0020
0000
1030
0000
0010
0000
0100
0010
0001
0000
1000
0000
,  // measure 56
0001
0000
1000
0010
0000
0000
1000
0100
0000
0000
1000
0010
0000
0000
0010
0000
,  // measure 57
1000
0000
0001
0010
0000
0000
0001
0100
0000
0000
0001
0010
0000
0000
0010
0000
,  // measure 58
0001
0000
0100
0001
1000
0000
0010
1000
0001
0000
0010
0001
1000
0000
0100
1000
,  // measure 59
0002
0000
0020
0033
,  // measure 60
0001
0000
1000
0000
0100
0000
1000
0000
0000
0100
0000
0100
0010
0000
0001
0000
,  // measure 61
1000
0000
0001
0100
0000
0100
0010
0000
0000
0010
1000
0000
0001
0000
0100
0000
,  // measure 62
0100
0000
0010
0000
1000
0000
0010
0000
0000
0100
0000
0100
0001
0000
1000
0000
,  // measure 63
0100
0000
1000
0001
0000
0001
0010
0000
0000
0001
0000
1000
0100
0000
0100
0000
,  // measure 64
1000
0000
0001
0000
0100
0000
0001
0000
0000
0100
0000
0100
0010
0000
1000
0000
,  // measure 65
0001
0000
1000
0100
0000
0100
0010
0000
0000
0010
0001
0000
1000
0000
0100
0000
,  // measure 66
0100
0000
0010
0000
0001
0000
0010
0000
0000
0100
0000
0100
1000
0000
0001
0000
,  // measure 67
0100
0000
0000
0101
0000
0000
1010
0000
0000
1001
0000
0000
1000
0100
0010
0001
,  // measure 68
1000
0010
0110
0010
1000
0001
1001
1000
,  // measure 69
0001
0010
0110
0010
0001
1000
1001
0001
,  // measure 70
1000
0010
1010
0010
0100
0001
0101
0001
,  // measure 71
1000
0100
1100
0100
0010
0001
0011
0010
,  // measure 72
0100
0000
0010
0001
0010
0000
0100
0000
1000
0000
0002
0000
0103
0000
0000
0000
,  // measure 73
0100
0000
0010
1000
0010
0000
0100
0000
0001
0000
2000
0000
3100
0000
0000
0000
,  // measure 74
0100
1000
0001
0100
0010
2000
3001
0000
,  // measure 75
0001
0010
0100
1000
0010
0100
0002
0103
;

//---------------dance-single - ----------------
#NOTEDATA:;
#CHARTNAME:;
#STEPSTYPE:dance-single;
#DESCRIPTION:;
#CHARTSTYLE:;
#DIFFICULTY:Medium;
#METER:11;
#RADARVALUES:0.453890,0.470013,0.332411,0.123688,0.212588,411.000000,368.000000,43.000000,16.000000,0.000000,0.000000,0.000000,0.000000,0.000000,0.453890,0.470013,0.332411,0.123688,0.212588,411.000000,368.000000,43.000000,16.000000,0.000000,0.000000,0.000000,0.000000,0.000000;
#CREDIT:;
#NOTES:
0000
0000
0000
0000
,
0000
0000
0000
0000
,
0000
0000
0000
0000
,
0000
0000
0000
0000
,
1000
0000
0000
1000
0000
0000
0100
0000
0000
1000
0000
0000
0001
0000
0000
0000
,
1000
0000
0000
1000
0000
0000
0010
0000
0000
0100
0000
0000
0001
0000
0000
0000
,
0001
0000
0000
0001
0000
0000
0100
0000
0000
0001
0000
0000
1000
0000
0000
0000
,
0001
0000
0000
0001
0000
0000
0010
0000
0000
0200
0000
0000
1300
0000
0000
0000
,
0010
0000
0000
0010
0000
0000
0100
0000
0000
0010
0000
0000
0000
0100
0000
0000
,
0001
0000
1000
0000
0000
1000
0000
0000
0001
0000
0000
0001
0000
0000
1000
0000
,
0100
0000
0000
0000
0010
0000
0000
0000
0100
0000
0000
0100
0000
0000
0010
0000
,
0001
0000
0000
0000
1000
0001
0000
0000
1000
0000
0000
0000
1001
0000
0000
0000
,
0001
0010
0100
0000
0010
0001
0100
0000
,
0001
0010
0100
0010
0001
2000
3000
0000
,
1000
0010
0100
0000
0010
1000
0100
0000
,
1000
0010
0100
0010
1000
0002
0003
0000
,
1000
0100
0010
0000
0100
1000
0001
0000
,
0100
0001
0010
0000
0001
1000
0010
0000
,
0110
0000
0000
0100
0000
0000
0001
0000
0000
1000
0000
0000
0100
0000
0010
0000
,
0002
0023
0130
1001
,
1000
0000
0000
0000
0010
0000
0100
0000
0000
0001
0000
0000
0010
0000
0000
0000
,
0001
0000
0000
0001
0000
0000
0010
0000
0000
0010
0000
0000
0100
0000
0000
0000
,
1000
0000
0000
0000
0100
0000
0010
0000
0000
0001
0000
0000
0100
0000
0000
0000
,
1000
0000
0000
0100
0000
0000
0001
0000
0000
1000
0000
0000
1001
0000
0000
0000
,
0001
0000
0000
0000
0010
0000
0100
0000
0000
1000
0000
0000
0010
0000
0000
0000
,
1000
0000
0000
1000
0000
0000
0010
0000
0000
0010
0000
0000
0100
0000
0000
0000
,
0001
0000
0000
0000
0100
0000
0010
0000
1000
0000
0000
0100
0000
0000
0010
0000
,
0001
0000
0000
0010
0000
0000
0110
0000
0000
1000
0000
0000
0001
0000
0001
0000
,
1000
0000
0000
0000
0010
0000
0100
0000
0000
0001
0000
0000
1000
0000
0000
0000
,
0001
0000
0000
0100
0000
0000
1000
0000
0000
0100
0000
0000
0001
0000
0000
0000
,
0001
0000
0000
0000
0010
0000
0100
0000
0000
1000
0000
0000
0001
0000
0000
0000
,
1000
0000
0000
0100
0000
0000
0001
0000
0000
0100
0000
0000
1000
0000
0000
0000
,
1000
0000
0000
0000
0010
0000
0100
0000
0000
0100
0000
0000
0001
0000
0000
0000
,
1000
0000
0000
0010
0000
0000
0001
0000
0000
0010
0000
0000
1000
0000
0000
0000
,
0001
0100
0010
0000
1000
0100
0010
0000
,
0100
0000
0000
1000
0000
0000
0001
0000
0100
0000
0000
0000
0110
0000
0000
0000
,
1000
0000
0010
0000
0100
0001
0010
0000
,
0001
0000
0010
0000
0100
1000
0010
1000
,
0001
0000
0100
0000
0010
1000
0100
0000
,
1000
0000
0100
0000
0010
0001
0100
0001
,
1000
1100
0100
0110
,
0010
0011
0001
1001
,
1000
0010
1000
0001
0100
0001
0010
0100
,
1000
0000
1000
0000
1000
0001
1001
0000
,
0001
0101
0010
0101
,
1000
1100
0010
0011
,
1000
1010
0100
1010
,
0001
0011
0100
1100
,
1000
0110
0001
0110
,
1000
1010
0011
0101
,
0100
1001
0010
1001
,
0001
0101
1010
1100
,
0100
1000
0010
0000
0010
1000
0100
0000
,
0010
0001
0100
0000
0100
0001
0010
0000
,
0100
1000
0001
0000
1000
0001
0100
0000
,
0010
1000
0001
0000
1000
0001
0010
0000
,
0100
1000
0010
0000
1000
0010
0100
0000
,
0100
0001
0010
0000
0001
0010
0100
0000
,
1000
0110
0001
0110
,
2000
0100
3002
0100
,
1003
0000
0000
0000
0010
0000
0100
0000
0000
0010
0000
0000
1000
0000
0000
0000
,
0001
0000
0000
0002
0000
0000
0013
0000
0000
0020
0000
0000
0130
0000
0000
0000
,
1000
0000
0000
0000
0100
0000
0010
0000
0000
0100
0000
0000
1000
0000
0000
0000
,
0001
0000
0000
0002
0000
0000
0103
0000
0000
0200
0000
0000
0310
0000
0100
0000
,
0001
0000
0000
0000
0010
0000
0100
0000
0000
0010
0000
0000
0001
0000
0000
0000
,
1000
0000
0000
2000
0000
0000
3010
0000
0000
0020
0000
0000
0130
0000
0000
0000
,
0001
0000
0000
0000
0100
0000
0010
0000
0000
0100
0000
0000
0001
0000
0000
0000
,
1000
0000
0000
2000
0000
0000
3100
0000
0000
0200
0000
0000
0310
0000
0100
0000
,
1000
1100
0010
1100
,
0001
0000
0000
0100
0000
0000
0010
0000
0000
1000
0000
0000
0001
0000
1000
0000
,
0001
0101
0010
0101
,
1000
0000
0000
0100
0000
0000
0010
0000
0000
0001
0000
0000
1000
0000
0001
0000
,
1000
1010
0001
0011
,
1000
1100
0001
0101
,
0010
1001
0100
1001
,
1100
0000
0101
0000
1000
0100
0020
0000
,
0030
0000
0000
0000
;

//---------------dance-single - ----------------
#NOTEDATA:;
#CHARTNAME:;
#STEPSTYPE:dance-single;
#DESCRIPTION:;
#CHARTSTYLE:;
#DIFFICULTY:Easy;
#METER:7;
#RADARVALUES:0.315845,0.352510,0.069574,0.077305,0.015461,286.000000,277.000000,9.000000,10.000000,0.000000,0.000000,0.000000,0.000000,0.000000,0.315845,0.352510,0.069574,0.077305,0.015461,286.000000,277.000000,9.000000,10.000000,0.000000,0.000000,0.000000,0.000000,0.000000;
#CREDIT:;
#NOTES:
0000
0000
0000
0000
,
0000
0000
0000
0000
,
0000
0000
0000
0000
,
0000
0000
0000
0000
,
1000
0100
0000
1000
,
0001
0100
0000
0001
,
1000
0100
0000
1000
,
0001
0100
0000
0100
,
0001
0001
0010
0100
,
1000
1000
0010
0100
,
0002
0003
0010
0100
,
2000
3000
0010
0100
,
0001
0001
0001
0001
,
0100
0100
0200
0300
,
0010
0010
0010
0010
,
1000
1000
2000
3000
,
0001
0010
0001
0010
,
0100
1000
0100
1000
,
0001
0000
0000
1000
0000
0000
0001
0000
0000
1000
0000
0000
0001
0000
0000
0000
,
0100
0100
0100
1001
,
1000
0100
0010
0100
,
1000
0010
0100
0010
,
1000
0100
0010
0100
,
1000
1000
0001
1000
,
0001
0100
0010
0100
,
0001
0010
0100
0010
,
0001
0000
0000
0000
0100
0000
0000
0000
0010
0000
0000
0010
0000
0000
0000
0000
,
0100
0000
0000
0001
0000
0000
2000
0000
0000
0000
0000
0000
3000
0000
0000
0000
,
1000
0100
0010
0001
,
0010
0100
1000
0001
,
1000
0010
0100
0001
,
0100
0010
1000
0001
,
1000
0100
0010
0001
,
0100
0010
1000
0001
,
1000
0010
0100
0001
,
1000
1000
2000
3000
,
0001
0001
0001
0101
,
1000
1000
1000
1010
,
0001
0001
0001
0011
,
1000
1000
1000
1100
,
0001
1000
0001
0101
,
1000
0001
1000
1100
,
0001
0100
0010
1000
,
0001
0001
0001
0110
,
1000
0100
1000
0100
,
1000
0001
1000
0001
,
0010
0001
0010
0001
,
0100
0001
0100
0001
,
1000
0010
1000
0010
,
1000
0001
1000
0010
,
0100
0001
0100
0001
,
1000
0100
0010
0100
,
1000
0001
1000
0001
,
0010
0001
0010
0001
,
1000
0010
1000
0010
,
0100
0001
0100
0001
,
1000
0100
1000
0100
,
0010
0001
0010
0100
,
1000
0001
1000
0001
,
0200
0000
0320
0000
,
1030
0010
0001
0010
,
1000
0010
0001
0010
,
1000
0100
0001
0100
,
1000
0100
0001
0100
,
1000
0010
0100
0010
,
1000
0100
0010
0100
,
0010
0001
0100
0001
,
0100
0001
0010
0001
,
1000
0001
0010
0100
,
1000
0001
0010
0100
,
1000
0010
0100
0001
,
1000
0010
0100
0001
,
1000
1000
0100
0100
,
0010
0010
0001
0001
,
1000
1000
0010
0010
,
0100
0100
0001
2002
,
3003
0000
0000
0000
;

//---------------dance-single - ----------------
#NOTEDATA:;
#CHARTNAME:;
#STEPSTYPE:dance-single;
#DESCRIPTION:;
#CHARTSTYLE:;
#DIFFICULTY:Beginner;
#METER:2;
#RADARVALUES:0.139149,0.204954,0.038652,0.000000,0.000000,126.000000,121.000000,5.000000,0.000000,0.000000,0.000000,0.000000,0.000000,0.000000,0.139149,0.204954,0.038652,0.000000,0.000000,126.000000,121.000000,5.000000,0.000000,0.000000,0.000000,0.000000,0.000000,0.000000;
#CREDIT:;
#NOTES:
0000
0000
0000
0000
,
0000
0000
0000
0000
,
0000
0000
0000
0000
,
0000
0000
0000
0000
,
0000
1000
0000
1000
,
0000
0001
0000
0001
,
0000
1000
0000
1000
,
0000
0001
0001
0000
,
1000
0000
0100
0000
,
0100
0000
1000
0000
,
0001
0000
0100
0000
,
0100
0000
0001
0000
,
1000
0000
0000
0000
,
1000
0000
0000
0000
,
0001
0000
0000
0000
,
0001
0000
0000
0000
,
1001
0000
0000
0000
,
0000
0000
0000
0000
,
0110
0000
0000
0000
,
0001
0100
0010
1000
,
0001
0000
0001
0000
,
1000
0000
1000
0000
,
0001
0000
0001
0000
,
1000
0000
1000
0000
,
0100
0000
0100
0000
,
0010
0000
0010
0000
,
0100
0000
0100
0000
,
0010
0010
0000
0100
,
1000
0000
1000
0000
,
0001
0000
0001
0000
,
1000
0000
1000
0000
,
0001
0000
0001
0000
,
0100
0000
0100
0000
,
0010
0000
0010
0000
,
0100
0000
0100
0000
,
0010
0010
0010
0000
,
1000
0000
0100
0000
,
1000
0000
0001
0000
,
0100
0000
0001
0000
,
1000
0000
0100
0000
,
1000
0000
0000
0000
,
0001
0000
0000
0000
,
1001
0000
0000
0000
,
0000
0000
0000
1001
,
0001
0000
0000
0000
,
0100
0000
0000
0000
,
0010
0000
0000
0000
,
1000
0000
0000
0000
,
0001
0000
0000
0000
,
0010
0000
0000
0010
,
0100
0000
0000
0000
,
1000
0000
0001
1000
,
1000
0000
0000
0000
,
0010
0000
0000
0000
,
0100
0000
0000
0000
,
0001
0000
0000
0000
,
1000
0000
0000
0000
,
0100
0000
0000
0100
,
0010
0000
0000
0000
,
0001
0000
1000
0000
,
0001
0000
0100
0000
,
0001
0000
0100
0000
,
0010
0000
1000
0000
,
0010
0000
1000
0000
,
0100
0000
1000
0000
,
0100
0000
1000
0000
,
0001
0000
0010
0000
,
0001
0000
0010
0000
,
0100
0000
0000
0000
,
0100
0000
0000
0000
,
0010
0000
0000
0000
,
0010
0000
0000
0000
,
0001
0000
0000
0000
,
1000
0000
0000
0000
,
0001
0000
0100
0000
,
0010
1000
0001
0011
;
