#VERSION:0.83;
#TITLE:JACK DA FUNK;
#SUBTITLE:;
#ARTIST:長沼英樹;
#TITLETRANSLIT:;
#SUBTITLETRANSLIT:;
#ARTISTTRANSLIT:HIDEKI NAGANUMA;
#GENRE:;
#ORIGIN:;
#CREDIT:;
#BANNER:;
#BACKGROUND:;
#PREVIEWVID:;
#JACKET:;
#CDIMAGE:;
#DISCIMAGE:;
#LYRICSPATH:;
#CDTITLE:;
#MUSIC:JACK DA FUNK.ogg;
#OFFSET:-0.002000;
#SAMPLESTART:51.431000;
#SAMPLELENGTH:17.153999;
#SELECTABLE:YES;
#BPMS:0.000=112.000;
#STOPS:;
#DELAYS:;
#WARPS:;
#TIMESIGNATURES:0.000=4=4;
#TICKCOUNTS:0.000=4;
#COMBOS:0.000=1;
#SPEEDS:0.000=1.000=0.000=0;
#SCROLLS:0.000=1.000;
#FAKES:;
#LABELS:0.000=Song Start;
#BGCHANGES:;
#KEYSOUNDS:;
#ATTACKS:
;

//---------------dance-single - flagdiscount----------------
#NOTEDATA:;
#CHARTNAME:;
#STEPSTYPE:dance-single;
#DESCRIPTION:flagdiscount;
#CHARTSTYLE:;
#DIFFICULTY:Easy;
#METER:7;
#RADARVALUES:0.308245,0.363886,0.192000,0.091429,0.105143,236.000000,215.000000,21.000000,10.000000,0.000000,0.000000,0.000000,0.000000,0.000000,0.308245,0.363886,0.192000,0.091429,0.105143,236.000000,215.000000,21.000000,10.000000,0.000000,0.000000,0.000000,0.000000,0.000000;
#CREDIT:flagdiscount;
#NOTES:
// measure 0
0000
0000
0000
0000
,  // measure 1
0000
0000
0000
0000
,  // measure 2
1001
0001
0000
0001
,  // measure 3
0000
0000
0000
0000
0000
1000
0000
0000
0000
0000
0000
0000
0000
0000
0000
0000
0000
0000
1000
0000
0000
0000
0000
0000
,  // measure 4
0010
0010
0000
0000
0000
0100
0001
0000
,  // measure 5
0000
0000
0000
0010
0100
0000
0000
0000
,  // measure 6
1000
1000
0000
0000
0000
0001
0010
0000
,  // measure 7
0110
1001
0110
1001
,  // measure 8
0001
1100
0100
1000
,  // measure 9
0010
0000
0000
0000
0000
0000
0100
0000
0000
0000
0000
0000
0001
0000
0000
0010
0000
0000
0000
0000
0100
0000
0000
0000
,  // measure 10
1000
0101
0001
0010
,  // measure 11
0001
0000
0000
0000
0000
0000
0100
0000
0000
0000
0000
0000
0010
0000
0000
1000
0000
0000
0000
0000
1000
0000
0000
0000
,  // measure 12
0011
1100
0100
1000
,  // measure 13
0010
0000
0000
0000
0000
0000
0100
0000
0000
0000
0000
0000
0010
0000
0000
1000
0000
0000
0000
0000
0100
0000
0000
0000
,  // measure 14
0010
1100
0100
1000
,  // measure 15
0001
1000
0010
1000
0001
0010
1001
0000
,  // measure 16
1000
0000
0000
0000
0000
0000
0001
0000
0000
0000
0000
0100
0000
0000
0000
0010
0000
0000
0000
0000
0000
0000
0000
0000
,  // measure 17
0100
0000
0000
0000
0000
0000
0010
0000
0000
0000
0000
1000
0000
0000
0000
0100
0000
0000
0000
0000
0000
0000
0000
0000
,  // measure 18
0010
0000
0000
0000
0000
0000
0100
0000
0000
0000
0000
1000
0000
0000
0000
0010
0000
0000
0000
0000
0000
0000
0000
0000
,  // measure 19
0100
0000
0000
0000
0000
0000
0010
0000
0000
0000
0000
0100
0000
0000
0000
0001
0000
0000
0000
0000
0000
0000
0000
0000
,  // measure 20
0010
0000
0000
0000
0000
0000
0100
0000
0000
0000
0000
0010
0000
0000
0000
0001
0000
0000
0000
0000
0000
0000
0000
0000
,  // measure 21
0100
0000
0000
0000
0000
0000
0010
0000
0000
0000
0000
1000
0000
0000
0000
0001
0000
0000
0000
0000
0000
0000
0000
0000
,  // measure 22
1000
0000
0000
0000
0000
0000
0010
0000
0000
0000
0000
0100
0000
0000
0000
0100
0000
0000
0000
0000
0000
0000
0000
0100
,  // measure 23
0000
0000
0000
0100
0000
0000
0000
0000
0000
0000
0000
0100
0000
0000
0000
0100
0000
0000
0000
0000
0000
0000
0000
0000
,  // measure 24
1001
0001
0000
0000
0020
0000
0230
0000
,  // measure 25
0310
0000
0000
0001
0000
0000
0100
0000
0000
0000
0000
0000
0010
0000
0000
0000
0000
0100
0000
0000
0000
0001
0000
0000
,  // measure 26
1000
1000
0000
0010
0200
0000
0320
0000
,  // measure 27
0030
0000
0000
0000
0000
0000
1000
0000
0000
0000
0000
0000
0001
0000
0000
0000
0000
0010
0000
0000
0000
0100
0000
0000
,  // measure 28
1000
1000
0000
0100
2000
0000
3020
0000
,  // measure 29
0130
0000
0000
0001
0000
0000
0010
0000
0000
0000
0000
0000
0100
0000
0000
0000
0000
0010
0000
0000
0000
0001
0000
0000
,  // measure 30
0010
0010
0000
0100
0020
0000
0032
0000
,  // measure 31
1003
0110
0001
0110
,  // measure 32
1001
0000
1000
0000
0010
0100
0000
0000
,  // measure 33
0010
0000
0000
0000
0000
0000
0100
0000
0000
0001
0000
0000
0000
0000
0000
1000
0000
0000
0000
0000
0100
0000
0000
0000
,  // measure 34
0110
0000
0100
0000
1000
0001
0000
0000
,  // measure 35
0100
0000
0000
0000
0000
0000
0010
0000
0000
1000
0000
0000
0000
0000
0000
0001
0000
0000
0000
0000
0001
0000
0000
0000
,  // measure 36
0011
0000
0010
0000
0100
1000
0000
0000
,  // measure 37
0010
0000
0000
0000
0000
0000
0100
0000
0000
0001
0000
0000
0000
0000
0000
1000
0000
0000
0000
0000
0001
0000
0000
0000
,  // measure 38
1001
0000
1000
0001
1000
0001
1000
0001
,  // measure 39
1000
0010
0100
0000
0010
0100
0001
0001
,  // measure 40
1000
0001
1000
0100
,  // measure 41
1000
0010
0100
0001
,  // measure 42
0010
0100
1000
0000
0100
0000
1000
0000
,  // measure 43
0010
0100
0001
0000
1000
0000
0001
0000
,  // measure 44
2001
0000
0000
3000
0000
0000
0001
0000
0000
0000
0000
0010
0000
0000
0000
0100
0000
0000
0000
0000
0000
0000
0000
0000
,  // measure 45
0010
0000
0000
0000
0000
0000
0001
0000
0000
0000
0000
0100
0000
0000
0000
0010
0000
0000
0000
0000
0000
0000
0000
0000
,  // measure 46
1002
0000
0000
0003
0000
0000
0010
0000
0000
0000
0000
0001
0000
0000
0000
0010
0000
0000
0000
0000
0000
0000
0000
0000
,  // measure 47
0100
0000
0000
0000
0000
0000
0010
0000
0000
0000
0000
0001
0000
0000
0000
1000
0000
0000
0000
0000
0000
0001
0000
0000
,  // measure 48
0000
0001
0000
0001
0000
0001
0000
0001
,  // measure 49
1000
0001
0100
0001
1000
0100
1001
0000
;

//---------------dance-single - flagdiscount----------------
#NOTEDATA:;
#CHARTNAME:;
#STEPSTYPE:dance-single;
#DESCRIPTION:flagdiscount;
#CHARTSTYLE:;
#DIFFICULTY:Medium;
#METER:12;
#RADARVALUES:0.479347,0.545829,0.420571,0.073143,0.429714,367.000000,321.000000,46.000000,8.000000,0.000000,0.000000,0.000000,0.000000,0.000000,0.479347,0.545829,0.420571,0.073143,0.429714,367.000000,321.000000,46.000000,8.000000,0.000000,0.000000,0.000000,0.000000,0.000000;
#CREDIT:flagdiscount;
#NOTES:
// measure 0
0000
0000
0000
0000
,  // measure 1
0000
0000
0000
0000
,  // measure 2
1001
0001
0000
1000
,  // measure 3
0000
0001
0000
1000
,  // measure 4
0001
0000
0100
0010
0000
0000
0000
0000
0000
0000
0000
0000
0000
0000
0000
0100
0000
0000
1001
0000
0000
0000
0000
0000
,  // measure 5
0000
0000
0000
1000
0011
0000
0000
0000
,  // measure 6
1000
0000
0010
0100
0000
0000
0000
0000
0000
0000
0000
0000
0000
0000
0000
0010
0000
0000
1001
0000
0000
0000
0000
0000
,  // measure 7
0001
0000
0000
0100
0000
0000
1000
0000
0000
0100
0000
0000
0001
0000
0000
1000
0000
0001
1000
0000
0000
0001
0000
0000
,  // measure 8
0010
0000
0100
0000
0000
1000
0000
0000
0000
0000
0000
0001
0000
0000
1000
0000
0000
0010
0000
0000
1000
0010
0000
0010
,  // measure 9
0100
0000
0010
0000
0000
0100
0000
0000
0000
0001
0000
1000
0001
0000
0000
0011
0000
0000
0000
0000
1010
0000
0000
0000
,  // measure 10
1001
0000
1000
0000
0000
0100
0000
0000
0000
0000
0000
0010
0000
0000
0100
0000
0000
1000
0100
0000
0100
0010
0000
0010
,  // measure 11
0001
0000
0100
0000
0000
0010
0000
0000
0100
0010
0000
0010
1000
0000
0000
1100
0000
0000
0000
0000
1100
0000
0000
0000
,  // measure 12
1001
0000
1000
0000
0000
0010
0000
0000
0000
0000
0000
0100
0000
0000
0010
0000
0000
1000
0000
0000
0001
1000
0000
1000
,  // measure 13
0100
0000
0010
0000
0000
0100
0000
0000
0100
0010
0000
0010
0001
0000
0000
0110
0000
0000
0000
0000
1010
0000
0000
0000
,  // measure 14
0101
0000
0000
0001
0000
0000
0010
0000
0000
0000
0000
0100
0000
0000
1000
0000
0000
0010
0000
0000
0100
0010
0000
0010
,  // measure 15
1000
1000
0001
1000
0001
0001
0000
1000
,  // measure 16
0100
0000
0000
0010
0000
0000
0100
0000
0000
1000
0000
0001
0000
0000
0000
0110
0000
0000
0000
0000
0000
0100
0000
0000
,  // measure 17
0010
0000
0000
1000
0000
0000
0001
0000
0000
0010
0000
0100
0000
0000
0000
1100
0000
0000
0000
0000
0000
0100
0000
0000
,  // measure 18
1000
0000
0000
0100
0000
0000
0010
0000
0000
0100
0000
1000
0000
0000
0000
0011
0000
0000
0000
0000
0000
0001
0000
0000
,  // measure 19
0100
0000
0000
0010
0000
0000
0100
0000
0000
0001
0000
1000
0000
0000
0000
0110
0000
0000
0000
0000
0000
0100
0000
0000
,  // measure 20
0010
0000
0000
1000
0000
0000
0001
0000
0000
0010
0000
0100
0000
0000
0000
1100
0000
0000
0000
0000
0000
0001
0000
0000
,  // measure 21
1000
0000
0000
0001
0000
0000
0100
0000
0000
0010
0000
0100
0000
0000
0000
1010
0000
0000
0000
0000
0000
0100
0000
0000
,  // measure 22
0010
0000
0000
1000
0000
0000
0001
0000
0000
0010
0000
0100
0000
0000
0000
1100
0000
0000
0000
0000
0000
0100
0000
0010
,  // measure 23
0000
0000
0000
0011
0000
0000
0000
0000
0000
0010
0000
0100
0000
0000
0000
1100
0000
0000
0000
0000
0000
0000
0000
0000
,  // measure 24
1000
0000
1000
0001
0000
0000
0000
0000
0000
0001
0000
0000
0200
0000
0000
0000
0000
0000
0320
0000
0000
0000
0000
0000
,  // measure 25
1030
0000
0000
0010
0000
0000
0100
0000
0000
0000
0000
0000
0010
0000
0000
0000
0000
1000
0000
0000
0000
0001
0000
0000
,  // measure 26
1000
0000
1000
0001
0000
0000
0000
0000
0000
0001
0000
0000
0020
0000
0000
0000
0000
0000
0230
0000
0000
0000
0000
0000
,  // measure 27
0310
0000
0000
0100
0000
0000
1000
0000
0000
0001
0000
0000
0100
0000
0000
0000
0000
0010
0000
0000
0000
1000
0000
0000
,  // measure 28
0010
0000
0010
0100
0000
0000
0000
0000
0000
0010
0000
0000
2000
0000
0000
0000
0000
0000
3002
0000
0000
0000
0000
0000
,  // measure 29
0013
0000
0000
0001
0000
0000
0100
0000
0000
0000
0000
0000
0010
0000
0000
0000
0000
1000
0000
0000
0000
0100
0000
0000
,  // measure 30
0010
0000
0010
0100
0000
0000
0000
0000
0000
0010
0000
0000
0002
0000
0000
0000
0000
0000
0203
0000
0000
0000
0000
0000
,  // measure 31
0310
1001
0100
1001
,  // measure 32
0011
0000
0010
0100
0010
0001
0000
0000
,  // measure 33
0100
0000
0000
0010
0000
0000
1000
0000
0000
0001
0000
0000
0000
0000
0000
1100
0000
0000
0000
0000
0011
0000
0000
0000
,  // measure 34
0110
0000
0100
1000
0010
0100
0000
0000
,  // measure 35
0010
0000
0000
0100
0000
0000
0001
0000
0000
0010
0000
0000
0000
0000
0000
0110
0000
0000
0000
0000
0110
0000
0000
0000
,  // measure 36
1001
0000
0001
1000
0010
1000
0000
0000
,  // measure 37
0010
0000
0000
0100
0000
0000
0001
0000
0000
0100
0000
0000
0000
0000
0000
0110
0000
0000
0000
0000
1010
0000
0000
0000
,  // measure 38
1100
0000
1000
0100
0001
0100
1000
0100
,  // measure 39
0010
0000
0000
0010
0000
0000
0100
0000
0000
0100
0000
0000
1000
0000
0000
0001
0000
0100
0010
0000
0000
1000
0000
0000
,  // measure 40
1001
0000
0000
0000
0000
1000
0000
0000
0000
0000
0000
0001
0000
0000
0100
0000
0000
0010
0000
0000
0100
0010
0000
0010
,  // measure 41
0100
0000
0001
0000
0000
0010
0000
0000
0000
0100
0000
0000
1000
0000
0100
0000
0000
0100
0000
0000
1000
0010
0000
0010
,  // measure 42
0100
0000
0000
0110
0000
0000
0000
0000
0000
0000
0000
0010
0000
0000
0100
0000
0000
0001
0000
0000
1000
0100
0000
0100
,  // measure 43
0010
0000
0000
0011
0000
0001
0000
0000
0100
0010
0000
1000
0001
0000
0010
0000
0000
0100
0000
0000
0010
0001
0000
0001
,  // measure 44
0100
0000
0100
0010
0000
0000
0100
0000
0000
0000
0000
0010
0000
0000
0000
1001
0000
0000
0000
0000
0000
0000
0000
0000
,  // measure 45
1000
0000
0000
0100
0000
0000
0010
0000
0000
0000
0000
0001
0000
0000
0000
1100
0000
0000
0000
0000
0000
0000
0000
0000
,  // measure 46
1000
0000
1000
0001
0000
0000
0001
0000
0000
0100
0000
0010
0000
0000
0000
0110
0000
0000
0000
0000
0000
0100
0000
0000
,  // measure 47
0010
0000
0000
1000
0000
0000
0001
0000
0000
0010
0000
0100
0000
0000
1000
0000
0000
0000
0000
0000
0000
1001
0000
0000
,  // measure 48
0000
0110
0000
1001
0000
0110
0000
1001
,  // measure 49
1000
1000
0001
0010
0001
0001
1100
0000
;

//---------------dance-single - flagdiscount----------------
#NOTEDATA:;
#CHARTNAME:;
#STEPSTYPE:dance-single;
#DESCRIPTION:flagdiscount;
#CHARTSTYLE:;
#DIFFICULTY:Hard;
#METER:14;
#RADARVALUES:0.602122,0.640000,0.402286,0.374857,0.790857,461.000000,417.000000,44.000000,41.000000,21.000000,0.000000,0.000000,0.000000,0.000000,0.602122,0.640000,0.402286,0.374857,0.790857,461.000000,417.000000,44.000000,41.000000,21.000000,0.000000,0.000000,0.000000,0.000000;
#CREDIT:flagdiscount;
#NOTES:
// measure 0
0000
0000
0000
0000
,  // measure 1
0000
0000
0000
0000
,  // measure 2
1001
0001
0000
1000
,  // measure 3
0000
0001
0000
1000
,  // measure 4
0010
0000
0010
0100
0000
0000
0001
0000
0000
0000
0000
0000
0000
0000
0000
0100
0000
0000
1001
0000
0000
0000
0000
0000
,  // measure 5
0000
0000
1000
0001
1010
0000
1000
0000
,  // measure 6
0100
0000
0100
0010
0000
0000
0000
0000
0000
0000
0000
0000
0001
0000
0000
1000
0000
0000
0110
0000
0000
0000
0000
0000
,  // measure 7
0001
0010
M01M
1000
0010
M01M
0011
1100
,  // measure 8
1001
0000
1000
0000
0000
0010
0200
0000
0000
0000
0300
0001
0000
0000
1000
0000
0000
0100
0000
0000
0010
0100
0000
0100
,  // measure 9
1000
0000
0010
0000
0000
0100
0000
0000
0010
1000
0000
1000
0001
0000
0001
1000
0000
0000
0000
0000
0011
0000
0000
0000
,  // measure 10
1100
0000
0100
0000
0000
0000
0020
0000
0000
0000
0030
0001
0000
0000
0100
0000
0000
0010
0100
0000
0100
0001
0000
0001
,  // measure 11
0010
0000
0100
0000
0000
1000
0000
0000
1000
0010
0000
0010
0100
0000
0001
1000
0000
0000
0000
0000
0011
0000
0000
0000
,  // measure 12
1010
0000
0000
1000
0000
0000
0200
0000
0000
0000
0300
0010
0000
0000
0100
0000
0000
1000
0010
0000
0010
0100
0000
0100
,  // measure 13
0001
0000
0010
0000
0000
0100
0000
0000
0010
0001
0000
0001
0100
0000
0010
1000
0000
0000
0000
0000
1100
0000
0000
0000
,  // measure 14
1001
0000
0000
1000
0000
0000
0020
0000
0000
0000
0030
0100
0000
0000
0010
0000
0000
1000
0100
0000
0100
0010
0000
0010
,  // measure 15
0002
0003
0000
0002
0003
0002
2003
3000
0000
0002
0003
0002
2003
3000
2000
3002
0003
0000
1001
0000
0000
0000
0000
0000
,  // measure 16
1000
0000
1000
0010
0000
M010
0001
0000
1000
0010
0000
0100
0000
0000
0000
0101
0000
0000
0000
0000
0001
1000
0000
1000
,  // measure 17
0001
0000
0001
0100
0000
010M
1000
0000
1000
0010
0000
0100
0000
0000
0000
1010
0000
0000
0000
0000
1000
0100
0000
0100
,  // measure 18
0010
0000
0001
0010
0000
001M
1000
0000
0001
1000
0000
0100
0000
0000
0000
0011
0000
0000
0000
0000
1000
0100
0000
0010
,  // measure 19
0100
0000
1000
0100
0000
M100
0001
0000
0100
0010
0000
1000
0000
0000
0000
0101
0000
0000
0000
0000
0000
1000
0000
0010
,  // measure 20
1000
0000
1000
0010
0000
M010
0001
0000
0010
0100
0000
1000
0000
0000
0000
0011
0000
0000
0000
0000
0000
1000
0000
0000
,  // measure 21
0001
0000
1000
0100
0000
M100
0001
0000
0100
0010
0000
1000
0000
0000
0000
0101
0000
0000
0000
0000
0001
0010
0000
0010
,  // measure 22
0100
0000
1000
0100
0000
M100
0001
0000
0100
0010
0000
0100
0000
0000
0000
1001
0000
0000
0000
0000
0000
0010
0000
0100
,  // measure 23
0000
0000
0000
1001
0000
0000
0000
0000
0000
0010
0000
0100
0000
0000
0000
1001
0000
0000
0000
0000
0000
0000
0000
0000
,  // measure 24
1001
0000
1000
0001
0000
0000
0000
0000
0000
0001
0000
0001
0200
0000
0000
0000
0000
0000
0320
0000
0000
0000
0000
0000
,  // measure 25
0130
0000
0000
0001
0000
0000
0100
0000
0000
0000
0000
0000
0020
0000
0000
0000
0000
2030
0000
0000
0000
3002
0000
0000
,  // measure 26
1003
0000
1000
0001
0000
0000
0000
0000
0000
1000
0000
1000
0200
0000
0000
0000
0000
0000
0320
0000
0000
0000
0000
0000
,  // measure 27
0130
0000
0000
1000
0000
0000
0010
0000
0000
0100
0000
0000
0002
0000
0000
0000
0000
0023
0000
0000
0000
0230
0000
0000
,  // measure 28
1300
0000
1000
0001
0000
0000
0000
0000
0000
1000
0000
0100
0020
0000
0000
0000
0000
0000
0032
0000
0000
0000
0000
0000
,  // measure 29
0103
0000
0000
0010
0000
0000
1000
0000
0000
0000
0000
0000
0200
0000
0000
0000
0000
0320
0000
0000
0000
0032
0000
0000
,  // measure 30
1003
0000
1000
0001
0000
0000
0000
0000
0000
1000
0000
0001
0020
0000
0000
0000
0000
0000
0230
0000
0000
0000
0000
0000
,  // measure 31
0310
1001
0100
1001
0001
1010
1000
0011
,  // measure 32
1001
0001
1000
0100
M100
0001
1000
0001
,  // measure 33
0100
0000
0000
010M
0000
0000
1000
0000
0000
0001
0000
0000
0000
0000
0000
1010
0000
0000
0000
0000
0011
0000
0000
0000
,  // measure 34
1001
1000
0001
0010
001M
1000
0001
1000
,  // measure 35
0010
0000
0000
M010
0000
0000
0001
0000
0000
1000
0000
0000
0000
0000
0000
0101
0000
0000
0000
0000
0101
0000
0000
0000
,  // measure 36
1001
1000
0010
M010
0001
0010
0100
1000
,  // measure 37
0010
0000
0000
M010
0000
0000
0001
0000
0000
1000
0000
0000
0000
0000
0000
0101
0000
0000
0000
0000
1100
0000
0000
0000
,  // measure 38
1001
0001
0010
0010
0100
0100
1000
1000
,  // measure 39
0001
0000
0000
0100
0000
0010
1000
0000
0000
0010
0000
0100
0001
0000
0000
1000
0000
0001
0010
0000
0010
0100
0000
0100
,  // measure 40
1000
0000
0100
0000
0000
0010
0000
0000
0000
0000
0000
0100
0000
0000
1000
0000
0000
0010
0000
0000
0100
0010
0000
0010
,  // measure 41
1000
0000
0001
0000
0000
1000
0000
0000
0001
0100
0000
0100
0010
0000
0100
0000
0000
0100
0000
0000
0100
0010
0000
0010
,  // measure 42
1000
0000
0001
0000
0000
0010
0000
0000
0000
0000
0000
0100
0000
0000
1000
0000
0000
0010
0100
0000
0100
0010
0000
0010
,  // measure 43
1000
0000
0100
0000
0000
0010
0000
0000
0000
0100
0000
0100
1000
0000
0010
0000
0000
0100
0000
0000
0100
0010
0000
0010
,  // measure 44
1000
0000
0000
0001
0000
1000
010M
0000
0100
0001
0000
1000
0000
0000
0000
0011
0000
0000
0000
0000
0001
1000
0000
1000
,  // measure 45
0001
0000
1000
0010
0000
M010
0001
0000
0010
0100
0000
1000
0000
0000
0000
1010
0000
0000
0000
0000
0000
0100
0000
0000
,  // measure 46
1001
0000
0000
1000
0000
0001
0010
0000
001M
1000
0000
0001
0000
0000
0000
1100
0000
0000
0000
0000
0000
1000
0000
0000
,  // measure 47
0001
0000
1000
0100
0000
M100
0001
0000
0100
0010
0000
1000
0000
0000
0000
1001
0000
0000
0001
0000
1000
0001
0000
0000
,  // measure 48
0001
0000
1000
0001
0000
0000
0001
0000
1000
0001
0000
0000
0001
0000
1000
0001
0000
0000
0001
0000
1000
0001
0000
0000
,  // measure 49
2000
3000
0000
2000
3000
2000
3002
0003
0000
2000
3000
2000
3002
0003
0002
2003
3000
0000
0220
0000
0000
0000
0000
0000
,  // measure 50
0330
0000
0000
0000
;

//---------------dance-single - flagdiscount----------------
#NOTEDATA:;
#CHARTNAME:;
#STEPSTYPE:dance-single;
#DESCRIPTION:flagdiscount;
#CHARTSTYLE:;
#DIFFICULTY:Beginner;
#METER:3;
#RADARVALUES:0.124082,0.204686,0.073143,0.000000,0.000000,95.000000,87.000000,8.000000,0.000000,0.000000,0.000000,0.000000,0.000000,0.000000,0.124082,0.204686,0.073143,0.000000,0.000000,95.000000,87.000000,8.000000,0.000000,0.000000,0.000000,0.000000,0.000000,0.000000;
#CREDIT:flagdiscount;
#NOTES:
// measure 0
0000
0000
0000
0000
,  // measure 1
0000
0000
0000
0000
,  // measure 2
0000
0000
0000
0000
,  // measure 3
0000
0000
0000
0000
,  // measure 4
0001
0000
0000
0100
,  // measure 5
0000
0000
0010
0000
,  // measure 6
1000
0000
0000
0100
,  // measure 7
0010
0010
0010
0000
,  // measure 8
1001
0000
0001
0000
,  // measure 9
0100
0000
0010
0000
,  // measure 10
1001
0000
1000
0000
,  // measure 11
0100
0000
0010
0000
,  // measure 12
1001
0000
0001
0000
,  // measure 13
0100
0000
0010
0000
,  // measure 14
1001
0000
0001
0000
,  // measure 15
0100
0100
0100
0000
,  // measure 16
0110
0000
0000
0000
,  // measure 17
1000
0000
0000
0000
,  // measure 18
0100
0000
0000
0000
,  // measure 19
1000
0000
0000
0000
,  // measure 20
0001
0000
0000
0000
,  // measure 21
0100
0000
0000
0000
,  // measure 22
0010
0000
0000
1000
,  // measure 23
0000
1000
0000
1000
,  // measure 24
0001
0000
0010
0010
,  // measure 25
0100
0000
0000
0000
,  // measure 26
1000
0000
0001
0001
,  // measure 27
0100
0000
0010
0000
,  // measure 28
1000
0000
0001
0001
,  // measure 29
0010
0000
0100
0000
,  // measure 30
0010
0000
0100
0100
,  // measure 31
1000
0100
0010
0001
,  // measure 32
1001
0001
0000
0000
,  // measure 33
1000
0000
0000
0000
,  // measure 34
0000
0010
0000
0000
,  // measure 35
0100
0000
0000
0000
,  // measure 36
0010
0000
0000
0000
,  // measure 37
1000
0000
0000
0000
,  // measure 38
0100
0100
0100
0100
,  // measure 39
0010
0000
0100
0000
,  // measure 40
1001
0000
0001
0000
,  // measure 41
1000
0000
0010
0000
,  // measure 42
1000
0000
0100
0000
,  // measure 43
0010
0000
0001
0000
,  // measure 44
0100
0000
0000
0000
,  // measure 45
0010
0000
0000
0000
,  // measure 46
1000
0000
0000
0000
,  // measure 47
0001
0000
0000
0000
,  // measure 48
1000
0000
1000
0000
,  // measure 49
0001
1000
0010
1001
;
