#VERSION:0.83;
#TITLE:Invisible Full Moon (alstroemeria carnivalize remix);
#SUBTITLE:;
#ARTIST:Alstroemeria Records;
#TITLETRANSLIT:;
#SUBTITLETRANSLIT:;
#ARTISTTRANSLIT:;
#GENRE:;
#CREDIT:;
#MUSIC:Invisible Full Moon (alstroemeria carnivalize remix).ogg;
#BANNER:Invisible Full Moon (alstroemeria carnivalize remix).png;
#BACKGROUND:Invisible Full Moon (alstroemeria carnivalize remix) bg.png;
#PREVIEWVID:;
#JACKET:Invisible Full Moon (alstroemeria carnivalize remix) jacket.png;
#CDTITLE:;
#SAMPLESTART:79.448;
#SAMPLELENGTH:13.241;
#SELECTABLE:YES;
#OFFSET:-0.000;
#BPMS:0.000=145.000;
#STOPS:;
#BGCHANGES:;
#FGCHANGES:;

//--------------- dance-single - ----------------
#NOTEDATA:;
#STEPSTYPE:dance-single;
#DESCRIPTION:;
#DIFFICULTY:Hard;
#METER:13;
#RADARVALUES:0,0,0,0,0;
#NOTES:
0000
0000
0000
0000
,
0000
0000
0000
0000
,
0000
0000
0000
0000
,
0000
0000
0000
0000
,
1000
0000
0100
0000
1000
0010
0000
0010
0000
0001
0100
0000
0001
0000
0010
0000
,
0100
0000
0010
0000
0001
0100
0000
0100
0000
1000
0010
0000
0100
0000
0010
0000
,
1000
0000
0010
0000
1000
0010
0000
0010
0000
0001
0100
0000
0010
0000
0100
0000
,
0001
0000
0100
0000
0001
0010
0000
0010
0000
1000
0100
0000
0010
0000
0100
0000
,
1000
0000
1000
0000
0001
0000
0001
0010
,
1000
0010
0001
0100
0010
0000
1000
0200
,
0000
0310
0001
1000
0100
0001
0010
2000
,
0000
3100
1000
0010
0100
0010
0110
0000
,
1000
0000
1000
0000
0001
0000
0001
0100
,
1000
0100
0001
0010
0100
0000
0010
0001
,
1000
0000
0100
0000
1000
0000
0100
0000
0001
0000
0000
0010
0000
0000
1000
0000
,
2002
0000
0000
3003
,
1100
0000
1001
0000
0011
0000
1000
0010
,
0100
0001
0100
0001
0100
0000
0100
0002
,
0000
1003
0010
1000
0001
0010
0001
0200
,
0000
0310
0100
0010
0100
0001
0101
0000
,
1001
0000
1010
0000
0101
0000
1000
0100
,
0010
0001
0010
0001
0020
0000
0031
0200
,
0000
0000
0310
0000
1000
0000
0010
0000
1000
0000
0000
0001
0000
0000
0100
0000
,
0202
0000
0000
0303
0001
0100
0001
0000
,
0011
0000
0110
0000
1100
0000
1000
0100
,
0001
0100
1000
0010
1000
0000
0010
0200
,
0000
0310
0100
0001
0010
0001
0010
0200
,
0000
1300
0010
0001
0100
1000
1001
0000
,
1010
0000
0011
0000
0101
0000
1000
0100
,
0010
0001
1000
0100
0010
0000
0001
0100
,
1000
0000
0100
0000
0001
0000
0100
0000
1000
0000
0000
0010
0000
0000
0001
0000
,
0220
0000
0000
0330
1000
0001
1001
0000
,
1000
0000
0010
0000
0100
0000
0010
1000
,
0001
0010
0100
0010
0002
0000
1003
0100
,
0000
0100
0010
0001
0100
0010
1000
0010
,
0000
0010
0100
0001
2000
0000
0000
0000
,
3010
0000
0100
0000
0001
0000
1000
0100
,
0010
0001
1000
0100
0020
0000
0000
0031
,
0100
0000
0010
0000
1000
0000
0010
0000
1000
0000
0000
0100
0000
0000
0010
0000
,
0002
0000
0000
0000
0103
0010
0100
0000
,
0001
0000
0000
0000
0001
0000
0000
0000
1000
0000
0000
0000
1000
0001
1000
0000
,
0001
1000
0001
0000
0010
0000
0000
0000
2002
0000
0000
0000
0000
0000
3003
0000
,
0001
0000
0000
0000
1000
0000
0000
0000
0010
0000
0000
0000
0100
0010
0100
0000
,
0010
0100
0010
0000
1000
0000
0000
0000
1100
0000
0000
0000
0001
0000
0000
0000
,
0010
0000
0000
0000
1000
0000
0000
0000
0010
0000
0000
0000
0001
0010
0100
0000
,
1000
0100
0010
0000
0001
0000
0000
0000
0220
0000
0000
0000
0000
0000
0330
0000
,
1000
0010
0100
0000
0001
0100
0010
0000
1000
0100
0010
0000
0001
0010
0100
0000
,
2002
0000
0000
0000
0000
0000
0000
3003
,
1100
0000
1010
0000
0110
0000
1000
0100
,
0001
0100
1000
0001
0010
0000
0001
0200
,
0000
0301
1000
0001
0100
0010
1000
0020
,
0000
1030
0100
0010
0002
1000
1003
0000
,
1010
0000
0110
0000
0101
0000
0001
0010
,
1000
0010
0001
1000
0100
0000
0010
0100
,
1000
0000
0100
0000
1000
0000
0001
0000
0100
0000
0000
0001
0000
0000
1000
0000
,
2002
0000
0000
0000
0000
0000
3003
0000
0010
0100
0010
0000
0100
0000
0000
0000
,
0101
0000
0011
0000
1010
0000
0010
1000
,
0100
0010
1000
0010
0001
0000
0100
0020
,
0000
1030
0001
0010
0100
0001
0100
2000
,
0000
3010
0100
0001
1000
0010
1000
0000
,
1001
0000
0101
0000
1100
0000
0001
0100
,
0010
0001
0010
1000
0001
0000
1000
0010
,
0100
0000
1000
0000
0100
0000
0001
0000
0010
0000
0000
1000
0000
0000
0100
0000
,
0220
0000
0000
0000
0000
0330
0000
0000
0001
1000
0001
0000
1000
0000
0001
0000
,
1000
0100
0000
0100
0001
0000
1000
0000
0010
0000
1000
0000
0001
0000
1000
0000
,
0001
0100
0000
0100
1000
0000
0100
0000
1000
0000
0001
0000
0010
0000
0001
0000
,
1000
0010
0000
0010
0001
0000
1000
0000
0001
0000
0100
0000
0010
0000
0100
0000
,
0001
0010
0000
0010
1000
0000
0001
0000
1000
0000
0001
0000
0100
0000
0010
0000
,
0110
0000
0000
0000
;
