#VERSION:0.83;
#TITLE:Inversion HD;
#SUBTITLE:;
#ARTIST:ヸヘ;
#TITLETRANSLIT:;
#SUBTITLETRANSLIT:;
#ARTISTTRANSLIT:Vihe;
#GENRE:Eversion Remix;
#ORIGIN:;
#CREDIT:XephitE / XIVA;
#BANNER:Inversion HD.png;
#BACKGROUND:Inversion HD-bg.png;
#PREVIEWVID:;
#JACKET:Inversion HD-jacket.png;
#CDIMAGE:;
#DISCIMAGE:;
#LYRICSPATH:;
#CDTITLE:cdtitle.png;
#MUSIC:Inversion HD.ogg;
#OFFSET:0.000000;
#SAMPLESTART:12.217000;
#SAMPLELENGTH:15.000000;
#SELECTABLE:YES;
#BPMS:0.000=157.000;
#STOPS:;
#DELAYS:;
#WARPS:;
#TIMESIGNATURES:0.000=4=4;
#TICKCOUNTS:0.000=4;
#COMBOS:0.000=1;
#SPEEDS:0.000=1.000=0.000=0;
#SCROLLS:0.000=1.000;
#FAKES:;
#LABELS:0.000=Song Start;
#BGCHANGES:96.000=Inversion HD-bg_1.png=1.000=0=0=1===CrossFade_Faster==,
128.000=flash_white.png=1.000=0=0=1=====,
128.250=Inversion HD-bg_2.png=1.000=0=0=1===CrossFade_Fastest==,
222.000=Inversion HD-bg_3.png=1.000=0=0=1===CrossFade_Faster==,
224.000=flash_white.png=1.000=0=0=1=====,
224.250=Inversion HD-bg.png=1.000=0=0=1===CrossFade_Fastest==,
99999=-nosongbg-=1.000=0=0=0 // don't automatically add -songbackground-
;
#KEYSOUNDS:;
#ATTACKS:
;

//---------------dance-single - ----------------
#NOTEDATA:;
#CHARTNAME:;
#STEPSTYPE:dance-single;
#DESCRIPTION:;
#CHARTSTYLE:;
#DIFFICULTY:Beginner;
#METER:4;
#RADARVALUES:0.158943,0.320216,0.171697,0.000000,0.000000,162.000000,137.000000,25.000000,0.000000,0.000000,0.000000,0.000000,0.000000,0.000000,0.158943,0.320216,0.171697,0.000000,0.000000,162.000000,137.000000,25.000000,0.000000,0.000000,0.000000,0.000000,0.000000,0.000000;
#CREDIT:;
#NOTES:
0000
0000
0000
0000
,
0000
0000
0000
0000
,
0000
0000
0000
0000
,
0000
0000
0000
0000
,
0000
1000
0000
0000
,
0000
0001
0000
0000
,
0000
1000
0000
0000
,
0000
0001
0000
0000
,
0100
0100
0100
0000
,
0000
0010
0000
0000
,
1000
1000
1000
0000
,
0000
0100
0000
0000
,
0010
0010
0010
0000
,
0000
0001
0000
0000
,
0100
0100
0100
0000
,
0000
0010
0000
0000
,
1000
0000
0001
0000
,
1000
0000
0000
0000
,
0010
0000
0000
0000
,
0100
0000
0010
0000
,
0100
0100
0100
0000
,
0000
0000
0000
0000
,
0001
0001
0001
0000
,
0000
0000
0000
0000
,
1000
0000
0000
0000
,
0100
0000
0000
0000
,
0010
0000
0000
0000
,
0001
0000
0000
0000
,
1000
0000
0000
0000
,
0010
0000
0000
0000
,
0100
0000
0000
0000
,
0001
0000
0000
0000
,
1000
0000
0001
0000
,
1000
0000
0100
0000
,
1000
0000
0001
0000
,
1000
0000
0100
0000
,
0010
0000
0001
0000
,
1000
0000
0010
0000
,
1000
0000
0001
0000
,
1000
0000
0010
0000
,
1001
0000
0000
0110
,
0000
0000
0000
0000
0000
0000
0000
1001
,
0000
0000
0000
0000
0000
0110
0000
0000
,
0000
0000
0000
0000
,
0000
1001
0000
0000
,
0110
0000
0000
0000
,
0000
1001
0000
0000
0000
0000
0000
0110
,
0000
0000
0000
0000
,
1001
0000
0000
0110
,
0000
0000
0000
0000
1001
0000
0000
1001
,
0000
0000
0000
0000
0000
0110
0000
0000
,
0000
0000
0000
1000
,
0001
1001
0000
0000
,
0110
0000
0000
1001
,
0000
1001
0000
0000
0000
0000
0000
0110
,
0000
1001
0000
0000
,
1000
0000
0000
0000
,
0100
0000
0000
0000
,
0010
0000
0000
0000
,
0001
0000
0000
0000
,
1000
0000
0000
0000
,
0010
0000
0000
0000
,
0100
0000
0000
0000
,
0001
0000
0000
0000
,
1000
0000
0010
0000
,
1000
0000
0100
0000
,
1000
0001
1000
0001
,
0100
0010
0100
0010
,
0000
0100
0100
0100
,
0000
0010
0000
0000
,
0000
1000
1000
1000
,
0000
0001
0000
0000
,
0100
0000
0000
0000
,
0010
0000
0000
0000
,
1000
0000
0000
0000
,
0001
0000
0100
0000
,
0001
0000
0000
0000
,
1001
0000
0000
0000
,
1000
0000
1000
0000
,
0100
0000
0000
0000
,
0000
0010
0000
0000
,
0000
0000
0000
0001
,
0000
1000
0000
0000
,
0001
0000
0100
0000
,
0000
0110
0100
0100
,
0000
1001
1000
1000
,
0000
1001
0001
0001
,
0000
0110
0000
1001
,
0000
1000
0000
0000
,
0000
0001
0000
0000
,
0010
0000
0000
0000
,
0100
0000
0000
0000
,
0000
0010
0000
0000
,
0000
0010
0000
0000
;

//---------------dance-single - ----------------
#NOTEDATA:;
#CHARTNAME:;
#STEPSTYPE:dance-single;
#DESCRIPTION:;
#CHARTSTYLE:;
#DIFFICULTY:Easy;
#METER:6;
#RADARVALUES:0.325735,0.448302,0.357131,0.123622,0.000000,332.000000,280.000000,52.000000,18.000000,0.000000,0.000000,0.000000,0.000000,0.000000,0.325735,0.448302,0.357131,0.123622,0.000000,332.000000,280.000000,52.000000,18.000000,0.000000,0.000000,0.000000,0.000000,0.000000;
#CREDIT:;
#NOTES:
0000
0000
0000
0000
,
0000
0000
0000
0000
,
0000
0000
0000
0000
,
0000
0000
0000
0000
,
1000
0010
1000
0010
,
1000
0100
1000
0100
,
0010
0001
0010
0001
,
0000
0000
0000
1001
,
1000
1000
0001
0100
,
0010
0000
0000
0000
,
0100
0100
0001
0010
,
0100
0000
0000
0000
,
1000
1000
0001
0100
,
0010
0000
0000
0000
,
0100
0100
0001
0010
,
0100
0000
0000
0000
,
2000
0000
3001
0100
,
0001
0011
0000
1000
,
0100
0010
0001
0100
,
0010
1010
1100
1001
,
0001
0001
1000
0010
,
0100
0000
0000
0000
,
0001
0001
1000
0100
,
0010
0000
0000
0000
,
0001
1000
0010
1000
,
0001
0010
0100
0010
,
0001
1000
0010
1000
,
0001
0010
0100
0010
,
0001
1000
0010
1000
,
0001
0010
0100
0010
,
0001
1000
0010
0100
,
0001
0010
0001
0000
,
1000
0010
0100
0001
,
0010
0100
1000
0001
,
0100
0010
1000
0100
,
0010
0001
0100
0010
,
1000
0100
0010
0100
,
1000
0100
0010
0100
,
1000
0001
0100
0010
,
1000
0001
0100
0010
,
1010
0000
0000
0001
0000
0000
0100
0000
,
0000
0110
0000
0000
1010
0000
0000
1000
,
0000
0000
0001
0000
0000
0100
0000
0000
,
1001
0000
0000
0011
0000
0000
1100
0000
,
0000
0000
1010
0000
0000
0001
0000
0000
,
0010
0000
0000
0110
0000
0000
1010
0000
,
0000
1000
0000
0000
0001
0000
0000
0010
,
0000
0000
1001
0000
0000
0011
0000
0000
,
1100
0000
0000
1000
1000
0000
0010
0000
,
0000
0110
0000
0000
1001
0000
0000
0001
,
0000
0000
1000
1000
0000
0100
0000
0000
,
0110
0000
0000
0101
0000
0000
1010
0000
,
0000
0000
1100
0000
0000
1000
1000
0000
,
0010
0000
0000
0110
0000
0000
1001
0000
,
0000
0001
0000
0000
1000
1000
0000
0010
,
0000
1100
0000
0000
,
0001
0001
0001
0000
,
1000
1000
1000
0000
,
0010
0010
0010
0000
,
0100
0100
0100
0000
,
0001
0001
0001
0000
,
0010
0010
0010
0000
,
0100
0100
0100
0000
,
1000
1000
1000
0000
,
0001
0100
0001
0000
,
1000
0100
1000
0001
,
2000
3200
0320
0032
,
0203
0320
2030
3002
,
1003
1001
1001
1001
,
0110
0000
0000
0000
,
0000
1100
1100
1100
,
1010
0000
0000
0000
,
2000
0000
3001
0100
,
0001
0101
0000
1000
,
0100
0010
0001
0100
,
0010
1010
1001
0101
,
0001
0010
0100
1000
,
1100
0011
1001
0000
,
0002
0000
1000
0000
,
0103
0010
0100
0010
,
0100
0001
1000
0100
,
0010
0000
0001
0010
,
0100
1000
0001
0000
,
1000
0010
0200
0000
,
0300
0110
0110
0110
,
0000
1001
1001
1001
,
0000
1100
1100
1100
,
0000
0202
0303
2020
,
3030
1000
0010
1000
,
0010
1000
0100
1000
,
0100
0010
0100
0010
,
0002
0000
0000
0000
,
1003
0010
0020
0000
,
0030
0010
0000
0000
;

//---------------dance-single - ----------------
#NOTEDATA:;
#CHARTNAME:;
#STEPSTYPE:dance-single;
#DESCRIPTION:;
#CHARTSTYLE:;
#DIFFICULTY:Medium;
#METER:11;
#RADARVALUES:0.435621,0.512345,0.528828,0.151094,0.051509,444.000000,367.000000,77.000000,22.000000,0.000000,0.000000,0.000000,0.000000,0.000000,0.435621,0.512345,0.528828,0.151094,0.051509,444.000000,367.000000,77.000000,22.000000,0.000000,0.000000,0.000000,0.000000,0.000000;
#CREDIT:;
#NOTES:
0000
0000
0000
0000
,
0000
0000
0000
0000
,
0000
0000
0000
0000
,
0000
0000
0000
0000
,
0001
1000
0100
0100
,
0010
0001
0001
0010
,
0001
1000
0001
0001
,
0010
0100
0100
1001
,
1000
0000
0001
0000
1000
0100
1000
0000
,
0010
0100
0011
0011
,
0001
0000
1000
0000
0010
1000
0010
0000
,
0100
0101
0101
0000
,
0001
0000
1000
0000
0001
0010
0001
0000
,
0010
0100
1100
1100
,
1000
0000
0001
0000
0100
0001
0100
0000
,
0001
1010
1010
0000
,
2000
0000
0000
0000
3001
1000
0001
0000
,
1000
0011
0000
1000
,
0010
0000
1000
0010
1000
0000
0001
0000
,
0011
1001
1100
1010
,
1000
0000
0100
0000
1000
0001
1000
0000
,
0001
0000
0000
0000
,
1000
0000
0001
0000
0010
0001
0010
0000
,
0001
0000
0000
0000
,
1000
0000
0001
1000
0010
0000
1000
0000
,
0001
0000
1000
0010
0100
0000
0001
0000
,
1000
0000
0001
0010
0100
0000
1000
0000
,
0010
0000
1000
0100
0010
0000
0001
0000
,
1000
0000
0001
1000
0010
0000
1000
0000
,
0001
0000
1000
0010
0100
0000
0001
0000
,
1000
0100
0010
0001
0010
0100
1000
0001
,
0100
0001
1000
0010
1000
0000
0000
0000
,
0001
0100
1000
0100
,
0001
0100
1000
0100
,
0001
0010
1000
0010
,
0001
0010
1000
0010
,
0001
0000
1000
0010
1000
0010
1000
0000
,
0001
0000
0010
0100
0010
0100
0010
0000
,
0001
0000
0100
1000
0100
1000
0100
0000
,
0001
0000
0010
1000
0010
1000
0010
0000
,
0011
0000
0000
0011
0000
0000
1001
0000
,
0000
0000
1000
0100
0000
0000
0100
0000
0010
0000
0000
0000
0000
0000
0110
0000
,
0000
0000
0101
0000
0000
1001
0000
0000
,
1100
0000
0000
1010
0000
0000
0101
0000
,
1000
0000
1001
0000
0000
1001
0000
0000
,
1100
0000
0000
0000
0000
0000
0010
0000
0000
0010
0100
0000
0100
0000
0000
0000
,
0000
1001
0000
0000
1010
0000
0000
1100
,
0000
0000
0011
0000
0000
1001
0000
0000
,
0110
0000
0000
0110
0000
0000
0101
0000
,
0001
0000
0100
0001
0000
0000
0100
0000
0001
0000
0000
0000
0000
0000
0011
0000
,
0000
0000
1001
0000
0000
1100
0000
0000
,
1010
0000
0000
0101
0000
0000
1001
0000
,
0000
0000
1100
0000
0000
1100
0000
0000
,
0110
0000
0000
0000
0100
0000
0001
0100
0000
0000
0001
0000
0100
0000
0000
0000
,
0000
1001
0000
0000
1010
0000
0000
0101
,
0000
1100
0000
0000
,
0000
0000
1000
0000
0000
0000
1000
0000
1000
0000
0000
1000
0000
0000
1000
0000
,
0000
0000
0100
0000
0000
0000
0100
0000
0100
0000
0000
0100
0000
0000
0100
0000
,
0000
0000
0010
0000
0000
0000
0010
0000
0010
0000
0000
0010
0000
0000
0010
0000
,
0000
0000
0001
0000
0000
0000
0001
0000
0001
0000
0000
0001
0000
0000
0001
0000
,
0000
0000
1000
0000
0000
0000
1000
0000
1000
0000
0000
1000
0000
0000
1000
0000
,
0000
0000
0010
0000
0000
0000
0010
0000
0010
0000
0000
0010
0000
0000
0010
0000
,
0000
0000
0100
0000
0000
0000
0100
0000
0100
0000
0000
0100
0000
0000
0100
0000
,
0000
0000
0001
0000
0000
0000
0001
0000
0001
0000
0000
0001
0000
0000
0001
0000
,
0000
0000
1000
0000
0100
0000
1000
0000
0100
0000
1000
0000
0000
1000
0000
0000
,
0000
0000
0001
0000
0100
0000
0001
0000
0100
0000
0001
0000
0000
0001
0000
0000
,
0002
0023
0230
2300
,
3020
0230
0302
2003
,
3100
1100
1100
1001
,
0101
0000
0001
2000
0000
0000
3000
0000
,
0010
1010
1010
0110
,
1001
0000
1000
0002
0000
0000
0003
0000
,
2000
0000
0000
0000
3001
0010
0001
0000
,
0100
0110
0000
0010
,
1000
0000
0100
0010
0100
0000
1000
0000
,
1001
0101
0110
1100
,
0000
1000
0100
1000
0010
1000
0001
0100
,
0001
0011
1001
0000
,
1000
0000
0000
0000
0001
0000
0000
0000
0010
0000
0000
0000
0100
0010
0000
0000
,
0200
0010
0010
0310
,
0010
1001
0110
1001
,
0110
0000
1000
0100
0000
0020
0000
0000
,
0030
0000
0100
0000
1000
0010
0000
0100
,
0002
0000
0003
0010
0200
0000
0000
0000
,
0300
1100
1100
1100
,
0000
1010
1010
1010
,
0000
1001
1001
1001
,
0000
0220
0330
2002
,
3003
1000
0100
1000
,
0010
0000
1000
0000
0100
0000
0010
0001
,
0010
0000
0100
0000
1000
0001
1000
0010
,
2000
0000
0000
0000
,
3001
0010
0020
0000
,
0030
0010
0000
0000
;

//---------------dance-single - ----------------
#NOTEDATA:;
#CHARTNAME:;
#STEPSTYPE:dance-single;
#DESCRIPTION:;
#CHARTSTYLE:;
#DIFFICULTY:Hard;
#METER:14;
#RADARVALUES:0.614186,0.675157,0.508224,0.453281,0.209471,626.000000,552.000000,74.000000,66.000000,0.000000,0.000000,0.000000,0.000000,0.000000,0.614186,0.675157,0.508224,0.453281,0.209471,626.000000,552.000000,74.000000,66.000000,0.000000,0.000000,0.000000,0.000000,0.000000;
#CREDIT:;
#NOTES:
// measure 0
0000
0000
0000
0000
,  // measure 1
0000
0000
0000
0000
,  // measure 2
0000
0000
0000
0000
,  // measure 3
0000
0000
0000
0000
,  // measure 4
0001
0000
1000
0001
1000
0100
0010
0001
,  // measure 5
0000
0000
1000
0100
0010
0001
0000
0000
,  // measure 6
1000
0000
0001
1000
0001
0010
0100
1000
,  // measure 7
0000
0000
0001
0010
0100
1000
1001
0000
,  // measure 8
1000
0000
0001
0000
1000
0010
1000
0001
,  // measure 9
0100
0000
0000
0001
0010
0001
0100
0001
1000
0001
0000
0000
,  // measure 10
1000
0000
0010
0000
0100
0001
0010
0100
,  // measure 11
1000
0000
0000
0001
1000
0001
0100
0001
0010
0001
0000
0000
,  // measure 12
1000
0000
0010
0000
0100
0010
0100
1000
,  // measure 13
0100
0000
0000
0001
0010
0001
0100
0001
1000
0001
0000
0000
,  // measure 14
1000
0000
0010
0000
1000
0100
0010
0100
,  // measure 15
1000
0000
0000
0001
1000
0001
0100
0001
0010
0001
0000
0000
,  // measure 16
2000
0000
0001
0000
3010
0100
0001
0100
,  // measure 17
0010
0000
0110
0000
0001
1000
0001
1000
,  // measure 18
0200
0000
0310
0200
0000
1300
0001
1000
,  // measure 19
0010
0000
0100
0000
0010
0000
1000
0000
0001
0010
0001
0000
0100
0000
0010
0000
,  // measure 20
1000
0000
0001
0000
1000
0100
0010
0100
,  // measure 21
1000
0000
0000
0000
,  // measure 22
0001
0000
1000
0000
0010
0100
1000
0100
,  // measure 23
0010
0000
0210
0000
,  // measure 24
0310
0000
1000
0000
0001
0010
0100
0010
,  // measure 25
0001
0000
1000
0100
1000
0010
1000
0100
,  // measure 26
1000
0000
0001
0000
1000
0100
0010
0100
,  // measure 27
1000
0000
0001
0100
0001
0010
0001
0100
,  // measure 28
0001
0000
1000
0000
0001
0010
0100
0010
,  // measure 29
0001
0000
1000
0001
1000
0010
1000
0001
,  // measure 30
1000
0000
0001
0000
0100
1000
0100
1000
,  // measure 31
0100
0000
0001
0010
0001
0020
0000
0030
,  // measure 32
0001
0100
1000
0100
0010
0100
1000
0100
,  // measure 33
0001
0010
1000
0010
0100
0010
1000
0010
,  // measure 34
0001
0100
1000
0100
0010
0100
1000
0100
,  // measure 35
0001
0010
1000
0010
0100
0010
1000
0010
,  // measure 36
0001
0100
1000
0100
0001
0010
1000
0010
,  // measure 37
0001
0100
1000
0100
0001
0010
1000
0010
,  // measure 38
0001
0100
1000
0100
0001
0010
1000
0010
,  // measure 39
0001
0000
0100
0000
1000
0000
0100
0000
0001
0000
0010
0001
0010
0001
0010
0000
,  // measure 40
0201
0000
0000
0001
0300
0000
1020
0000
0000
1000
0030
0000
1002
0000
1000
0000
,  // measure 41
1003
0000
0012
0000
0000
1000
0003
0000
2100
0000
0000
0000
3010
0000
1020
0000
,  // measure 42
0100
0030
0201
0001
0300
2001
0000
3010
,  // measure 43
0210
0000
0000
0001
0300
0000
0012
0000
0000
1000
0003
0000
2100
0000
0000
0000
,  // measure 44
3001
0000
0102
0010
0003
2010
0000
3001
,  // measure 45
1002
0000
0000
0010
0003
0000
0021
0000
0000
0100
0030
0000
1200
0000
0000
0000
,  // measure 46
1300
0000
2010
0000
0000
0000
3001
0000
0102
0000
0000
1000
0003
0000
2001
0000
,  // measure 47
0010
3000
0210
0000
0300
0021
0100
0030
,  // measure 48
2100
0000
0000
0001
3000
0000
0201
0000
0000
0010
0300
0000
1020
0000
1000
0000
,  // measure 49
1030
0000
2001
0000
0000
0010
3000
0000
0120
0000
0000
0000
0130
0000
0012
0000
,  // measure 50
1000
0003
2100
0001
3000
1002
0000
1003
,  // measure 51
0210
0000
0000
0001
0300
0000
0102
0000
0000
1000
0003
0000
2010
0000
0001
0000
,  // measure 52
3010
0000
1200
1000
0300
0021
0000
0031
,  // measure 53
2001
0000
0000
0010
3000
0000
0120
0000
0000
1000
0030
0000
2010
0000
0000
0000
,  // measure 54
3001
0000
0102
0000
0000
0000
1003
0000
2001
0000
0000
0010
3000
0000
0120
0000
,  // measure 55
1000
0030
2200
0000
3300
0002
0000
0003
,  // measure 56
1000
0000
0010
0000
0010
0000
0010
0000
0010
0000
0000
0010
0000
0000
0010
0000
,  // measure 57
1000
0000
0100
0000
0100
0000
0100
0000
0100
0000
0000
0100
0000
0000
0100
0000
,  // measure 58
1000
0000
0010
0000
0010
0000
0010
0000
0010
0000
0000
0010
0000
0000
0010
0000
,  // measure 59
1000
0000
0001
0000
0001
0000
0001
0000
0001
0000
0000
0001
0000
0000
0001
0000
,  // measure 60
1000
0000
0010
0000
0010
0000
0010
0000
0010
0000
0000
0010
0000
0000
0010
0000
,  // measure 61
1000
0000
0100
0000
0100
0000
0100
0000
0100
0000
0000
0100
0000
0000
0100
0000
,  // measure 62
1000
0000
0010
0000
0010
0000
0010
0000
0010
0000
0000
0010
0000
0000
0010
0000
,  // measure 63
1000
0000
0001
0000
0001
0000
0001
0000
0001
0000
0000
0001
0000
0000
0001
0000
,  // measure 64
1000
0000
0100
0000
1000
0000
0100
0000
1000
0000
0000
1000
0000
0000
1000
0000
,  // measure 65
0010
0000
0100
0000
0010
0000
0100
0000
0010
0000
0000
0010
0000
0000
0010
0000
,  // measure 66
2010
0001
3002
0010
0023
0000
0230
1000
,  // measure 67
2300
0001
3002
1000
2003
0000
3200
1000
,  // measure 68
1300
0101
0101
0011
,  // measure 69
1001
0000
0000
1000
0100
1000
0010
1000
0001
1000
0000
0000
,  // measure 70
0001
1010
1010
1100
,  // measure 71
1001
0000
0000
0001
1000
0001
0100
0001
0010
0001
0000
0000
,  // measure 72
2000
0000
0010
0000
3010
0100
0001
1000
,  // measure 73
0100
0000
0010
0100
0000
1000
0010
1000
,  // measure 74
0200
0000
0310
0200
0000
1300
0001
1000
,  // measure 75
0100
0000
1000
0000
0010
0000
0100
0000
0001
0010
0001
0000
0010
0000
0100
0000
,  // measure 76
1000
0001
0010
0001
0100
0001
1000
0001
,  // measure 77
1100
0000
0000
0000
1010
0000
0000
0000
0101
0000
0000
0000
0001
0000
0010
0001
,  // measure 78
0010
0000
0100
1000
0100
0000
1000
0000
0001
0000
0000
0000
0100
0010
0000
0100
,  // measure 79
0010
0010
1000
1000
0010
0010
0001
0001
,  // measure 80
0010
0010
1010
0000
1100
0000
1001
0000
,  // measure 81
0011
0000
1000
0101
0000
1001
0002
0000
,  // measure 82
0000
0003
1000
0000
0100
0001
0000
1000
,  // measure 83
0010
0001
1000
0001
0200
0000
0000
0000
,  // measure 84
0300
0011
1010
0011
,  // measure 85
0100
0001
0100
0000
0110
0000
0000
0000
1001
0000
0000
0000
0110
0000
0000
0000
,  // measure 86
1000
0100
1000
0000
1010
0000
0000
0000
0011
0000
0000
0000
1010
0000
1000
0000
,  // measure 87
0100
0010
0001
0000
0022
0000
0000
0000
0033
0000
0000
0000
2002
0000
0000
0000
,  // measure 88
3003
1100
1000
0001
,  // measure 89
0010
0000
0100
0000
1000
0000
0001
0100
,  // measure 90
0010
0000
1000
0000
0010
0100
0001
0100
,  // measure 91
0020
0000
0000
0000
,  // measure 92
0130
0000
0001
0000
1000
0100
0010
0001
,  // measure 93
0000
0000
1000
0100
0010
0001
0000
0000
;
