#VERSION:0.83;
#TITLE:Instant History;
#SUBTITLE:;
#ARTIST:Biffy Clyro;
#TITLETRANSLIT:;
#SUBTITLETRANSLIT:;
#ARTISTTRANSLIT:;
#GENRE:;
#ORIGIN:;
#CREDIT:;
#BANNER:Instant History-banner.png;
#BACKGROUND:Instant History-bg.png;
#PREVIEWVID:;
#JACKET:Instant History-jacket.png;
#CDIMAGE:;
#DISCIMAGE:;
#LYRICSPATH:Instant History.lrc;
#CDTITLE:;
#MUSIC:Instant History.ogg;
#OFFSET:-1.001000;
#SAMPLESTART:42.481560;
#SAMPLELENGTH:16.700003;
#SELECTABLE:YES;
#BPMS:0.000=133.000;
#STOPS:;
#DELAYS:;
#WARPS:;
#TIMESIGNATURES:0.000=4=4;
#TICKCOUNTS:0.000=4;
#COMBOS:0.000=1;
#SPEEDS:0.000=1.000=0.000=0;
#SCROLLS:0.000=1.000;
#FAKES:;
#LABELS:0.000=Song Start;
#BGCHANGES:0.000=Instant History.avi=1.000=0=0=0=StretchNoLoop====,
99999=-nosongbg-=1.000=0=0=0 // don't automatically add -songbackground-
;
#KEYSOUNDS:;
#ATTACKS:
;

//---------------dance-single - ----------------
#NOTEDATA:;
#CHARTNAME:;
#STEPSTYPE:dance-single;
#DESCRIPTION:;
#CHARTSTYLE:;
#DIFFICULTY:Hard;
#METER:11;
#RADARVALUES:0.456634,0.503500,0.131473,0.583411,0.147907,389.000000,373.000000,16.000000,71.000000,0.000000,0.000000,0.000000,0.000000,0.000000,0.456634,0.503500,0.131473,0.583411,0.147907,389.000000,373.000000,16.000000,71.000000,0.000000,0.000000,0.000000,0.000000,0.000000;
#CREDIT:Ben Speirs;
#NOTES:
0000
0000
0000
0000
,
0000
0000
0000
0000
,
0000
0000
0000
0000
,
0000
0000
0000
0000
0001
2000
0000
0000
,
0200
0000
0000
3300
,
0000
0000
0000
0000
1000
0100
0020
0000
,
0002
0000
0000
0033
,
0033
0000
0000
0000
1000
0020
0000
0000
,
0130
0000
0001
0000
1000
0000
0001
0000
0100
0000
0010
0000
1000
0100
1000
0000
,
0001
0000
0000
0000
1000
0000
0100
0000
0010
0000
0000
0010
0001
0000
1000
0000
,
0020
0000
0000
0000
0130
0000
0001
0000
1000
0000
0001
0000
0100
0010
0100
0000
,
0001
0000
0000
0003
1000
0000
0100
0000
0001
0000
0100
0000
1000
0001
1000
0000
,
0020
0000
0000
0000
0130
0000
0001
0000
1000
0000
0001
0000
0100
0010
0100
0000
,
0001
0010
1000
0010
0001
1000
0010
0100
,
0102
0000
0000
0000
1003
0000
0001
0000
0010
0000
0100
0000
1000
0010
1000
0000
,
0001
0000
0101
0000
1000
0100
0010
0001
,
0100
1000
0100
0010
0100
0001
0100
0010
,
1000
0100
0010
0000
0002
0000
0000
0000
1003
0000
0100
0000
1000
0000
0001
0000
,
0100
0010
1000
0000
0001
0000
0010
0000
0200
0000
0000
0000
2300
0000
0000
0000
,
3001
0000
0201
0000
0310
1000
0001
0100
,
0010
0001
0010
0100
0010
1000
0010
0100
,
0001
0010
0100
0000
2000
0000
0000
0000
3001
0000
0010
0000
0001
0000
1000
0000
,
0010
0010
0100
0100
0001
0001
1000
1001
,
0000
0000
0000
0000
,
2200
0000
3300
0001
0100
0001
2000
0000
,
0000
3010
0010
0100
0001
0010
1000
0010
,
0002
0000
0000
1003
0010
1000
0001
0000
,
1000
0000
0100
0020
0000
0000
0031
0000
2000
0000
0000
3002
0000
0000
0103
0000
,
0202
0000
0333
1000
0010
1000
0002
0000
,
0000
0103
0100
0010
1000
0100
0001
0100
,
2000
0000
0000
3001
0100
0001
1000
0000
,
0001
0000
0010
0100
0000
0010
0100
0000
1000
0000
0010
0100
0000
0010
0100
0000
,
0002
0000
0103
0010
1000
0010
0200
0000
,
0301
1000
0100
1000
0001
0010
0100
1000
,
1020
0000
0130
0001
1000
0001
0020
0000
,
0031
0000
1000
0100
0000
1000
0100
0000
0020
0000
0000
0032
0000
0000
1003
0000
,
2010
0000
3001
0010
0001
0100
0020
0000
,
1030
0001
0010
0001
1000
0100
0010
0001
,
0201
0000
0310
1000
0001
1000
0200
0000
,
1300
0001
0100
0010
1000
0001
1000
0100
,
0020
0000
0031
1000
0020
0000
0230
0000
,
0302
0000
0003
0000
1000
0100
1000
0001
,
0000
0001
0200
0000
0310
0000
2032
0000
,
3003
0000
0000
0000
0001
0010
0001
1000
,
0002
0203
0320
2330
,
3001
0010
0000
0000
0001
0100
0010
2000
,
0000
3020
0000
0000
0130
0000
0100
0000
,
2002
0000
0000
3003
,
0102
0000
1003
0010
0001
0010
1000
0001
,
0020
0000
0000
0130
0000
0000
1000
0000
0020
0000
0000
0130
0000
0000
0001
0000
,
2000
0000
0000
3100
0000
0000
0010
0000
0002
0000
0000
0000
1003
0000
0000
0000
,
0001
0000
0010
0200
0000
0000
1330
0000
0002
0000
0000
0203
0000
0000
0310
0000
,
2010
0000
3001
0100
1000
0100
0001
1000
,
0100
0200
0000
0320
0000
0031
1000
0001
,
0200
0000
0310
1000
0001
1000
0100
0000
,
1000
0000
0001
0100
0000
0001
0100
0000
0010
0000
1000
0000
0100
0000
0010
0000
,
0012
0000
1003
0100
1000
0001
0100
0010
,
1000
0000
0001
0100
0000
0000
0001
0000
0001
0000
1000
0100
0000
0000
1000
0000
,
0010
0000
0000
0100
0000
0000
0001
0000
2000
0000
0000
0000
3001
0000
0000
0000
,
1000
0000
0001
0100
0000
0001
0100
0000
0010
0000
1000
0100
0000
1000
0100
0000
,
0020
0000
0031
1000
0001
0100
0010
1000
,
0001
0101
0000
1100
0000
0001
0010
0100
,
2000
0000
3001
0100
0001
1000
0020
0000
,
0130
0000
0001
2000
0000
0000
3100
0000
0020
0003
0000
0032
0000
0000
0203
0000
,
0000
0020
0000
0000
0330
0000
0000
0000
;

//---------------dance-single - ----------------
#NOTEDATA:;
#CHARTNAME:;
#STEPSTYPE:dance-single;
#DESCRIPTION:;
#CHARTSTYLE:;
#DIFFICULTY:Medium;
#METER:7;
#RADARVALUES:0.306379,0.371000,0.106822,0.386202,0.053411,261.000000,248.000000,13.000000,47.000000,0.000000,0.000000,0.000000,0.000000,0.000000,0.306379,0.371000,0.106822,0.386202,0.053411,261.000000,248.000000,13.000000,47.000000,0.000000,0.000000,0.000000,0.000000,0.000000;
#CREDIT:Ben Speirs;
#NOTES:
0000
0000
0000
0000
,
0000
0000
0000
0000
,
0000
0000
0000
0000
,
0000
0000
0000
0000
,
2200
0000
0000
3300
,
0000
0000
0000
0000
,
0002
0000
0000
0003
,
0000
0000
0200
0300
,
0010
0000
0010
0000
1000
0000
0010
1000
,
0100
0010
0001
0000
,
1000
0000
1000
0000
0001
0000
1000
0100
,
0010
0001
1000
0000
,
0001
0000
0001
0000
0100
0000
0001
0100
,
0010
0010
1000
0000
,
0001
0000
0001
0000
1000
0000
0001
0010
,
0100
1000
0000
0000
,
0101
0000
0101
0000
1000
0100
1000
0100
,
0010
0000
0010
0000
0001
1000
0001
0000
,
0100
0000
0001
0100
0020
0000
2030
0000
,
3001
0000
0000
0000
1000
0001
0100
0000
,
1010
0000
1010
0000
0001
0010
0001
0010
,
0100
0000
0100
0000
1000
0001
1000
0000
,
0001
0001
0100
0000
0010
0010
1000
0001
,
0000
0000
0000
0000
,
0202
0000
0303
0000
1000
0100
2000
0000
,
3000
0001
1000
0100
,
0220
0000
0330
0000
0001
1000
0001
0000
,
2000
3010
0200
0301
,
2020
0000
3030
0000
0001
0010
0002
0000
,
0003
1000
0001
0010
,
0220
0000
0330
0000
1000
0001
1000
0000
,
0002
0103
0020
1030
,
1010
0000
0000
0001
0100
0001
0100
0000
,
0000
0001
1000
0001
2000
0000
3100
0000
,
0010
0000
0010
0001
1000
0001
0100
0000
,
0001
0000
0000
0100
0000
0000
0001
0000
1000
0000
0000
0010
0000
0000
1000
0000
,
0001
0000
0000
1000
0010
1000
0010
0000
,
0000
1000
0001
1000
0002
0000
0013
0000
,
0100
0000
0100
1000
0001
1000
0010
0000
,
0100
0000
0100
0000
0001
0010
0100
0000
,
2000
3000
0001
0100
,
0020
0030
1000
0100
,
0010
0000
0010
0001
2000
0000
3002
0000
,
0003
0000
0001
0100
,
0020
0030
1000
0001
,
0200
0000
0300
0000
0001
1000
0001
2000
,
0000
3200
0000
0000
0300
0000
0300
0000
,
2002
0000
0000
3003
,
0202
0000
0303
0000
1000
0100
0010
0000
,
0001
0000
0000
1000
0000
0000
0001
0000
0200
0000
0000
0000
0310
0000
0000
0000
,
2000
0000
3100
0010
0002
0000
0003
0000
,
1000
0000
0000
0100
0000
0000
1000
0000
0001
0000
0000
0100
0000
0000
0001
0000
,
2000
0000
3000
0000
0001
0100
0010
0000
,
1000
0100
0010
0000
0001
1000
0010
0000
,
0200
0000
0300
0000
0001
1000
0001
0000
,
1000
0000
0000
0100
0000
0000
0010
0000
0010
0000
0000
0001
0000
0000
1000
0000
,
2020
0000
3030
0000
0001
0010
0100
0000
,
1000
0000
0000
0001
0000
0000
1000
0000
0010
0000
0000
0010
0030
0000
0100
0000
,
0002
0000
0013
0100
2000
0000
3000
0000
,
0001
0000
0000
0010
0000
0000
0001
0000
1000
0000
0000
0010
0000
0000
1000
0000
,
0002
0000
0003
0000
1000
0010
0100
0000
,
0001
0010
0100
0000
1000
0001
0100
0000
,
0020
0000
0030
0000
1000
0001
1000
0000
,
0001
0000
0000
0010
0000
0000
0100
0000
0100
0000
0000
1000
0000
0000
0002
0000
,
0000
2000
0000
0000
3003
0000
0000
0000
;

//---------------dance-single - ----------------
#NOTEDATA:;
#CHARTNAME:;
#STEPSTYPE:dance-single;
#DESCRIPTION:;
#CHARTSTYLE:;
#DIFFICULTY:Easy;
#METER:4;
#RADARVALUES:0.198383,0.238962,0.049302,0.230078,0.000000,169.000000,163.000000,6.000000,28.000000,0.000000,0.000000,0.000000,0.000000,0.000000,0.198383,0.238962,0.049302,0.230078,0.000000,169.000000,163.000000,6.000000,28.000000,0.000000,0.000000,0.000000,0.000000,0.000000;
#CREDIT:Ben Speirs;
#NOTES:
0000
0000
0000
0000
,
0000
0000
0000
0000
,
0000
0000
0000
0000
,
0000
0000
0000
0000
,
0002
0000
0000
0003
,
0000
0000
0000
0000
,
2000
0000
0000
3000
,
0000
0000
0000
0000
,
0010
0010
0100
0000
,
0010
0010
1000
0000
,
0001
0010
0100
0000
,
1000
0010
0100
0000
,
0100
0100
0001
0000
,
0100
0100
0010
0000
,
0010
1000
0001
0000
,
1000
0001
0000
0000
,
1000
1000
0001
0001
,
0200
0300
0001
1000
,
0010
0010
0100
0001
,
1000
0000
0100
0000
,
0010
0010
0001
1000
,
0020
0030
0100
0100
,
0001
0010
0100
1000
,
0000
0000
0000
0000
,
1001
0000
0001
0200
,
0300
0010
0010
1000
,
0002
0003
1000
1000
,
0001
0010
0100
1000
,
1001
0000
1000
0020
,
0030
0100
0100
0001
,
2000
3000
0001
0001
,
1000
0100
0010
0001
,
0200
0300
0010
0010
,
1000
0001
1000
0000
,
0002
0003
0010
0010
,
0100
1000
0001
0000
,
2000
3000
0001
0001
,
0100
0010
1000
0000
,
0020
0030
0100
0100
,
0001
0010
0100
0000
,
2000
3000
0100
0000
,
0020
0030
0001
0000
,
0100
0100
0010
0010
,
0000
0000
0000
0000
,
2000
3000
0001
0000
,
0002
0003
0100
0100
,
0010
0010
0000
0000
,
2002
0000
0000
3003
,
1001
0000
0001
1000
,
0200
0300
0020
0030
,
0001
0010
0001
0000
,
1000
1000
0010
0010
,
0200
0300
0001
0000
,
1000
0001
0010
0010
,
0200
0300
1000
0000
,
0001
1000
0010
0000
,
1001
0000
1000
0001
,
0020
0030
0200
0300
,
1000
0100
1000
0000
,
0001
0001
0100
0100
,
0020
0030
1000
0000
,
0001
1000
0100
0100
,
0020
0030
0001
0000
,
1000
0001
0100
0010
,
2002
0000
0000
0000
3003
3003
0000
0000
;

//---------------dance-single - ----------------
#NOTEDATA:;
#CHARTNAME:;
#STEPSTYPE:dance-single;
#DESCRIPTION:;
#CHARTSTYLE:;
#DIFFICULTY:Beginner;
#METER:1;
#RADARVALUES:0.099779,0.131473,0.024651,0.000000,0.000000,85.000000,82.000000,3.000000,0.000000,0.000000,0.000000,0.000000,0.000000,0.000000,0.099779,0.131473,0.024651,0.000000,0.000000,85.000000,82.000000,3.000000,0.000000,0.000000,0.000000,0.000000,0.000000,0.000000;
#CREDIT:Ben Speirs;
#NOTES:
0000
0000
0000
0000
,
0000
0000
0000
0000
,
0000
0000
0000
0000
,
0000
0000
0000
0000
,
0000
0000
0000
0000
,
0000
0000
0000
0000
,
0000
0000
0000
0000
,
0000
0000
0000
0000
,
1000
0000
1000
0000
,
1000
0000
0000
0000
,
0001
0000
0000
0000
,
0100
0000
0000
0000
,
0010
0000
0010
0000
,
0010
0000
0000
0000
,
1000
0000
0000
0000
,
0001
0000
0000
0000
,
0100
0100
0100
0000
,
0100
0000
0000
0000
,
0010
0000
0010
0010
,
0000
0000
0000
0000
,
1000
1000
1000
0000
,
1000
0000
0000
0000
,
0001
0001
0000
0000
,
0000
0000
0000
0000
,
1001
0000
0000
0000
,
0001
0000
0001
0000
,
0001
0000
0000
0000
,
0100
0000
0100
0000
,
0100
0000
0000
0000
,
0010
0000
0010
0000
,
0010
0000
0000
0000
,
1000
0000
0000
0000
,
0001
0000
0001
0001
,
0000
0000
0000
0000
,
1000
0000
1000
1000
,
0000
0000
0010
0000
,
0010
0000
0010
0010
,
0000
0000
0000
0000
,
0100
0000
0100
0100
,
0000
0000
0100
0000
,
0100
0000
0000
0000
,
0001
0000
0000
0000
,
1000
0000
1000
1000
,
0000
0000
0000
0000
,
0010
0000
0000
0000
,
1000
0000
0000
0000
,
0001
0001
0000
0000
,
1000
0000
0000
0000
,
1001
0000
0000
0000
,
0010
0000
0010
0000
,
0010
0010
0010
0000
,
0000
0000
0000
0000
,
0100
0000
0000
0000
,
0001
0000
0001
0000
,
0001
0000
0000
0000
,
1000
0000
0000
0000
,
1001
0000
0000
0000
,
0100
0000
0100
0000
,
0100
0100
0100
0000
,
0000
0000
0000
0000
,
0001
0000
0000
0000
,
1000
0000
1000
0000
,
1000
0000
0000
0000
,
0010
0000
0010
0000
,
0010
0000
0000
0000
;

//---------------dance-double - ----------------
#NOTEDATA:;
#CHARTNAME:;
#STEPSTYPE:dance-double;
#DESCRIPTION:;
#CHARTSTYLE:;
#DIFFICULTY:Hard;
#METER:11;
#RADARVALUES:0.466025,0.503500,0.164341,0.632714,0.139690,397.000000,377.000000,20.000000,77.000000,0.000000,0.000000,0.000000,0.000000,0.000000,0.466025,0.503500,0.164341,0.632714,0.139690,397.000000,377.000000,20.000000,77.000000,0.000000,0.000000,0.000000,0.000000,0.000000;
#CREDIT:Ben Speirs;
#NOTES:
// measure 0
00000000
00000000
00000000
00000000
,  // measure 1
00000000
00000000
00000000
00000000
,  // measure 2
00000000
00000000
00000000
00000000
,  // measure 3
00000000
00000000
00000000
00000000
00001000
00200000
00000000
00000000
,  // measure 4
00320000
00000000
00000000
00030000
,  // measure 5
00000000
00000000
00000000
00000000
01000000
00001000
00020000
00000000
,  // measure 6
00032000
00000000
00000000
00003000
,  // measure 7
00000000
00000000
00000000
00000000
00010000
00000200
00000000
00000000
,  // measure 8
00000310
00000000
00000010
00000000
00000001
00000000
00000010
00000000
00000100
00000000
00000010
00000000
00000001
00001000
00000001
00000000
,  // measure 9
00001000
00000000
00000000
00000000
00000001
00000000
00000100
00000000
00000010
00000000
00000000
00000010
00001000
00000000
00000100
00000000
,  // measure 10
00020000
00000000
00000000
00000000
00031000
00000000
00100000
00000000
00001000
00000000
00010000
00000000
00001000
01000000
00001000
00000000
,  // measure 11
02000000
00000000
00000000
00000000
03010000
00000000
00100000
00000000
10000000
00000000
00100000
00000000
00010000
10000000
00010000
00000000
,  // measure 12
01000000
00000000
01000000
00000000
00010000
00000000
01000000
00000000
00100000
00000000
10000000
00000000
00100000
01000000
00100000
00000000
,  // measure 13
02000000
00000000
03010000
00100000
00010000
00100000
00001000
00010000
,  // measure 14
00010200
00000000
00000000
00000000
00001300
00000000
00000001
00000000
00000100
00000000
00000001
00000000
00001000
00000100
00001000
00000000
,  // measure 15
00000100
00010000
00010100
00000000
00000100
00010000
00100000
10000000
,  // measure 16
00010000
00100000
01000000
00100000
10000000
00100000
01000000
00100000
,  // measure 17
00010000
10000000
00100000
00000000
02000000
00000000
00000000
00000000
03010000
00000000
00100000
00000000
00010000
00000000
01000000
00000000
,  // measure 18
00001000
00010000
00001000
00000000
00010000
00000000
00001000
00000000
00000200
00000000
00000000
00000000
00000310
00000000
00001000
00000000
,  // measure 19
00000001
00000000
00001001
00000000
00001000
00000100
00010000
00000010
,  // measure 20
00001000
00000100
00000010
00000100
00000001
00000100
00000010
00000100
,  // measure 21
00001000
00000001
00000100
00000000
00000020
00000000
00000000
00000000
00001030
00000000
00000100
00000000
00001000
00000000
00000010
00000000
,  // measure 22
00010000
00010000
00001000
00001000
00100000
00010000
01000000
00100000
,  // measure 23
20020000
00000000
00000000
30030000
,  // measure 24
22000000
00000000
33000000
00010000
01000000
00010000
20000000
00000000
,  // measure 25
00000000
30100000
00100000
01000000
00010000
10000000
01000000
00100000
,  // measure 26
00002000
00000000
01033000
00100000
10000000
10000000
00020000
00000000
,  // measure 27
20030000
00000000
00000000
32000000
00000000
00000000
03010000
00000000
00002000
00000000
00000000
00003020
00000000
00000000
00000031
00000000
,  // measure 28
00000202
00000000
00003303
00001000
00000010
00001000
00000002
00000000
,  // measure 29
00001003
00003010
00000100
00001000
00000100
00000001
00000010
00000100
,  // measure 30
00010000
00000000
00003010
00000100
00000001
00000001
00002000
00000000
,  // measure 31
00003001
00000000
00000010
00002000
00000000
00000000
00013000
00000000
00010000
00000000
00001000
00200000
00000000
00000000
00310000
00000000
,  // measure 32
01020000
00000000
10030000
01000000
00010000
01000000
20000000
00000000
,  // measure 33
30100000
01000000
00001000
00100000
00100000
00001000
00010000
00100000
,  // measure 34
00020000
00000000
00031000
00010000
00100000
01000000
00020000
00000000
,  // measure 35
10030000
00000000
01000000
00020000
00000000
00000000
00031000
00000000
00001000
00000000
00010000
00000200
00000000
00000000
00001300
00000000
,  // measure 36
00002010
00000000
00003001
00000010
00001000
00000010
00000002
00000000
,  // measure 37
00000103
00000010
00010000
00000100
00000100
00010000
00001000
00000100
,  // measure 38
00002000
00000000
00013000
00001000
00100000
00010000
02000000
00000000
,  // measure 39
03100000
00010000
00001000
00010000
00100000
10000000
01000000
00020000
,  // measure 40
00000000
00031000
00100000
00001000
00020000
00000000
00030020
00000000
,  // measure 41
00000130
00000100
00000300
00000000
00000001
00000010
00000001
00001000
,  // measure 42
00000000
00001000
00000100
00000000
00020000
00000000
00032000
00000000
,  // measure 43
00103000
00000000
00000000
00000000
00100000
00010000
10000000
00200000
,  // measure 44
00000000
02300000
03020000
00230000
,  // measure 45
00301000
00001000
00003000
00000000
00100000
00010000
01000000
00002000
,  // measure 46
00000000
00000000
00320000
00000000
00000000
00000000
00000000
00000000
00000000
00000000
00000000
00000000
00033000
00030000
00003000
00000000
,  // measure 47
00022000
00000000
00000000
00033000
,  // measure 48
00010200
00000000
00001300
00000010
00000001
00000010
00001000
00000001
,  // measure 49
00000010
00000000
00000100
00001000
00000000
00000100
00001000
00000000
00000100
00000000
00010000
00001000
00000000
00010000
00001000
00000000
,  // measure 50
00200000
00000000
00000000
00320000
00000000
00000000
10030000
00000000
10200000
00000000
00000000
00000000
01300000
00000000
00000000
00000000
,  // measure 51
00010000
00000000
01000000
00200000
00000000
00000000
10300000
00000000
10000000
00000000
01000000
00200000
00000000
00000000
00310000
00000000
,  // measure 52
02000000
00000000
03001000
00010000
00001000
00100000
00010000
10000000
,  // measure 53
00100000
10100000
00000000
01020000
00000000
10030000
01000000
00010000
,  // measure 54
00002000
00000000
00103000
00100000
00010000
00100000
00002000
00000000
,  // measure 55
00013000
00000000
00000000
00020100
00000000
00000000
00031000
00000000
00001000
00000000
00100000
00003000
00001000
00000000
00313000
00000000
,  // measure 56
00201000
00000000
00310000
01000000
10000000
01000000
00010000
10000000
,  // measure 57
01000000
00000000
00100000
00001000
00000000
00100000
00001000
00000000
00010000
00000000
00000100
00010000
00000000
00000100
00001000
00000000
,  // measure 58
00000020
00000000
00000000
00002330
00000000
00000000
00003001
00000000
00000201
00000000
00000000
00000000
00000310
00000000
00000000
00000000
,  // measure 59
00001000
00000000
00000010
00000200
00000000
00000000
00000301
00000000
00000001
00000000
00000010
00000200
00000000
00000000
00001300
00000000
,  // measure 60
00000020
00000000
00010030
00001000
00010000
00000100
00001000
00000001
,  // measure 61
00000100
00000101
00000000
00002010
00000000
00003001
00000010
00001000
,  // measure 62
00020000
00000000
00030100
00000100
00001000
00000100
00020000
00000000
,  // measure 63
00031000
00000000
00000000
00201000
00000000
00000000
00301000
00000000
00010000
00000000
00000000
00010020
00000000
00000000
00020030
00000000
,  // measure 64
00000000
00002000
00000000
00000000
00033000
00000000
00000000
00000000
;

//---------------dance-double - ----------------
#NOTEDATA:;
#CHARTNAME:;
#STEPSTYPE:dance-double;
#DESCRIPTION:;
#CHARTSTYLE:;
#DIFFICULTY:Medium;
#METER:8;
#RADARVALUES:0.326335,0.371000,0.115039,0.558760,0.053411,278.000000,264.000000,14.000000,68.000000,0.000000,0.000000,0.000000,0.000000,0.000000,0.326335,0.371000,0.115039,0.558760,0.053411,278.000000,264.000000,14.000000,68.000000,0.000000,0.000000,0.000000,0.000000,0.000000;
#CREDIT:Ben Speirs;
#NOTES:
00000000
00000000
00000000
00000000
,
00000000
00000000
00000000
00000000
,
00000000
00000000
00000000
00000000
,
00000000
00000000
00000000
00000000
,
00020000
00000000
00000000
00030000
,
00000000
00000000
00001000
00010000
,
00002000
00000000
00000000
00003000
,
00000000
00000000
00022000
00033000
,
00101000
00000000
00100000
00000000
00010000
00000000
10000000
01000000
,
10000000
00000000
00010000
01000000
00100000
00000000
10000000
00000000
,
00010000
00000000
00010000
00000000
00100000
00000000
00100000
00001000
,
00010000
00001000
00010000
00000000
,
00010100
00000000
00000100
00000000
00001000
00000000
00000001
00000010
,
00000001
00000000
00001000
00000010
00000100
00000000
00000001
00000010
,
00000100
00000000
00000100
00000000
00001000
00000000
00000100
00010000
,
00002000
00023000
00030000
00000000
,
00010100
00000000
00011000
00000000
00010000
00001000
00010000
00001000
,
00200000
00000000
00310000
00000000
10000000
00010000
01000000
00000000
,
00200000
02300000
03010000
00010000
,
00100000
00001000
00010000
00000000
,
00101000
00000000
00011000
00000000
00001000
00010000
00001000
00010000
,
00000200
00000000
00001300
00000000
00000001
00001000
00000010
00000000
,
00001000
00000010
00001000
00000000
00000100
00010000
00000100
00010000
,
00000000
00000000
00000000
00000000
,
00022000
00000000
00033000
00000000
00001000
00100000
00020000
00000000
,
00030000
00000000
10000000
00100000
02000000
00000000
03020000
00000000
,
10030000
00000000
00000000
00000000
00010000
01000000
00010000
00000000
,
10000000
00000000
00000000
01000000
00000000
00000000
00100000
00000000
00100000
00000000
00000000
00010000
00000000
00000000
01000000
00000000
,
00002000
00000000
00003000
00000000
00010000
00000100
00002000
00000000
,
00003000
00000000
00000001
00000100
00000020
00000000
00002030
00000000
,
00003001
00000000
00000000
00000000
00001000
00000010
00001000
00000000
,
00000001
00000000
00000000
00000010
00000000
00000000
00000100
00000000
00000100
00000000
00000000
00001000
00000000
00000000
00000010
00000000
,
00020000
00000000
00031000
00000000
00010000
00001000
00200000
00000000
,
00310000
00000000
10000000
00100000
02000000
00000000
03020000
00000000
,
00230000
00000000
00301000
00000000
00100000
00001000
00020000
00000000
,
00031000
00000000
00000000
00100000
00000000
00000000
00001000
00000000
00010000
00000000
00000000
00000010
00000000
00000000
00010000
00000000
,
00002000
00000000
00103000
00000000
00001000
00010000
00000200
00000000
,
00001300
00000000
00000001
00000100
00000020
00000000
00002030
00000000
,
00003200
00000000
00010300
00000000
00000100
00010000
00002000
00000000
,
00013000
00000000
00000100
00000000
00010000
00001000
00100000
00010000
,
20000000
30000000
00100000
01000000
,
00002000
00000000
00003000
00000000
01000000
00010000
01000000
01000000
,
00200000
00320000
00031000
00022000
,
00033000
00000000
00000000
00000000
00001000
00010000
00000100
00002000
,
00000000
00003002
00000203
00000320
,
00020030
00000000
00030000
00000000
00000010
00001000
00000010
00020000
,
00000000
00002000
00000000
00000000
00000000
00000000
00033000
00000000
,
00022000
00000000
00000000
00033000
,
00102000
00000000
00103000
00000000
00010000
10000000
00100000
00000000
,
10000000
00000000
00000000
01000000
00000000
00000000
00100000
00000000
00002000
00000000
00000000
00000000
00013000
00000000
00000000
00000000
,
00000200
00000000
00001300
00000010
00000200
00000000
00001300
00000000
,
00010000
00000000
00000000
00010000
00000000
00000000
00010000
00000000
00002000
00000000
00000000
00000000
00013000
00000000
00000000
00000000
,
00020100
00000000
00030100
00000000
00001000
00000001
00000100
00000000
,
00000001
00000010
00000000
00000010
00000000
00000100
00001000
00000100
,
00020000
00000000
00031000
00000000
00010000
00001000
00100000
00000000
,
00001000
00000000
00000000
00001000
00000000
00000000
00001000
00000000
00010000
00000000
00001000
00000000
00100000
00000000
00010000
00000000
,
02020000
00000000
03030000
00000000
10000000
00100000
02000000
00000000
,
03010000
00000000
00000000
10000000
00000000
00000000
00010000
00000000
00200000
00000000
00000000
00000000
01300000
00000000
00000000
00000000
,
20000000
00000000
30100000
01000000
00002000
00000000
00303000
00000000
,
00001000
00000000
00000000
00010000
00000000
00000000
00000100
00000000
00000200
00000000
00000000
00000000
00001300
00000000
00000000
00000000
,
00002020
00000000
00003030
00000000
00000001
00000100
00000020
00000000
,
00001030
00000002
00000000
00002003
00000000
00003010
00010000
00000010
,
00020000
00000000
00031000
00000000
00010000
00001000
00100000
00000000
,
00001000
00000000
00000000
00100000
00000000
00000000
00001000
00000000
00010000
00000000
00000000
00000100
00000000
00000000
00020000
00000000
,
00000000
00002000
00000000
00000000
00033000
00000000
00000000
00000000
;

//---------------dance-double - ----------------
#NOTEDATA:;
#CHARTNAME:;
#STEPSTYPE:dance-double;
#DESCRIPTION:;
#CHARTSTYLE:;
#DIFFICULTY:Easy;
#METER:4;
#RADARVALUES:0.188992,0.212000,0.073954,0.254729,0.000000,161.000000,152.000000,9.000000,31.000000,0.000000,0.000000,0.000000,0.000000,0.000000,0.188992,0.212000,0.073954,0.254729,0.000000,161.000000,152.000000,9.000000,31.000000,0.000000,0.000000,0.000000,0.000000,0.000000;
#CREDIT:Ben Speirs;
#NOTES:
00000000
00000000
00000000
00000000
,
00000000
00000000
00000000
00000000
,
00000000
00000000
00000000
00000000
,
00000000
00000000
00000000
00000000
,
00002000
00000000
00003000
00000000
,
00000000
00000000
00000000
00000000
,
00020000
00000000
00030000
00000000
,
00000000
00000000
00000000
00000000
,
00001000
00001000
00100000
00100000
,
00010000
00000000
10000000
00000000
,
00100000
00100000
01000000
01000000
,
00001000
00000000
00010000
00000000
,
00001000
00001000
00010000
00010000
,
00000100
00000000
00001000
00000000
,
00000001
00000001
00000100
00000100
,
00000010
00001000
00000000
00000000
,
00000001
00001000
00000100
00010000
,
00002000
00003000
00010000
00010000
,
00001000
00100000
00010000
00010000
,
01000000
00000000
00100000
00100000
,
10000000
00010000
00100000
00001000
,
00020000
00030000
00001000
00001000
,
00010000
00000100
00001000
00000001
,
00000000
00000000
00000000
00000000
,
00001001
00000000
00000001
00000100
,
00000000
00000010
00000010
00000000
,
00001000
00000000
00000100
00000100
,
00020000
00030000
00002000
00003000
,
00100000
00000000
00010000
01000000
,
00000000
00100000
00100000
00000000
,
10000000
00000000
00010000
00000000
,
00100000
00100000
00001000
00000000
,
00022000
00033000
00010000
00000100
,
00000000
00001000
00000010
00000010
,
00000100
00000000
00000001
00000010
,
00000200
00000300
00010000
00000000
,
00022000
00033000
00001000
00100000
,
00000000
00010000
01000000
01000000
,
00100000
00000000
10000000
01000000
,
00000000
10000000
00010000
00010000
,
00200000
00300000
00010000
00000000
,
02000000
03000000
00000000
00000000
,
00001000
00001000
00010000
00010000
,
00000000
00000000
00000000
00000000
,
00000200
00000300
00001000
00000000
,
00000020
00000030
00000000
00000000
,
00010000
00001000
00000000
00000000
,
00022000
00000000
00000000
00033000
,
00011000
00000000
00001000
00001000
,
00200000
00300000
02000000
03000000
,
20000000
30000000
00200000
00300000
,
01000000
01000000
00001000
00000000
,
00011000
00000000
00320000
00030000
,
00000100
00000100
00000010
00000010
,
00000002
00000003
00001000
00001000
,
00000100
00010000
00001000
00000000
,
00011000
00000000
00010000
00010000
,
00000200
00000300
00000020
00000030
,
00000002
00000003
00000200
00000300
,
00000010
00000010
00010000
00000000
,
00011000
00000000
00002300
00003000
,
00100000
00100000
01000000
01000000
,
20000000
30000000
00010000
00010000
,
00100000
00001000
00010000
00000000
,
00022000
00000000
00033000
00000000
;
