#TITLE:Inner Journey;
#SUBTITLE:;
#ARTIST:Lunaticboi;
#TITLETRANSLIT:;
#SUBTITLETRANSLIT:;
#ARTISTTRANSLIT:;
#GENRE:;
#CREDIT:;
#BANNER:;
#BACKGROUND:;
#LYRICSPATH:;
#CDTITLE:;
#MUSIC:Inner Journey.mp3;
#OFFSET:1.332000;
#SAMPLESTART:53.349998;
#SAMPLELENGTH:15.000000;
#LASTBEATHINT:0.996000;
#SELECTABLE:YES;
#BPMS:0.000000=180.000000
;
#STOPS:165.500000=-3.666667,
180.500000=-3.666667,
195.500000=-3.666667,
210.500000=-4.000000
;
#BGCHANGES:;
#KEYSOUNDS:;
#ATTACKS:;

//---------------dance-single - Lunaticboi----------------
#NOTES:
     dance-single:
     Lunaticboi:
     Hard:
     13:
     0.739495,1.001864,0.324162,0.445723,0.106366,511.000000,479.000000,32.000000,44.000000,0.000000,0.000000,0.739495,1.001864,0.324162,0.445723,0.106366,511.000000,479.000000,32.000000,44.000000,0.000000,0.000000:
// measure 0
0000
0000
0000
0000
,  // measure 1
0000
0000
0000
0000
,  // measure 2
0000
0001
1000
0100
1000
0001
0020
0000
,  // measure 3
0130
0000
1001
0000
0020
0000
1030
0001
,  // measure 4
0000
0000
0010
1000
0001
1000
0040
0000
,  // measure 5
0130
0000
1001
0000
0010
0000
1001
0100
,  // measure 6
0000
0100
0010
1000
0001
1000
0020
0000
,  // measure 7
0130
0000
1001
0000
0010
0000
1001
0100
,  // measure 8
0000
0100
0010
0001
0010
1000
0001
0000
,  // measure 9
1000
0101
1000
0101
,  // measure 10
0100
0000
0010
0100
0010
0000
1000
0000
0001
0000
1000
0000
1001
0000
0000
0000
,  // measure 11
0001
1100
0001
1100
,  // measure 12
0001
0000
0010
0100
0010
0000
0100
0000
1000
0000
0001
0000
0040
0000
0000
0000
,  // measure 13
0130
0000
1001
0000
0010
0100
1001
0010
,  // measure 14
0100
0000
0100
0010
0100
0000
1000
0000
0001
0000
0100
0000
0110
0000
0000
0000
,  // measure 15
1000
0000
0011
0000
1000
0000
0100
1000
,  // measure 16
0000
0001
0100
0010
0100
0010
0100
0000
,  // measure 17
0001
0100
1000
0100
0100
0001
0100
0010
,  // measure 18
0010
0000
0100
0000
0001
0000
1000
0000
0100
0000
0010
0001
0010
0000
0100
0000
,  // measure 19
1000
0000
0001
1000
0001
0000
0010
0000
0001
0000
1000
0001
1000
0000
0010
0000
,  // measure 20
1000
0000
0001
0000
1000
0000
0100
0000
1000
0000
0001
1000
0001
0000
0010
0000
,  // measure 21
0100
1000
0100
0001
0001
0100
1000
0001
,  // measure 22
0001
0000
0100
0000
1000
0000
0100
0000
0010
0000
0010
0100
0010
0000
0100
0000
,  // measure 23
0001
0000
1000
0100
1000
0000
0001
0000
1000
0000
0001
0100
0001
0000
1000
0000
,  // measure 24
0001
0000
0010
0001
0010
0000
0100
0000
1000
0001
1000
0001
1000
0000
0001
0000
,  // measure 25
0220
0000
0000
0330
,  // measure 26
1000
0001
0100
0020
0000
0130
0010
0100
,  // measure 27
0001
1000
0100
0020
0000
0130
1000
0001
,  // measure 28
0100
0010
1000
0002
0000
1003
0002
0000
,  // measure 29
1003
0100
0010
0002
0000
0103
0010
1000
,  // measure 30
0100
0010
0001
2000
0000
3001
1000
0001
,  // measure 31
1000
0010
0100
0002
0000
1003
0100
0020
,  // measure 32
0000
0130
1000
0020
0000
0100
0130
0000
,  // measure 33
0001
1000
0001
0020
0000
0130
1000
0001
,  // measure 34
1000
0001
1000
0020
0000
0130
0001
1000
,  // measure 35
0001
1000
0001
0020
0000
0130
1000
0100
,  // measure 36
0010
0001
0001
0020
0000
0100
0130
0000
,  // measure 37
0100
1000
0001
0020
0000
0031
1000
0001
,  // measure 38
0100
0010
1000
0020
0000
0130
0001
1000
,  // measure 39
0100
0010
0001
0020
0000
0130
1000
0020
,  // measure 40
0000
0130
0001
2000
0000
3001
1001
0000
,  // measure 41
1000
0000
0000
0000
0000
0000
0000
0000
0100
0000
0000
0000
0000
0000
0000
0000
0001
0000
0000
0000
0000
0000
0000
0000
0M00
0200
0000
0000
0000
0000
0000
0000
0000
0000
0000
0000
0000
0000
0000
0000
M300
0000
0000
0000
0000
0000
0000
0000
000M
0000
0000
0000
0000
0000
0000
0000
0M00
0000
0000
0000
0000
0000
0000
0000
,  // measure 42
M000
0000
0000
0000
0000
0000
0000
0000
0M00
0000
0000
0000
0000
0000
0000
0000
000M
0000
0000
0000
0000
0000
0000
0000
00M0
0020
0000
0000
0000
0000
0000
0000
0000
0000
0000
0000
0000
0000
0000
0000
0M30
0000
0000
0000
0000
0000
0000
0000
M000
0000
0000
0000
0000
0000
0000
0000
000M
0000
0000
0000
0000
0000
0000
0000
,  // measure 43
0M00
M000
000M
0000
0000
0000
0000
0000
,  // measure 44
0000
0200
0000
1300
0001
0100
1000
0100
,  // measure 45
0001
0000
0000
0000
0000
0000
0000
0000
0000
0000
0000
0000
0000
0000
0000
0000
0000
0000
0000
0000
0000
0000
0000
0000
00M0
0020
0000
0000
0000
0000
0000
0000
0000
0000
0000
0000
0000
0000
0000
0000
0000
0000
0000
0000
0000
0000
0000
0000
0000
0000
0000
0000
0000
0000
0000
0000
0000
0000
0000
0000
0000
0000
0000
0000
0000
0000
0000
0000
0000
0000
0000
0000
0M30
0000
0000
0000
0000
0000
0000
0000
0000
0000
0000
0000
0000
0000
0000
0000
0000
0000
0000
0000
0000
0000
0000
0000
M000
0000
0000
0000
0000
0000
0000
0000
0000
0000
0000
0000
0000
0000
0000
0000
0000
0000
0000
0000
0000
0000
0000
0000
000M
0000
0000
0000
0000
0000
0000
0000
0000
0000
0000
0000
0000
0000
0000
0000
0000
0000
0000
0000
0000
0000
0000
0000
M000
0000
0000
0000
0000
0000
0000
0000
0000
0000
0000
0000
0000
0000
0000
0000
0000
0000
0000
0000
0000
0000
0000
0000
000M
0000
0000
0000
0000
0000
0000
0000
0000
0000
0000
0000
0000
0000
0000
0000
0000
0000
0000
0000
0000
0000
0000
0000
,  // measure 46
0M00
0000
0000
0000
0000
0000
0000
0000
0000
0000
0000
0000
0000
0000
0000
0000
0000
0000
0000
0000
0000
0000
0000
0000
00M0
0020
0000
0000
0000
0000
0000
0000
0000
0000
0000
0000
0000
0000
0000
0000
0000
0000
0000
0000
0000
0000
0000
0000
0000
0000
0000
0000
0000
0000
0000
0000
0000
0000
0000
0000
0000
0000
0000
0000
0000
0000
0030
0000
0000
0000
0000
0000
0M00
0000
0000
0000
0000
0000
0000
0000
0000
0000
0000
0000
0000
0000
0000
0000
0000
0000
0000
0000
0000
0000
0000
0000
M000
0000
0000
0000
0000
0000
0000
0000
0000
0000
0000
0000
0000
0000
0000
0000
0000
0000
0000
0000
0000
0000
0000
0000
000M
0000
0000
0000
0000
0000
0000
0000
0000
0000
0000
0000
0000
0000
0000
0000
0000
0000
0000
0000
0000
0000
0000
0000
M000
0000
0000
0000
0000
0000
0000
0000
0000
0000
0000
0000
0000
0000
0000
0000
0000
0000
0000
0000
0000
0000
0000
0000
000M
0000
0000
0000
0000
0000
0000
0000
0000
0000
0000
0000
0000
0000
0000
0000
0000
0000
0000
0000
0000
0000
0000
0000
,  // measure 47
0M00
00M0
0000
0000
0000
0000
0000
0020
,  // measure 48
0000
0000
0000
0000
0000
0000
0000
0000
0000
0000
0000
0000
0000
0000
0000
0000
0000
0000
0000
0000
0000
0000
0000
0000
0130
0000
0000
0000
0000
0000
0000
0000
0000
0000
0000
0000
0000
0000
0000
0000
0000
0000
0000
0000
0000
0000
0000
0000
1000
0000
0000
0000
0000
0000
0000
0000
0000
0000
0000
0000
0000
0000
0000
0000
0000
0000
0000
0000
0000
0000
0000
0000
0001
0000
0000
0000
0000
0000
0000
0000
0000
0000
0000
0000
0000
0000
0000
0000
0000
0000
0000
0000
0000
0000
0000
0000
1000
0000
0000
0000
0000
0000
0000
0000
0000
0000
0000
0000
0000
0000
0000
0000
0000
0000
0000
0000
0000
0000
0000
0000
0001
0000
0000
0000
0000
0000
0000
0000
0000
0000
0000
0000
0000
0000
0000
0000
0000
0000
0000
0000
0000
0000
0000
0000
0100
0000
0000
0000
0000
0000
0000
0000
0000
0000
0000
0000
0000
0000
0000
0000
0000
0000
0000
0000
0000
0000
0000
0000
00M0
0020
0000
0000
0000
0000
0000
0000
0000
0000
0000
0000
0000
0000
0000
0000
0000
0000
0000
0000
0000
0000
0000
0000
,  // measure 49
0000
0000
0000
0000
0000
0000
0000
0000
0000
0000
0000
0000
0000
0000
0000
0000
0000
0000
0000
0000
0000
0000
0000
0000
0M30
0000
0000
0000
0000
0000
0000
0000
0000
0000
0000
0000
0000
0000
0000
0000
0000
0000
0000
0000
0000
0000
0000
0000
000M
0000
0000
0000
0000
0000
0000
0000
0000
0000
0000
0000
0000
0000
0000
0000
0000
0000
0000
0000
0000
0000
0000
0000
M000
0000
0000
0000
0000
0000
0000
0000
0000
0000
0000
0000
0000
0000
0000
0000
0000
0000
0000
0000
0000
0000
0000
0000
000M
0000
0000
0000
0000
0000
0000
0000
0000
0000
0000
0000
0000
0000
0000
0000
0000
0000
0000
0000
0000
0000
0000
0000
M000
0000
0000
0000
0000
0000
0000
0000
0000
0000
0000
0000
0000
0000
0000
0000
0000
0000
0000
0000
0000
0000
0000
0000
0M00
0000
0000
0000
0000
0000
0000
0000
0000
0000
0000
0000
0000
0000
0000
0000
0000
0000
0000
0000
0000
0000
0000
0000
00M0
0020
0000
0000
0000
0000
0000
0000
0000
0000
0000
0000
0000
0000
0000
0000
0000
0000
0000
0000
0000
0000
0000
0000
,  // measure 50
0000
0M00
0M30
0000
0M00
M000
M000
0000
,  // measure 51
0000
0000
0000
0000
0000
0020
0000
0130
,  // measure 52
0001
0000
0000
0000
0000
0000
0000
0000
0000
0000
0000
0000
0000
0000
0000
0000
0000
0000
0000
0000
0000
0000
0000
0000
1000
0000
0000
0000
0000
0000
0000
0000
0000
0000
0000
0000
0000
0000
0000
0000
0000
0000
0000
0000
0000
0000
0000
0000
0001
0000
0000
0000
0000
0000
0000
0000
0000
0000
0000
0000
0000
0000
0000
0000
0000
0000
0000
0000
0000
0000
0000
0000
1000
0000
0000
0000
0000
0000
0000
0000
0000
0000
0000
0000
0000
0000
0000
0000
0000
0000
0000
0000
0000
0000
0000
0000
0100
0000
0000
0000
0000
0000
0000
0000
0000
0000
0000
0000
0000
0000
0000
0000
0000
0000
0000
0000
0000
0000
0000
0000
00M0
0020
0000
0000
0000
0000
0000
0000
0000
0000
0000
0000
0000
0000
0000
0000
0000
0000
0000
0000
0000
0000
0000
0000
0000
0000
0000
0000
0000
0000
0000
0000
0000
0000
0000
0000
0000
0000
0000
0000
0000
0000
0000
0000
0000
0000
0000
0000
0M00
0000
0000
0000
0000
0000
0000
0000
0000
0000
0000
0000
0000
0000
0000
0000
0000
0000
0000
0000
0000
0000
0000
0000
,  // measure 53
0M30
0000
0000
0000
0000
0000
0000
0000
0000
0000
0000
0000
0000
0000
0000
0000
0000
0000
0000
0000
0000
0000
0000
0000
0000
0000
0000
0000
0000
0000
0000
0000
0000
0000
0000
0000
0000
0000
0000
0000
0000
0000
0000
0000
0000
0000
0000
0000
0M00
0000
0000
0000
0000
0000
0000
0000
0000
0000
0000
0000
0000
0000
0000
0000
0000
0000
0000
0000
0000
0000
0000
0000
M000
0000
0000
0000
0000
0000
0000
0000
0000
0000
0000
0000
0000
0000
0000
0000
0000
0000
0000
0000
0000
0000
0000
0000
M000
0000
0000
0000
0000
0000
0000
0000
0000
0000
0000
0000
0000
0000
0000
0000
0000
0000
0000
0000
0000
0000
0000
0000
00M0
0020
0000
0000
0000
0000
0000
0000
0000
0000
0000
0000
0000
0000
0000
0000
0000
0000
0000
0000
0000
0000
0000
0000
0000
0000
0000
0000
0000
0000
0000
0000
0000
0000
0000
0000
0000
0000
0000
0000
0000
0000
0000
0000
0000
0000
0000
0000
0M30
0000
0000
0000
0000
0000
0000
0000
0000
0000
0000
0000
0000
0000
0000
0000
0000
0000
0000
0000
0000
0000
0000
0000
,  // measure 54
0M00
000M
M000
000M
0000
0000
0000
0000
,  // measure 55
0000
0000
0000
0000
0000
0020
0000
0100
,  // measure 56
0130
0000
0100
1000
1000
0020
0000
0130
,  // measure 57
0100
0001
1000
0001
0001
0020
0000
0130
,  // measure 58
1000
1000
0001
0100
0100
0020
0000
0130
,  // measure 59
0001
0020
0000
0130
1000
0002
0000
1000
,  // measure 60
1003
0000
1000
0001
0100
0120
0000
0130
,  // measure 61
0001
1000
0001
0100
0010
0210
0000
0310
,  // measure 62
1000
0001
1000
0100
0010
0012
0000
0103
,  // measure 63
0010
1000
0010
0100
0001
2000
0000
3100
,  // measure 64
0110
0000
0001
0010
1000
0020
0000
0031
,  // measure 65
0100
1000
0100
0001
1000
0020
0000
1030
,  // measure 66
0100
0001
0100
1000
0001
0020
0000
0031
,  // measure 67
1000
0020
0000
0031
0010
2000
0000
0001
,  // measure 68
3001
0000
1000
0010
0100
0010
1000
0010
,  // measure 69
0001
0010
1000
0001
0010
0001
1000
0010
,  // measure 70
0100
0001
1000
0000
0101
0000
1000
0010
,  // measure 71
0100
1010
0110
0101
,  // measure 72
1001
0000
0001
0100
1000
0100
0001
0100
,  // measure 73
1000
0100
0001
0010
1000
0010
0001
0010
,  // measure 74
1000
0010
0001
0000
1100
0000
0010
1000
,  // measure 75
0100
0011
0110
1100
,  // measure 76
1001
0000
1000
0100
1000
0001
1000
0100
,  // measure 77
0010
0001
0001
0100
0001
1000
0001
0010
,  // measure 78
0100
1000
1000
0010
1000
0001
1000
0010
,  // measure 79
0100
0001
1000
0010
0100
0010
0100
0010
,  // measure 80
0200
0000
0301
1000
0100
1000
0001
0100
,  // measure 81
0001
1000
0010
0001
0010
1000
0010
0001
,  // measure 82
0010
0100
0001
1000
0100
0010
0001
0100
,  // measure 83
1000
0001
0010
1000
0010
0001
0010
0000
,  // measure 84
0110
2002
0000
0000
,  // measure 85
0000
0000
0000
0000
,  // measure 86
3003
0000
0000
0000
;

//---------------dance-single - ----------------
#NOTES:
     dance-single:
     :
     Medium:
     11:
     0.662796,0.784067,0.516634,0.162081,0.020260,458.000000,407.000000,51.000000,16.000000,0.000000,0.000000,0.662796,0.784067,0.516634,0.162081,0.020260,458.000000,407.000000,51.000000,16.000000,0.000000,0.000000:
0000
0000
0000
0000
,
0000
0000
0000
0000
,
0000
0000
0100
0001
1000
0001
0100
0000
,
0110
1001
0110
1001
,
0000
0000
0000
0010
0001
0001
0010
0000
,
0110
1001
0110
1001
,
0000
0000
0010
1000
0001
1000
0010
0000
,
0110
1001
0110
1001
,
0000
1000
0010
1000
0010
0010
0000
0000
,
1000
0101
1000
0101
,
1000
0001
0001
1000
0010
0000
1001
0000
,
0001
1100
0001
1100
,
0001
1000
1000
0001
0010
0000
1001
0000
,
1000
0011
1000
0011
,
1000
0001
0001
1000
0010
0010
0100
0000
,
0001
1010
0001
1010
,
0000
0100
0010
0100
0010
0100
0000
0000
,
0001
1000
0010
0010
0010
1000
0010
0010
,
0100
0010
0010
0100
0010
1000
0001
0001
,
0010
0001
0001
0001
0010
0001
0001
0001
,
1000
0010
1000
0001
1000
0100
1000
0000
,
0001
1000
0100
0100
0100
1000
0001
0001
,
0001
1000
0010
0010
1000
0010
0010
0000
,
0100
0001
0001
0000
1000
0010
0010
0000
,
0100
0010
0100
0010
0100
0100
0100
0000
,
0220
0000
0000
0330
,
0001
1000
0001
0020
0000
0130
1000
0000
,
0001
0000
0100
0020
0000
1030
0001
0000
,
1000
0001
1000
0010
0000
0010
0100
0000
,
0001
1000
0001
0020
0000
0031
1000
0000
,
1000
0001
1000
0020
0000
1030
0001
0000
,
1000
0001
1000
0020
0000
1030
0100
0020
,
0000
0130
1000
0100
0000
0010
0001
0000
,
1000
0001
1000
0001
0000
0001
0100
0000
,
0001
1000
0001
1000
0000
1000
0010
0000
,
1000
0001
1000
0020
0000
0130
0010
0000
,
1000
0100
0010
0002
0000
0100
0103
0000
,
0001
0100
0010
1000
0000
1000
0010
0000
,
1000
0100
0010
0001
0000
0001
1000
0000
,
0001
1000
0001
0010
0000
0001
1000
0010
,
0000
0000
0000
1010
0000
0000
0110
0000
,
0001
0010
0100
1000
0000
M000
0M00
00M0
,
000M
M000
000M
0M00
0000
0M00
00M0
0000
,
0000
0000
0000
0000
,
0000
1000
0000
1000
0100
0010
0001
1000
,
0001
0M00
0000
0M00
00M0
0000
M000
000M
,
M000
00M0
0000
00M0
0M00
000M
M000
0000
,
0000
0000
0000
0000
0000
0000
0000
0100
,
0000
0100
0010
0000
1000
0001
1000
00M0
,
0000
0000
0000
0000
0000
0000
0000
0000
0000
0000
0000
0000
0000
0000
0000
0000
0000
0000
0000
0000
0000
0000
0000
0000
00M0
0000
0000
0000
0000
0000
0000
0000
0000
0000
0000
0000
0000
0000
0000
0000
0000
0000
0000
0000
0000
0000
0000
0000
0M00
0000
0000
0000
0000
0000
0000
0000
0000
0000
0000
0000
0000
0000
0000
0000
0000
0000
0000
0000
0000
0000
0000
0000
000M
0000
0000
0000
0000
0000
0000
0000
0000
0000
0000
0000
0000
0000
0000
0000
0000
0000
0000
0000
0000
0000
0000
0000
M000
0000
0000
0000
0000
0000
0000
0000
0000
0000
0000
0000
0000
0000
0000
0000
0000
0000
0000
0000
0000
0000
0000
0000
0000
0000
0000
0000
0000
0000
0000
0000
0000
0000
0000
0000
0000
0000
0000
0000
0000
0000
0000
0000
0000
0000
0000
0000
0M00
0000
0000
0000
0000
0000
0000
0000
0000
0000
0000
0000
0000
0000
0000
0000
0000
0000
0000
0000
0000
0000
0000
0000
00M0
0020
0000
0000
0000
0000
0000
0000
0000
0000
0000
0000
0000
0000
0000
0000
0000
0000
0000
0000
0000
0000
0000
0000
,
0000
0000
0000
0000
0000
0000
0000
0000
0000
0000
0000
0000
0000
0000
0000
0000
0000
0000
0000
0000
0000
0000
0000
0000
0M30
0000
0000
0000
0000
0000
0000
0000
0000
0000
0000
0000
0000
0000
0000
0000
0000
0000
0000
0000
0000
0000
0000
0000
00M0
0020
0000
0000
0000
0000
0000
0000
0000
0000
0000
0000
0000
0000
0000
0000
0000
0000
0000
0000
0000
0000
0000
0000
0000
0000
0000
0000
0000
0000
0000
0000
0000
0000
0000
0000
0000
0000
0000
0000
0000
0000
0000
0000
0000
0000
0000
0000
0030
0000
0000
0000
0000
0000
0000
0000
0000
0000
0000
0000
0000
0000
0000
0000
0000
0000
0000
0000
0000
0000
0000
0000
0000
0000
0000
0000
0000
0000
0000
0000
0000
0000
0000
0000
0000
0000
0000
0000
0000
0000
0000
0000
0000
0000
0000
0000
0000
0000
0000
0000
0000
0000
0000
0000
0000
0000
0000
0000
0000
0000
0000
0000
0000
0000
0000
0000
0000
0000
0000
0000
0000
0000
0000
0000
0000
0000
0000
0000
0000
0000
0000
0000
0000
0000
0000
0000
0000
0000
0000
0000
0000
0000
0000
0000
,
0000
0000
0000
0000
0000
0010
0000
0010
,
0100
0000
0000
0000
0000
0000
0000
0000
0000
0000
0000
0000
0000
0000
0000
0000
0000
0000
0000
0000
0000
0000
0000
0000
0001
0000
0000
0000
0000
0000
0000
0000
0000
0000
0000
0000
0000
0000
0000
0000
0000
0000
0000
0000
0000
0000
0000
0000
1000
0000
0000
0000
0000
0000
0000
0000
0000
0000
0000
0000
0000
0000
0000
0000
0000
0000
0000
0000
0000
0000
0000
0000
0000
0000
0000
0000
0000
0000
0000
0000
0000
0000
0000
0000
0000
0000
0000
0000
0000
0000
0000
0000
0000
0000
0000
0000
0100
0000
0000
0000
0000
0000
0000
0000
0000
0000
0000
0000
0000
0000
0000
0000
0000
0000
0000
0000
0000
0000
0000
0000
00M0
0020
0000
0000
0000
0000
0000
0000
0000
0000
0000
0000
0000
0000
0000
0000
0000
0000
0000
0000
0000
0000
0000
0000
0000
0000
0000
0000
0000
0000
0000
0000
0000
0000
0000
0000
0000
0000
0000
0000
0000
0000
0000
0000
0000
0000
0000
0000
0M30
0000
0000
0000
0000
0000
0000
0000
0000
0000
0000
0000
0000
0000
0000
0000
0000
0000
0000
0000
0000
0000
0000
0000
,
00M0
0020
0000
0000
0000
0000
0000
0000
0000
0000
0000
0000
0000
0000
0000
0000
0000
0000
0000
0000
0000
0000
0000
0000
0000
0000
0000
0000
0000
0000
0000
0000
0000
0000
0000
0000
0000
0000
0000
0000
0000
0000
0000
0000
0000
0000
0000
0000
0M30
0000
0000
0000
0000
0000
0000
0000
0000
0000
0000
0000
0000
0000
0000
0000
0000
0000
0000
0000
0000
0000
0000
0000
M000
0000
0000
0000
0000
0000
0000
0000
0000
0000
0000
0000
0000
0000
0000
0000
0000
0000
0000
0000
0000
0000
0000
0000
000M
0000
0000
0000
0000
0000
0000
0000
0000
0000
0000
0000
0000
0000
0000
0000
0000
0000
0000
0000
0000
0000
0000
0000
000M
0000
0000
0000
0000
0000
0000
0000
0000
0000
0000
0000
0000
0000
0000
0000
0000
0000
0000
0000
0000
0000
0000
0000
0000
0000
0000
0000
0000
0000
0000
0000
0000
0000
0000
0000
0000
0000
0000
0000
0000
0000
0000
0000
0000
0000
0000
0000
M000
0000
0000
0000
0000
0000
0000
0000
0000
0000
0000
0000
0000
0000
0000
0000
0000
0000
0000
0000
0000
0000
0000
0000
,
000M
0000
00M0
000M
000M
00M0
0000
000M
,
000M
0000
0000
0000
0000
0020
0000
0130
,
0020
0000
0130
1000
0001
0001
0000
1000
,
0001
0000
0010
0001
0001
0010
0000
0001
,
0001
0000
1000
0100
0100
1000
0000
0100
,
0100
0020
0000
0130
1000
0001
0000
0001
,
1000
0000
0001
0000
0100
0110
0000
0010
,
1010
0000
1001
0000
1000
1100
0000
0100
,
0110
0000
1001
0000
0001
0011
0000
0010
,
0110
0000
1000
0001
1000
0001
0000
0001
,
1001
0000
0001
0100
0010
1000
0000
1000
,
0010
0000
1000
0100
0010
0001
0000
0001
,
0010
0000
0100
1000
0001
0100
0000
0100
,
0001
0020
0000
0130
1000
0001
0000
0001
,
1000
0000
0001
0100
0001
1000
0001
0100
,
0001
0000
1000
0010
1000
0001
1000
0010
,
1000
0100
1001
0100
,
1001
1100
0101
1100
,
1001
0000
1000
0100
1000
0001
1000
0100
,
1000
0000
0001
0010
0001
1000
0001
0010
,
0001
0010
1001
0010
,
1001
0011
1010
0011
,
1010
0000
0010
1000
0100
0001
0100
1000
,
0010
0000
0100
0001
0010
1000
0010
0001
,
0100
0000
0010
1000
0001
1000
0010
0100
,
0001
1000
1001
0001
,
1001
0000
0010
0001
0100
1000
0100
0001
,
0010
0000
0100
1000
0010
0001
0010
1000
,
0100
0000
0010
0001
1000
0001
0010
0100
,
1000
0001
1000
0000
0110
0000
0001
0000
,
0110
2002
0000
0000
,
0000
0000
0000
0000
,
3003
0000
0000
0000
;

//---------------dance-single - ----------------
#NOTES:
     dance-single:
     :
     Easy:
     8:
     0.528211,0.696949,0.709105,0.141821,0.000000,365.000000,295.000000,70.000000,14.000000,0.000000,0.000000,0.528211,0.696949,0.709105,0.141821,0.000000,365.000000,295.000000,70.000000,14.000000,0.000000,0.000000:
0000
0000
0000
0000
,
0000
0000
0000
0000
,
0000
0010
1000
0101
,
0001
0000
1000
0000
0001
0000
1000
0100
,
0000
0000
0000
0010
0001
0010
0001
0000
,
1000
0001
1000
0010
,
0000
0010
0110
1001
,
1000
0000
0101
0000
1000
0000
0100
0010
,
0000
0010
0100
0000
1001
0000
0000
0000
,
1200
0010
0001
0010
,
1000
0001
1300
1001
,
0021
0100
1000
0100
,
0001
1000
0031
1001
,
1020
0100
0001
0100
,
1000
0001
1030
1001
,
0201
0010
1000
0010
,
0001
1000
0301
1001
,
1000
1000
0001
0001
,
0010
0010
0100
0100
,
1000
0100
1000
0100
,
0010
0001
1001
1001
,
0100
0110
0010
0110
,
0100
0110
1001
1001
,
1000
1001
0001
1001
,
0110
0110
0110
0110
,
0210
0000
0000
0300
,
0001
0000
1000
0020
0000
1030
0010
0000
,
1000
0000
0100
0020
0000
0130
0010
0000
,
0100
0000
1000
0001
0000
1000
0001
0000
,
0100
0000
0010
2000
0000
3010
1000
0000
,
0100
0000
0010
0002
0000
0013
0001
0000
,
1000
0000
0001
0020
0000
0130
1000
0010
,
0000
0000
0100
0010
0000
0010
0100
0000
,
1001
0001
1000
0001
,
1001
1000
0010
0100
,
1001
0010
1001
0100
,
1001
0110
1001
1001
,
0001
1000
0100
0100
,
1000
0001
0100
0100
,
0001
0000
1000
0000
0100
0000
0000
0110
,
0000
0011
0000
1001
,
1000
0000
1000
0010
0000
0010
0100
0000
,
0100
0000
0001
0010
0000
0010
0100
0000
,
0100
0000
0000
0000
,
0000
0010
0000
0010
0100
0000
0100
0000
,
0001
0010
0000
0010
0100
0000
0100
0000
,
1000
0001
0000
0001
1000
0000
1001
0000
,
0110
0000
0000
0000
0000
0000
0000
0010
,
0000
0010
0100
0000
0100
0000
1000
0001
,
0000
0001
1000
0000
1001
0000
0110
0000
,
1001
0000
0000
0000
,
0000
0000
0000
0000
0000
0001
0000
0001
,
1000
1001
0110
1001
,
0000
0000
1001
0000
0010
0100
0000
0100
,
0010
0000
1001
0000
0100
0010
0000
0010
,
0100
0000
0000
1001
,
0000
0000
1001
0000
0010
0100
0000
0100
,
0010
0000
1001
0000
0100
0010
0000
0010
,
0100
0000
1001
0000
1000
0001
0000
0001
,
1000
0020
0000
0130
0000
0100
0000
0100
,
0010
1100
1000
0001
,
0100
0101
0001
1000
,
0100
0000
1100
0000
1000
0010
0000
0100
,
0001
1001
0110
1001
,
0000
0000
0001
0000
0010
0100
0000
0100
,
1000
0000
1000
0000
0001
1000
0000
1000
,
0010
0000
0010
0000
0100
0010
0000
0010
,
0100
0020
0000
1030
0001
1000
0000
0000
,
1001
1000
1001
0001
,
1001
0100
0110
1001
,
0110
1000
0110
0001
,
0110
1001
1001
1001
,
1001
0001
0110
1000
,
0110
0001
1000
0001
,
1000
0100
0010
0001
,
1000
0110
1001
0110
,
1001
1000
0100
0001
,
0100
1000
0010
0001
,
0010
1000
0100
0010
,
0001
1000
0001
1000
,
0000
0001
0100
1000
,
0100
0001
0010
1000
,
0010
0001
1000
0001
,
1000
0100
0010
0001
,
0110
2002
0000
0000
,
0000
0000
0000
0000
,
3003
0000
0000
0000
;
