#VERSION:0.83;
#TITLE:Impress(siqlo's Hi-Tech Veats);
#SUBTITLE:;
#ARTIST:siqlo;
#TITLETRANSLIT:;
#SUBTITLETRANSLIT:;
#ARTISTTRANSLIT:;
#GENRE:Hi-Tech;
#CREDIT:Team Ferrari(chrononikal.);
#MUSIC:Impress(siqlo's Hi-Tech Veats).ogg;
#BANNER:Impress(siqlo's Hi-Tech Veats).png;
#BACKGROUND:Impress(siqlo's Hi-Tech Veats)-bg.png;
#CDTITLE:cdtitle.png;
#SAMPLESTART:80.254;
#SAMPLELENGTH:24.000;
#SELECTABLE:YES;
#OFFSET:0.746;
#BPMS:0.000=160.000;
#STOPS:;
#BGCHANGES:;
#FGCHANGES:;

//--------------- dance-single - chrononical ----------------
#NOTEDATA:;
#STEPSTYPE:dance-single;
#DESCRIPTION:chrononical;
#DIFFICULTY:Beginner;
#METER:3;
#RADARVALUES:0,0,0,0,0;
#NOTES:
0000
0000
0000
0000
,
0000
0000
0000
0000
,
0000
0000
0001
0000
,
1000
0000
1000
0100
,
0010
0000
1001
0000
,
1000
0000
0010
0010
,
0010
0000
1000
0000
,
0001
0000
0010
0010
,
0010
0000
0001
0000
,
1000
0000
0100
0100
,
0100
0000
1000
0000
,
0001
0000
0100
0100
,
0100
0000
0001
0000
,
1000
0000
0100
0000
,
0001
0000
0100
0000
,
1000
0000
0010
0000
,
0001
0000
0010
0000
,
2000
3000
0001
0000
,
0010
0000
0100
0000
,
1000
0000
0001
0000
,
1000
0001
0001
0000
,
0010
0100
1000
0000
,
0020
0030
0020
0030
,
0020
0030
0020
0030
,
0200
0300
0002
0003
,
0200
0300
0020
1030
,
0200
0300
0020
0030
,
0200
0300
0020
0030
,
0002
0003
2000
3000
,
0020
0030
1000
1000
,
1000
0000
0100
0000
,
0010
0010
0020
0000
,
1030
0000
1000
0000
,
0100
0000
0100
0000
,
1000
0000
0100
0000
,
0001
0000
0010
0000
,
1000
0000
0100
0000
,
0100
0000
1000
0000
,
0002
0000
0000
0000
,
0203
0000
0000
0000
,
0320
0000
0000
0000
,
2030
0000
0000
0000
,
3002
0000
0000
0000
,
0023
0000
0000
0000
,
0230
0000
0000
0000
,
2300
0000
0000
0000
,
3001
0000
0100
0000
,
0010
0000
0010
0000
,
1000
0000
0100
0000
,
0010
0000
0010
0000
,
0001
0001
0001
0000
,
1000
1000
1000
0000
,
0100
0000
0100
1000
,
0002
0000
1003
1000
,
0001
0000
0010
0000
,
0100
0000
0100
0000
,
1000
0000
0010
0000
,
0100
0000
0100
0000
,
0001
0000
1000
0000
,
0100
0000
0100
0000
,
1000
0000
0001
0000
,
0100
0000
0100
0000
,
1001
0000
1000
0000
,
1001
0000
0001
0000
,
1001
0000
1000
0000
,
1001
0000
0001
0000
,
1000
0000
0100
0000
,
0010
0000
0001
0000
,
1000
0000
0010
0000
,
0100
0000
0001
0000
,
1001
0000
1000
0000
,
0010
0010
0010
0000
,
1000
0000
0001
0000
,
0010
0010
0010
0000
,
0001
0000
1000
0000
,
0100
0100
0100
0000
,
1000
0000
0001
0000
,
0010
0100
1000
0000
,
1001
0000
0000
0000
;

//--------------- dance-single - chrononical ----------------
#NOTEDATA:;
#STEPSTYPE:dance-single;
#DESCRIPTION:chrononical;
#DIFFICULTY:Easy;
#METER:8;
#RADARVALUES:0,0,0,0,0;
#NOTES:
0000
0000
0000
0000
,
0000
0000
0000
0000
,
0000
0000
0001
1000
,
0001
1000
1000
0100
,
0010
0001
2001
3100
,
0010
0100
1000
0001
,
0100
0100
1002
0103
,
0010
0100
0001
1000
,
0100
0100
2001
3010
,
0100
0010
1000
0001
,
0010
0010
1002
0013
,
0100
0010
0001
0001
,
1000
0001
2000
0000
3001
0000
0100
0010
,
2000
3100
2000
3010
,
2000
0000
3100
0000
1000
0001
0100
0000
,
0002
0103
0002
0013
,
0002
0000
0103
0000
0001
0010
0100
1000
,
0200
1300
1000
0001
,
0001
0100
0100
0120
,
1030
0100
0010
0100
,
1000
0001
1000
0001
1000
0000
0001
0000
,
0010
0100
1000
0001
,
0200
1300
0200
0310
,
0200
0000
1300
0000
0200
0000
0301
1000
,
0200
0301
0200
0310
,
0200
0000
0301
0000
0200
0000
1300
0001
,
0020
1030
0020
0130
,
0020
0000
1030
0000
0020
0000
0031
1000
,
0020
0031
0020
1030
,
0020
0000
0130
0000
0010
1000
0001
1000
,
0001
1000
0001
0100
,
0001
0000
1000
0000
1000
0010
0100
0010
,
1000
0001
1000
0100
,
1000
0001
0100
0010
,
1000
0100
1001
0000
,
0001
0100
1001
0000
,
1000
1001
0001
1001
,
1000
0100
0010
0001
,
2000
0000
0000
0000
,
3020
0000
0000
0000
,
0230
0000
0000
0000
,
0302
0000
0000
0000
,
2003
0000
0000
0000
,
3200
0000
0000
0000
,
0320
0000
0000
0000
,
0032
0000
0000
0000
,
1003
0010
0100
0100
,
0001
0010
0100
0100
,
1000
0010
0100
0100
,
0010
1000
0001
0200
,
0301
1000
0001
0000
0010
0100
0010
0000
,
0001
1000
0001
0000
0100
0010
0100
0000
,
0001
0000
1000
0000
0100
0010
0100
0010
,
0001
0000
1000
0000
0010
0100
0020
0000
,
1030
0100
0010
0100
,
1000
0010
0100
0010
,
1000
0100
0010
0001
,
1000
0010
0010
0100
,
0001
0010
0100
0010
,
0001
0100
0010
0100
,
0001
0010
0100
1000
,
0001
0100
1000
0100
,
0002
1003
0100
1000
,
1002
1003
0010
1000
,
1002
1003
0100
1000
,
1002
0103
0010
0100
,
0002
0000
0013
0100
0010
0000
0001
0000
,
2000
0000
3010
0100
0010
0000
1000
0000
,
2001
3001
0010
0001
,
2000
0010
3002
0010
,
1003
0010
0100
0010
,
1000
0001
0010
0010
,
1002
0103
0010
0100
,
0001
1000
0100
0100
,
2001
3100
0010
0100
,
1000
0001
0100
0100
,
1002
0103
0100
0001
,
0010
0000
0100
0000
1000
0001
0100
0000
,
0110
0000
0000
0000
;

//--------------- dance-single - tikal. ----------------
#NOTEDATA:;
#STEPSTYPE:dance-single;
#DESCRIPTION:tikal.;
#DIFFICULTY:Medium;
#METER:12;
#RADARVALUES:0,0,0,0,0;
#NOTES:
0000
0000
0000
0000
,
0000
0000
0000
0000
,
0000
0000
1000
1000
,
0001
0001
0100
0010
1000
0000
0100
0000
,
0010
0000
0000
0000
0001
1000
0000
0000
2001
0000
0000
0000
3100
0000
0000
0000
,
0010
0100
1000
1000
0010
0001
0010
0000
,
0100
0010
0000
0100
0010
0000
0000
0000
1001
0000
0001
0000
0010
0000
0000
0000
,
0100
0100
1000
0000
0001
0100
2000
0000
,
3100
0001
0020
0030
1002
0000
0103
0000
,
0010
0100
0001
0001
0010
1000
0010
0000
,
0100
0010
0000
0100
0010
0000
0000
0000
1001
0000
1000
0000
0010
0000
0000
0000
,
0100
0000
0100
0000
0001
0000
0000
0000
1000
0000
0000
1000
0001
0000
1000
0000
,
0100
0000
0100
0000
0110
0000
0000
0000
0001
1000
0000
0001
1000
0000
0000
0000
,
0001
0100
1000
0000
0001
0010
1000
0000
,
0001
0100
1000
0100
0001
0000
1001
0000
,
1000
0200
0001
0000
1300
0020
0001
0000
,
1030
0100
0001
0100
1000
1000
0001
0001
,
0200
0000
0310
1000
0100
0000
0010
0001
,
0100
0000
0010
1000
0100
0010
1001
0000
,
0001
0001
1000
1000
0100
0100
0010
0010
,
0001
0100
0010
1000
0002
0000
0000
0000
,
0013
0000
0100
0000
1000
0001
1001
0000
,
2000
0000
3010
0100
2000
0000
3100
0010
,
2000
0000
3100
0010
2000
0000
3010
0100
,
0002
0000
0103
1000
0020
0000
0130
0010
,
0002
0000
0013
1000
0001
0010
0100
1000
,
0002
0000
0013
0100
0002
0000
0103
0010
,
0002
0000
0103
0010
0002
0000
0013
0100
,
2000
0000
3100
0001
0020
0000
0130
0010
,
2000
0000
3010
0001
1000
1000
0001
0001
,
0100
0000
0000
0010
1000
0000
0001
0000
0100
0000
0000
0010
0001
0000
1000
0000
,
0100
0000
0000
0010
1000
0000
0001
0000
0010
0000
0010
0000
0100
0000
1000
0000
,
0100
0000
0000
0010
0001
0000
1000
0000
0100
0000
0000
0010
1000
0000
0001
0000
,
0100
0000
0000
0110
0000
0000
0000
0000
1001
0000
0000
0000
1001
0000
0000
0000
,
0001
0000
0000
0100
0000
0000
0010
0000
1000
0000
0000
0001
0010
0000
0100
0000
,
1000
0000
0000
0100
0000
0000
0010
0000
0001
0000
0000
1000
0010
0000
0100
0000
,
0001
0000
0000
0010
0000
0000
1000
0000
0001
0000
0000
0100
0000
0000
1000
0000
,
0010
0000
0000
0001
0000
0000
1000
0000
0100
0000
0010
0000
1000
0000
0001
0000
,
0020
0000
0000
0000
,
0230
0000
0000
0000
,
2300
0000
0000
0000
,
3002
0000
0000
0000
,
0203
0000
0010
0000
,
0302
0000
1000
0000
,
0023
0000
2030
0000
,
3200
0000
0302
0000
,
0013
0000
0000
0000
0001
0000
0000
0000
1000
0000
0001
0000
0000
0001
0000
0000
,
0100
0000
0000
0000
0100
0000
0000
0000
0010
0100
0000
0000
0100
0000
0000
0000
,
0001
0000
1000
0000
0001
1000
0100
0010
,
0001
0001
1000
1000
0010
0010
0200
0000
,
0301
0010
0011
1001
,
1000
0000
0000
0000
0010
0000
0010
0000
0000
0010
0100
0000
0001
0000
0000
1000
,
0001
0010
0100
1000
0001
0100
0010
1000
,
0100
0100
0010
0010
0001
1000
1001
0000
,
0201
0000
1000
0000
0301
0010
0100
0010
,
0002
0000
0103
0010
0002
0000
0013
0100
,
2000
0000
3100
0010
0200
0000
0310
1000
,
0002
0000
0013
0100
0010
0010
0001
1000
,
1200
0000
0001
0000
1300
0010
0100
0010
,
2000
0000
3100
0010
2000
0000
3010
0100
,
0002
0000
0103
0010
0200
0000
0310
0001
,
2000
0000
3010
0100
0010
1000
0001
0010
,
0100
0000
0011
0000
1000
0100
0100
0010
,
0001
0000
1100
0000
0001
0100
0010
0010
,
1000
0000
0101
0000
1000
0001
0010
0010
,
0100
0000
0000
0000
1010
0000
0000
0000
1000
0000
0000
0001
0000
0000
1000
0000
,
0100
0000
0010
0010
0001
1000
1000
0001
,
0200
0000
0310
1000
0001
1000
0100
0100
,
0110
0000
0001
0100
0110
0000
1000
1000
,
0001
1000
1000
0001
0100
0000
0010
0000
,
2001
0000
3010
0000
0100
0010
1000
1000
,
0100
0000
0001
0000
0100
0000
0000
0000
0010
0100
0000
0010
0100
0000
1000
0000
,
1001
0001
0100
0000
0010
0010
1000
0000
,
0001
0010
2000
0000
3010
0001
0100
0100
,
1002
0000
0013
0000
0100
0010
0001
0001
,
0100
0000
1000
0000
0100
0000
0000
0000
0010
0100
0000
0010
0100
0000
0001
0000
,
1001
1000
0100
0000
0010
0010
0002
0000
,
0013
0000
0000
0010
0100
0000
0100
0000
1000
0000
0001
0000
1001
0000
0000
0000
,
0100
0000
0000
0000
;

//--------------- dance-single - chrononikal. ----------------
#NOTEDATA:;
#STEPSTYPE:dance-single;
#DESCRIPTION:chrononikal.;
#DIFFICULTY:Hard;
#METER:15;
#RADARVALUES:0,0,0,0,0;
#OFFSET:0.746;
#BPMS:0.000=160.000;
#WARPS:312.500=3.500;
#LABELS:10.000=Chrononical A,
52.000=tikal. A,
88.000=Chrononical B,
120.000=tikal. B,
152.000=Chrononical C,
184.000=tikal. C,
200.000=Chrononical D,
216.000=tikal. D,
248.000=Chrononical E,
280.000=tikal. E
;
#NOTES:
0000
0000
0000
0000
,
0000
0000
0000
0000
,
0000
0000
0000
0000
1000
0100
0010
0100
,
1000
0000
0010
0000
0100
0000
0010
0000
2000
0000
3100
1000
0200
0000
0310
0100
,
0020
0000
0031
0000
1000
0001
0000
0000
2001
0000
0000
0000
3100
0000
0000
0010
,
0000
0100
0000
1000
0001
0000
0100
0010
0100
0000
1000
0000
0100
0000
0010
0000
,
0100
0010
0000
0100
0001
0000
1000
0000
1001
0000
0001
0000
0010
0000
0000
0100
,
0000
0010
0000
0100
1000
0000
0001
0000
0100
0000
0001
0000
2000
0000
0000
0000
,
3010
0000
1000
0000
0002
0000
0003
0000
1002
0000
0000
0000
0103
0000
0000
0010
,
0000
0100
0000
0001
1000
0000
0100
0010
0100
0000
0001
0000
0100
0000
0010
0000
,
0100
0010
0000
0100
1000
0000
0001
0000
1001
0000
1000
0000
0010
0000
0000
0100
,
0000
0010
0000
0100
0001
0000
1000
0000
0100
1000
0001
0100
0010
0000
0100
0000
,
0001
0000
0001
0000
1002
0000
0000
0000
0103
0010
0000
0100
0001
0000
1000
0000
,
0001
0010
1000
0010
0100
0010
0001
1000
,
0010
0000
0001
0000
0010
0000
0100
0000
0010
0000
1000
0001
1000
0000
0000
0000
,
0001
0100
0010
0100
0001
0000
0001
0000
1000
0100
0010
0100
1000
0000
1000
0000
,
0001
0010
0100
1000
0010
0000
0010
0000
0100
0000
0100
0000
0001
1000
0001
1000
,
0002
0000
0000
0000
0013
0000
0001
0000
0100
0000
0000
0100
0010
0000
1000
0000
,
0100
0000
0000
0100
0010
0000
0001
0000
0100
0000
0010
0000
1001
0000
0000
0000
,
1000
0010
1000
0000
0001
0010
0001
0000
1000
0100
1000
0000
0001
0100
0010
1000
,
0001
0001
1000
1000
2002
0000
3000
0000
,
0013
0000
0100
0000
1000
0001
0101
0000
,
0200
0000
0000
0310
0100
0000
0001
0000
0200
0000
0000
0310
0100
0000
0001
0000
,
0200
0000
0000
0310
0100
0000
0001
0000
0200
0000
0000
0310
0100
0000
0001
0000
,
0020
0000
0000
0130
0010
0000
0001
0000
0200
0000
0000
0310
0100
0000
0001
0000
,
0020
0000
0000
0130
0010
0000
0001
0000
0100
0010
1000
0001
1000
0000
0000
0000
,
0200
0000
0000
0310
0100
0000
1000
0000
0200
0000
0000
0301
0100
0000
1000
0000
,
0200
0000
0000
0310
0100
0000
1000
0000
0200
0000
0000
0301
0100
0000
1000
0000
,
0002
0000
0000
0103
0010
0000
0100
0000
2000
0000
0000
3100
0010
0000
0100
0000
,
0020
0000
0000
0130
0010
0000
1000
0000
0100
0000
0100
0000
0010
0001
1000
0000
,
2001
0000
0000
3010
0100
0000
0010
0000
2000
0000
0000
3100
0010
0000
0100
0000
,
2000
0000
0000
3010
0100
0000
0010
0000
0001
0000
0010
0000
1000
0000
1000
0000
,
1002
0000
0000
0013
0100
0000
0010
0000
2000
0000
0000
3010
0100
0000
0010
0000
,
0001
0000
0100
0010
0100
0010
0100
0000
0001
0000
1000
0000
0100
0010
0000
0000
,
0001
0000
0000
0010
0000
0000
1100
0000
1000
0000
0010
0100
0001
0000
0001
0000
,
1000
0000
0000
0010
0000
0000
0101
0000
0001
0000
0010
0100
1000
0000
1000
0000
,
0001
0000
0000
0100
0000
0000
1010
0000
1000
0000
0000
0100
0000
0000
0011
0000
,
0001
0000
0000
1000
0000
0000
0110
0000
0001
0000
1000
0000
0010
0000
0100
0000
,
0002
0000
0010
0000
,
2003
0000
0010
0000
,
3200
0000
1000
0000
,
0320
0000
0001
0000
,
0032
0000
0100
0000
,
2003
0000
0100
0000
,
3020
0000
0001
0000
,
0230
0000
1000
0000
,
0301
0000
0001
0000
0010
0000
1000
0000
1000
0000
0010
0000
0100
0010
0100
0000
,
1000
0000
0010
0000
0001
0000
0010
0000
0100
0001
0000
1000
0001
0000
0010
0001
,
1000
0000
1000
0000
0100
0000
0001
0000
0001
0000
0100
0000
0010
0100
0010
0001
,
1000
0010
1000
0000
0001
0010
0001
0000
1000
0100
0010
0001
0200
0000
0000
0000
,
0310
1000
0001
0000
0010
0001
1000
0000
0100
1000
0001
0000
0100
0001
1000
0000
,
0001
1000
0100
0000
1000
0000
0010
0000
0000
0100
0010
0000
0100
0000
0001
0000
,
1000
0000
0100
0000
0010
0000
0100
0000
1000
0000
0001
0000
0100
0010
1000
0001
,
1000
0010
0100
0000
0010
0100
0001
0000
0010
0000
0100
0000
0210
0000
0000
0000
,
2300
0000
0000
3100
0010
0000
0001
0000
1000
0010
0100
0000
0001
0000
0100
0000
,
2000
0000
0000
3100
0010
0000
0100
0000
0002
0000
0000
0013
0100
0000
1000
0000
,
0020
0000
0000
0130
0001
0000
1000
0001
1000
0100
0000
0100
1000
0000
0001
0000
,
0020
0000
0000
0130
1000
0000
0001
1000
0001
0100
0010
1000
0200
0000
0320
0000
,
0032
0000
0000
0103
0010
0000
1000
0000
0001
0010
0100
0000
1000
0000
0100
0000
,
0002
0000
0000
0103
0010
0000
0100
0000
2000
0000
0000
3010
0100
0000
0001
0000
,
0020
0000
0000
0130
1000
0000
0001
1000
0001
0100
0000
0100
0001
0000
1000
0000
,
0010
0000
0000
0010
0100
0000
0010
1000
0100
0010
0001
0000
1000
0010
0100
0001
,
2000
0000
3100
0100
0001
0100
1000
0001
,
2001
0000
0000
0000
3100
0000
0010
0001
1000
0000
0010
0000
0100
0000
0001
0000
,
2001
0000
0000
3010
0100
0000
0100
0000
1000
0000
0100
0000
0001
0000
1000
0000
,
2001
0000
0000
3010
0100
0000
0100
0000
0001
0000
0010
0000
0100
1000
0001
1000
,
0002
0000
0000
0000
1003
0100
1000
0100
1000
0000
0010
0000
0001
0000
0010
0000
,
2000
0000
0000
0000
3100
0010
0000
0001
1000
0000
0010
0000
0100
0001
1000
0001
,
2000
0000
0000
3100
0010
0000
0010
0000
1000
0000
0010
0000
0001
1000
0001
1000
,
0001
0000
0100
0000
1000
0000
0100
0000
0001
0000
0010
0100
0010
0000
0000
0000
,
1002
0000
0000
0000
0013
0000
0000
0001
0000
0100
0000
010M
1000
0000
0001
0000
,
0010
0000
1000
0000
0001
0000
0100
0000
0010
0001
0000
1000
0001
0000
0001
0000
,
2001
0000
3010
0000
0100
0000
1000
0000
0100
0001
0000
0001
1000
0000
0001
0000
,
1000
0000
0100
0000
0020
0000
0000
0000
0031
0100
0001
0100
0020
0000
1030
0000
,
2001
0000
0000
0000
3100
0000
0000
1000
0000
0010
0000
M010
0001
0000
1000
0000
,
0100
0000
0001
0000
1000
0000
0010
0000
0100
1000
0000
0001
1000
0000
1000
0000
,
1002
0000
0103
0000
0010
0000
0001
0000
0010
1000
0000
1000
0002
0003
1000
0000
,
0020
1030
0001
0010
0200
0300
0100
0000
2000
3000
1001
0000
0110
0000
0000
0000
,
0200
0000
0000
0000
,
0300
0000
0000
0000
;

//--------------- dance-single - chrononikal. ----------------
#NOTEDATA:;
#STEPSTYPE:dance-single;
#DESCRIPTION:chrononikal.;
#DIFFICULTY:Challenge;
#METER:17;
#RADARVALUES:0,0,0,0,0;
#OFFSET:0.746;
#BPMS:0.000=160.000;
#WARPS:312.500=3.500;
#LABELS:10.000=Chrononical A,
52.000=tikal. A,
88.000=Chrononical B,
120.000=tikal. B,
152.000=Chrononical C,
184.000=tikal. C,
200.000=Chrononical D,
216.000=tikal. D,
248.000=Chrononical E,
280.000=tikal. E
;
#NOTES:
0000
0000
0000
0000
,
0000
0000
0000
0000
,
0000
0000
0000
0000
0001
0010
0100
0010
,
0001
0000
1000
0010
0100
0010
1000
0001
2000
0000
3001
1000
0200
0000
1300
0001
,
0020
0000
0031
0000
1000
0001
1000
0000
1002
0000
0000
0000
0203
0000
0000
0001
,
0000
0010
0000
0310
4000
0000
3001
0010
0100
0000
0001
0000
0100
0000
0010
0001
,
1000
0010
0000
0010
0100
0000
0110
0000
2001
0000
0010
0000
3200
0000
0000
0010
,
0000
0010
0000
0310
0001
0000
0100
0000
0010
1000
0001
0100
0010
0000
1000
0001
,
1000
0100
0000
0100
0020
0000
0030
0000
1002
0000
0000
0000
0023
0000
0000
0001
,
0000
0100
0000
0130
4000
0000
3001
0100
0010
0000
0001
0000
0010
0000
0100
0001
,
1000
0100
0000
0100
0010
0000
0110
0000
2001
0000
0100
0000
3020
0000
0000
0100
,
0000
0100
0000
0130
0001
0000
0010
0000
0100
1000
0001
0100
0001
0000
0100
0000
,
0010
0000
0010
0000
2001
0000
0000
0000
3010
0100
0000
0100
0001
0000
1000
0001
,
1000
0010
0100
0000
1000
0100
0010
0100
0001
0010
0000
0010
0001
0100
0010
0000
,
1000
0400
0310
0000
0100
1000
0001
0100
0010
0000
0100
0001
0010
0000
0100
0000
,
1000
0400
0310
0100
0001
0000
0100
1000
0001
0010
0000
1000
0010
0000
0001
1000
,
0001
0400
0310
0100
1000
0100
0010
1000
0002
0000
2003
0000
3010
0100
0010
0100
,
0002
0000
0000
0003
0011
0000
0010
0000
0100
0000
1000
0010
0100
0010
1000
0000
,
0001
0000
1000
0100
0010
0100
1000
0000
0010
0000
0100
0000
0120
0000
0000
0000
,
0130
0001
0100
0001
1000
0100
1000
0100
1000
0001
0100
0010
1000
0001
0010
0100
,
1000
1000
0001
0001
2002
0000
3003
0000
,
1000
0010
1000
0100
0010
0001
0100
0001
1000
0100
0010
0001
1000
0010
0100
0001
,
0200
0000
0301
0100
0000
010M
1000
0000
0200
0000
1300
0100
0000
M100
0001
0000
,
0200
0000
0301
0100
0000
010M
1000
0000
0200
0000
1300
0100
0000
M100
0001
0000
,
0020
0000
0031
0010
0000
001M
1000
0000
0200
0000
1300
0100
0000
M100
0001
0000
,
0020
0000
0031
0010
0000
001M
1000
0000
0100
0010
0100
1000
0001
0000
0100
0000
,
0020
0000
1030
0010
0000
M010
0001
0000
0020
0000
0031
0100
0000
010M
1000
0000
,
0020
0000
1030
0010
0000
M010
0001
0000
0200
0000
0301
0100
0000
010M
1000
0000
,
0002
0000
1003
0100
0000
M100
0001
0000
2000
0000
3001
0010
0000
001M
1000
0000
,
0200
0000
1300
0100
0000
M100
0001
0000
0100
0000
0010
0000
0100
0001
1000
0001
,
2000
0000
3010
0100
0010
1000
0010
0000
0200
0000
0310
0001
0010
0100
0001
0000
,
0020
0000
0130
1000
0100
0010
0001
0000
1000
0010
0100
0001
1000
0100
0010
0100
,
0002
0000
0103
0010
0100
1000
0100
0000
0020
0000
0130
1000
0010
0100
1000
0000
,
0100
0000
0000
1001
0000
0000
0010
0000
0110
0000
0000
0000
1001
0000
0000
0000
,
0002
0000
0013
0001
0010
0100
1000
0000
0020
0000
0130
1000
0100
0000
0010
0000
,
2000
0000
3010
1000
0010
0100
0001
0000
0020
0000
0130
0001
0100
0000
0010
0000
,
0011
0000
1000
0001
0000
0000
0101
0000
1010
0000
0001
1000
0000
0000
1100
0000
,
0110
0000
0001
1000
0010
0100
0001
1000
0100
0000
0010
0000
0001
0000
1000
0000
,
0002
0000
0000
0100
0000
0000
0000
0000
0100
0000
0000
0000
0000
0000
0000
0000
,
2003
0000
0000
0100
0000
0000
0000
0000
0100
0000
0000
0000
0000
0000
0000
0000
,
3020
0000
0000
1000
0000
0000
0000
0000
1000
0000
0000
0000
0000
0000
0000
0000
,
0230
0000
0000
0001
0000
0000
0000
0000
0001
0000
0000
0000
0000
0000
0000
0000
,
0302
0000
0000
0010
0000
0000
0000
0000
0010
0000
0000
0000
0000
0000
0000
0000
,
2003
0000
0000
0010
0000
0000
0000
0000
0010
0000
0000
0000
0000
0000
0000
0000
,
3200
0000
0000
1000
0000
0000
0000
0000
0010
0000
0000
0000
0000
0000
0000
0000
,
0320
0000
0000
0001
0000
0000
0000
0000
0130
0000
0000
1000
0000
0000
0001
0000
,
1000
0000
1000
0010
0100
0000
0010
0001
0010
0000
0100
0000
0001
0100
0040
4030
,
3100
0000
1000
0010
0100
0000
0001
0010
0001
0100
0010
1000
0100
0010
0001
1000
,
0001
0000
0001
0010
0100
0000
0010
1000
0010
0000
0100
0000
4000
3400
0340
0034
,
0103
0001
1000
0001
1000
0100
1000
0001
1000
0010
0100
0001
0020
0000
0000
0000
,
0031
0010
0100
0010
0100
1000
0001
1000
0001
0010
0100
1000
0001
0010
0100
1000
,
0001
0100
0010
0100
0010
1000
0001
1000
0001
0100
0010
1000
0001
0100
0010
1000
,
0001
0010
0100
0010
0001
0010
0100
1000
0001
0100
0010
0100
0001
0100
0010
1000
,
0001
0100
0010
0100
0010
1000
0001
1000
0100
0000
0010
0000
0210
0000
0000
0000
,
1300
0000
0100
0010
0100
0000
0001
0000
1000
0010
0100
0000
1000
0000
0001
0000
,
1000
0000
0010
0100
0010
0000
0001
0000
1000
0000
0100
0010
0100
0000
0001
0000
,
0010
0000
0100
0001
0100
0000
1000
0001
1000
0010
0000
0100
0001
0000
1000
0000
,
0010
0000
0100
1000
0100
0000
0001
1000
0001
0010
0100
1000
0020
0000
0230
0000
,
0301
0000
0010
0100
0010
0000
1000
0000
0001
0100
0010
0000
0001
0000
1000
0000
,
0001
0000
0100
0010
0100
0000
1000
0000
0001
0000
0010
0100
0010
0000
1000
0000
,
0100
0000
0010
1000
0010
0000
0001
1000
0001
0100
0000
0010
1000
0000
0001
0000
,
0100
0000
0010
0001
0010
0000
0100
0001
1000
0000
1000
0001
0010
0100
1000
0001
,
2000
0000
0000
3001
0100
0000
1000
0000
0100
0001
0000
0001
0100
0000
0010
0000
,
2001
0000
0000
3001
0010
0000
1000
0010
0100
1000
0000
1000
0010
0000
0100
0000
,
2001
0000
0000
3010
0100
0000
1000
0000
0100
0001
0000
0001
0100
0000
0010
0000
,
2001
0000
0000
3100
0010
0000
1000
0000
0010
0000
0100
0000
0010
0001
1000
0000
,
1002
0000
0000
0000
0103
0010
0100
0010
2000
0000
0100
0000
0100
0000
0010
0000
,
3002
0000
0000
0000
0013
0100
0000
0100
1000
0100
0000
0100
0010
0001
1000
0001
,
2000
0000
0000
3010
0100
0000
1000
0000
0100
0010
0000
0010
1000
0001
0010
0100
,
0020
0000
1000
0000
0230
0000
0001
0000
1300
0000
0001
0100
0010
0000
1000
0000
,
0012
0000
0000
0000
1003
0000
0000
0001
0100
0010
0001
0010
4000
0000
3001
0100
,
0020
0000
0031
0000
1000
0000
0100
0010
1000
0001
0000
0001
0020
0000
0230
0300
,
2100
0000
3001
0100
0010
0000
0001
0010
0100
0001
0000
0001
1000
0000
0100
0000
,
0010
0001
0010
0001
0200
0000
0300
0010
1000
0100
0010
0001
0100
0000
0100
0000
,
2010
0000
0000
0000
3001
0000
0000
1000
0100
0010
1000
0010
0004
0000
1003
0100
,
0020
0000
1030
0000
0001
0000
0100
0010
0001
1000
0000
1000
0020
0000
0230
0300
,
0102
0000
1003
0100
0010
0000
1000
0010
0100
1000
0000
1000
0002
0003
0100
0000
,
0020
1030
0001
0010
0200
0300
0100
0000
2000
3000
1001
0000
0110
0000
0000
0000
,
0200
0000
0000
0000
,
0300
0000
0000
0000
;
