#TITLE:Ievan Polkka (CupcakKe Remix);
#SUBTITLE:;
#ARTIST:Ranvision;
#TITLETRANSLIT:;
#SUBTITLETRANSLIT:;
#ARTISTTRANSLIT:;
#GENRE:;
#CREDIT:;
#MUSIC:Ievan Polkka (CupcakKe Remix).ogg;
#BANNER:Ievan Polkka (CupcakKe Remix).png;
#BACKGROUND:Ievan Polkka (CupcakKe Remix)-bg.png;
#CDTITLE:;
#SAMPLESTART:15.979;
#SAMPLELENGTH:15.000;
#SELECTABLE:YES;
#OFFSET:2.015;
#BPMS:0.000=119.000;
#STOPS:;
#BGCHANGES:;
#FGCHANGES:;

//--------------- dance-single - chrononical ----------------
#NOTES:
     dance-single:
     chrononical:
     Medium:
     11:
     0,0,0,0,0:
0000
0000
0000
0000
,
0000
0000
0000
0000
,
0000
0000
0000
0000
,
0000
0000
0000
0000
,
0000
0000
0000
0000
,
0001
0010
0100
0000
1000
0000
0001
1000
,
0001
0000
0100
0000
0010
0000
0000
0000
1000
0000
0000
0000
0001
0000
0010
0100
,
1000
0100
0010
0000
0001
0000
1000
0001
,
1000
0010
0100
0000
0010
0000
0000
0000
,
0100
0110
0120
0000
0031
0010
1000
0100
,
0010
0002
0023
2030
3002
0203
2300
3001
,
0100
0000
0110
0000
0120
0000
0000
1030
0010
0000
0100
0001
0000
1000
0100
0000
,
1000
0000
0100
0000
0001
0000
0200
0000
1300
0000
0200
0000
0310
0000
0001
1000
,
0020
0000
0031
0000
0020
0000
0130
0000
0020
0000
1030
0001
0000
1000
0100
0000
,
0001
0000
0100
0000
1000
0000
0100
0000
0010
0000
0001
1000
0000
0000
0000
0001
,
0200
0000
1300
0000
0200
0000
0310
0000
0200
0000
0301
1000
0000
0001
0010
0000
,
1000
0000
0010
0000
0001
0000
0010
0000
0100
0000
1000
0001
0000
0000
0000
0000
,
1000
0010
0100
0010
1000
0000
0002
0010
,
0013
0100
0010
0001
1000
0000
0002
0100
,
0103
1000
0100
0010
1000
0100
0001
0100
,
1000
0001
0010
0001
0101
0000
1100
0000
,
1000
0100
0002
0000
0000
0103
1000
0001
,
0100
0010
0002
0000
0000
0013
1000
0001
,
0010
0010
2000
0000
0000
3010
0001
0100
,
0010
0000
0100
0000
2000
0000
0000
0000
3200
0000
0000
0300
1002
0000
0000
0000
,
1003
0000
0000
0000
1000
0000
0100
0000
0000
0000
0100
0000
0001
0000
0000
0000
0001
0000
0100
0000
0000
0100
0000
0000
,
1000
0010
0001
0010
1000
0001
1000
0200
,
1300
0100
0001
0100
1000
0001
1000
0010
,
1000
0010
0001
0010
1000
0001
1000
0100
,
0010
0001
1001
1000
0010
0002
0023
0230
,
0310
1000
1001
0001
0010
2000
3020
0031
,
0100
0001
1001
0001
0100
2000
3200
0301
,
0100
0001
1001
0001
0010
2000
3020
0030
,
0100
0010
0020
0000
1030
0010
0001
0100
,
0010
2000
3020
0032
2003
3200
0302
1003
,
0100
0000
0010
0000
0020
0000
0000
0031
0010
0000
0100
1000
0000
0001
0100
0000
,
0001
0000
0100
0000
1000
0000
0200
0000
0301
0000
0200
0000
0310
0000
1000
0001
,
0020
0000
1030
0000
0020
0000
0130
0000
0020
0000
0031
1000
0000
0001
0100
0000
,
0020
0000
0031
0000
0020
0000
0130
0000
0020
0000
1030
0001
0000
1000
0100
0000
,
0020
1030
0020
0130
0020
1030
0020
0130
,
0020
1030
0020
1030
0010
0010
0010
0001
,
0100
0110
0210
0000
1300
0100
0001
0010
,
0100
2000
3200
0302
2003
3020
0032
1003
,
0010
0000
0110
0000
0210
0000
0000
0301
0100
0000
0010
1000
0000
0001
0010
0000
,
0001
0000
0010
0000
1000
0000
0020
0000
0031
0000
0020
0000
0130
0000
1000
0001
,
0200
0000
1300
0000
0200
0000
0310
0000
0200
0000
0301
1000
0000
0001
0010
0000
,
1000
0000
0010
0000
0001
0000
0010
0000
0100
0000
1000
0001
0000
0000
0000
0100
,
0020
0000
0031
0000
0020
0000
0130
0000
0020
0000
1030
0001
0000
1000
0100
0000
,
0001
0000
0100
0000
1000
0000
0100
0000
0010
0000
0001
1000
0000
0000
0000
0000
;

//--------------- dance-single - chrononical ----------------
#NOTES:
     dance-single:
     chrononical:
     Hard:
     15:
     0,0,0,0,0:
0000
0000
0000
0000
,
0000
0000
0000
0000
,
0000
0000
0000
0000
,
0000
0000
0000
0000
,
0000
0000
0000
0000
,
1000
0000
0001
0010
0100
0000
1000
0100
0000
0000
1000
0010
0100
0000
0001
0100
,
0001
0000
1000
0100
0010
0000
0001
0010
0000
0000
0001
0100
0010
0000
0010
1000
,
0001
0000
0100
0001
1000
0000
0100
1000
0000
0000
0010
1000
0001
0000
0010
0001
,
1000
0000
0000
0000
0000
0000
0000
0000
0100
0000
0000
0000
1000
0000
0000
0000
0001
0000
0000
0000
0000
0000
0000
0000
0100
0000
0000
0000
0000
0000
0000
0000
0010
0000
0000
0000
0000
0000
0000
0000
0000
0000
0000
0000
0000
0000
0000
0000
0000
0000
0000
0000
0000
0000
0000
0000
0000
0000
0000
0010
0000
0000
0000
0000
,
0100
0000
0110
0000
0120
0000
0000
0031
0010
0100
0001
0010
0100
0000
1000
0001
,
0100
0000
0102
0000
1003
0000
0012
0000
1003
0000
0102
0000
1003
0000
0010
1000
,
0100
0000
0110
0000
0210
0000
0000
0301
0100
0000
1000
0100
0000
0100
1000
0001
,
1000
0010
0100
0010
1000
0001
1000
0000
1002
0000
0103
0000
2001
0000
3100
1000
,
2100
0000
3001
0000
2100
0000
3010
0000
2100
0000
3001
1000
0000
0100
0001
0100
,
1000
0100
0001
0100
1000
0100
0001
0100
0010
0000
0001
1000
0001
0000
1000
0001
,
0102
0000
1003
0000
0102
0000
0013
0000
0102
0000
1003
0001
0000
0100
1000
0100
,
0001
0100
1000
0100
0001
0100
1000
0100
0010
0000
1000
0001
0000
0000
0000
0010
,
0001
0000
0010
0000
0100
1000
0001
0100
0010
0100
0000
0000
0020
0000
0001
0000
,
1030
0000
0000
0100
0000
0000
0010
0000
0000
0100
0000
0000
1000
0000
0000
0010
0000
0000
0100
0000
0000
0001
0000
0000
1000
0000
0000
0100
0000
0000
0000
0000
0000
1000
0000
0000
0200
0000
0000
0000
0001
0000
0000
0000
0000
1300
0000
0000
,
0001
0100
2000
0000
3200
0000
1300
0100
0010
0000
1000
0100
0002
0000
0103
0010
,
0100
1000
0001
0100
0010
1000
0200
0000
0310
0100
0000
0100
1000
0100
0010
0001
,
1000
0010
0100
0000
2000
0000
0100
0000
3100
1000
0100
0010
1000
0001
0010
0100
,
1000
0100
0010
0100
0002
0000
0100
0000
0103
0000
0001
0100
1000
0001
0100
0010
,
1000
0000
1000
0010
0002
0000
0010
0000
0013
0100
0001
0000
0010
0100
1000
0010
,
0100
0001
0010
0000
2000
0000
0010
0000
3020
0000
0000
0030
2001
0000
0000
0000
,
3001
0000
0100
0000
1000
0000
0001
0000
0010
0000
1000
0000
0001
0000
0010
0000
1000
0000
0002
0000
0000
0203
0000
0000
,
1300
0010
0100
0010
0002
0000
0013
1000
0001
0010
0001
2000
0000
3002
0203
0000
,
0301
0010
0100
0010
1000
0010
0100
0010
0001
0100
0010
2000
0000
3002
0000
0000
,
1003
0000
0010
0100
1000
0000
1000
0100
0010
1000
0100
2000
0000
3002
0023
0000
,
0031
0000
2100
0000
3001
0000
0100
0010
0000
0001
0011
0000
2010
0000
3200
0000
,
1300
0000
0100
0010
0001
0000
0001
0010
0000
1000
1010
0000
0011
0000
0001
0000
,
1000
0000
0010
0100
0001
0000
0001
0100
0000
1000
1100
0000
0101
0000
0001
0000
,
1000
0000
0000
0000
0000
0000
0000
0000
0100
0000
0000
0000
0010
0000
0000
0000
0001
0000
0000
0000
0000
0000
0000
0000
0010
0000
0000
0000
0100
0000
0000
0000
0000
0000
0000
0000
0001
0000
0000
0000
0101
0000
0000
0000
0000
0000
0000
0000
2100
0000
0000
0000
0000
0000
0000
0000
0000
0000
0000
3010
0000
0000
0000
0000
,
0100
0000
0110
0000
0210
0000
0000
0301
0100
0010
1000
0001
0010
0000
0001
1000
,
0010
0000
0210
0000
0301
0000
0210
0000
1300
0000
0210
0000
0301
0000
1000
0001
,
0010
0000
0110
0000
0120
0000
0000
0031
0010
0000
0100
0010
0000
0010
0001
1000
,
0001
0100
0010
0100
0001
1000
0001
0000
2001
0000
3010
0000
1002
0000
0013
0001
,
0012
0000
1003
0000
0012
0000
0103
0000
0012
0000
1003
0001
0000
0100
1000
0100
,
0102
0000
1003
0000
0102
0000
0013
0000
0102
0000
1003
0001
0000
0010
1000
0010
,
0012
1003
0012
0103
0012
1003
0012
0103
,
0012
0000
1003
0000
0012
0000
1003
0000
0011
0000
0011
0000
0001
0100
0010
1000
,
0100
0000
0110
0000
0210
0000
0000
0301
0100
0010
0001
0100
0010
0000
1000
0001
,
0010
0000
0012
0000
1003
0000
0102
0000
1003
0000
0012
0000
1003
0000
0100
1000
,
0010
0000
0110
0000
0210
0000
0000
1300
0100
0000
0001
0100
0000
0100
0001
1000
,
0001
0010
0100
0010
0001
1000
0001
0000
2001
0000
3100
0000
1002
0000
0103
0001
,
0102
0000
1003
0000
0102
0000
0013
0000
0102
0000
1003
0001
0000
0010
1000
0010
,
0001
0010
1000
0010
0001
0010
1000
0010
0100
0000
1000
0001
1000
0000
0001
1000
,
2100
0000
3001
0000
2100
0000
3010
0000
2100
0000
3001
1000
0000
0010
0001
0010
,
1000
0010
0001
0010
1000
0010
0001
0010
0100
0000
0001
1000
0000
0000
0000
0000
;
