#VERSION:0.83;
#TITLE:I'm Still Standing;
#SUBTITLE:;
#ARTIST:Elton John;
#TITLETRANSLIT:;
#SUBTITLETRANSLIT:;
#ARTISTTRANSLIT:;
#GENRE:;
#ORIGIN:;
#TAGS:;
#CREDIT:;
#BANNER:I'm Still Standing-bn.png;
#BACKGROUND:I'm Still Standing-bg.png;
#PREVIEWVID:;
#JACKET:I'm Still Standing-jacket.png;
#CDIMAGE:;
#DISCIMAGE:;
#LYRICSPATH:;
#CDTITLE:;
#MUSIC:I'm Still Standing.ogg;
#OFFSET:1.250000;
#SAMPLESTART:37.473000;
#SAMPLELENGTH:20.000000;
#SELECTABLE:YES;
#DISPLAYBPM:173.000000:190.000000;
#BPMS:0.000000=177.000000,
8.000000=173.000000,
20.000000=175.000000,
32.000000=178.000000,
52.000000=175.000000,
81.000000=178.000000,
84.000000=180.000000,
88.000000=182.000000,
98.000000=179.000000,
108.000000=175.000000,
132.000000=190.000000,
133.000000=181.000000,
134.000000=177.000000,
140.000000=178.000000,
156.000000=174.000000,
164.000000=182.000000,
168.000000=179.000000,
180.000000=173.000000,
188.000000=175.000000,
192.000000=180.000000,
212.000000=174.000000,
228.000000=181.000000,
244.000000=175.000000,
252.000000=174.000000,
257.000000=177.000000,
276.000000=183.000000,
282.000000=180.000000,
290.000000=178.000000,
328.000000=177.000000;
#STOPS:;
#DELAYS:;
#WARPS:;
#TIMESIGNATURES:0.000000=4=4;
#TICKCOUNTS:0.000000=4;
#COMBOS:0.000000=1;
#SPEEDS:0.000000=1.000000=0.000000=0;
#SCROLLS:0.000000=1.000000;
#FAKES:;
#LABELS:0.000000=Song Start;
#BGCHANGES:;
#KEYSOUNDS:;
#ATTACKS:
;

//---------------dance-single - ----------------
#NOTEDATA:;
#CHARTNAME:;
#CHARTHASH:215857360:
#STEPSTYPE:dance-single;
#BANNER:;
#DESCRIPTION:;
#CHARTSTYLE:;
#DIFFICULTY:Hard;
#METER:12;
#METERF:0.000000;
#RADARVALUES:0.605401,0.618355,0.590178,0.672148,0.885268,517.000000,445.000000,72.000000,82.000000,0.000000,0.000000,0.000000,0.000000,0.000000,0.605401,0.618355,0.590178,0.672148,0.885268,517.000000,445.000000,72.000000,82.000000,0.000000,0.000000,0.000000,0.000000,0.000000;
#CREDIT:;
#DISPLAYBPM:173.000000:190.000000;
#NOTES:
0000
0000
0000
0000
,
0000
0000
0000
0000
,
0000
0000
0000
0000
,
0000
0000
0000
0000
,
0000
0000
0000
0000
0000
0101
0000
0000
1100
0000
0000
0002
,
1000
0000
0000
0010
0000
0000
0100
0000
0000
0013
0000
0020
,
0001
0000
0000
1000
0000
0000
0100
0000
0000
0031
0000
2000
,
0001
0010
0100
0001
,
3010
0000
0100
0010
0000
1010
0000
0000
0011
0000
0000
1000
,
0001
0000
0000
0010
0000
0010
0100
0000
0100
1000
0000
0000
,
1001
0000
0100
0000
0000
0110
0000
0000
0010
1000
0000
0001
,
1000
0000
1000
0001
0000
0001
0010
0000
0010
0100
0000
0100
,
1000
0000
0010
0100
0000
0001
0000
0000
1000
0001
0000
0100
,
0001
0000
0001
1000
0000
1000
0100
0000
0100
0010
0000
0010
,
0000
0000
0011
0000
0000
1100
0000
0000
0001
0100
0000
0020
,
0000
0000
1030
0010
0000
0010
0100
0000
0001
0000
0000
1001
,
0000
0000
0010
0100
0000
0002
0000
0000
2003
0000
0000
3010
,
0100
0000
0010
1000
0000
0000
0101
0000
0000
0010
0000
0000
,
1000
0000
0000
0001
0000
0100
0010
0000
0100
0010
0000
1000
,
0100
0000
1000
0001
0000
1000
0001
0000
0001
0010
0000
0010
,
0100
0000
1000
0000
0000
1010
0000
0000
0001
1000
0000
0010
,
1000
0000
1000
0100
0000
0000
0110
0000
0010
0001
0000
0010
,
0001
0000
1000
0000
0000
1010
0000
0000
0001
1000
0000
0100
,
2000
0000
0000
3010
0000
0100
0000
0000
0001
1000
0000
1200
,
0000
0000
0001
0000
0000
1300
0000
0000
0010
0100
0000
0100
,
0001
0000
0001
0100
0000
0100
0010
0000
1000
0001
0000
0200
,
0000
0000
0310
0000
0000
0101
0000
0000
0011
0000
0000
2001
,
0000
0000
3001
1000
0000
0000
0110
0000
0000
0001
0000
0000
,
0100
0000
0000
0100
0000
0000
0001
0000
1000
0001
0000
0000
,
2010
0000
0000
3001
0000
0000
0102
0000
0000
1003
0000
0020
,
0000
0000
0230
0000
0000
0302
0000
0000
1003
0100
0000
1000
,
0020
0000
0000
0130
0000
0001
0000
0000
0000
1100
0000
0000
,
0101
0000
0000
0010
0000
0000
1000
0000
1000
0001
0000
0001
,
0200
0000
0000
0310
0000
1000
0000
0000
0001
0000
0000
0011
,
0000
0000
0100
0001
0000
0000
0010
0000
0001
1000
0000
1000
,
0020
0000
0000
1030
0000
0100
0000
0000
0010
0000
0000
0110
,
0000
0000
0001
1000
0000
0000
0010
0000
0100
0010
0000
2000
,
0001
0000
0000
3100
0000
0000
0012
0000
0000
1003
0000
0002
,
0000
0000
0203
0000
0000
0320
0000
0000
1030
0001
0000
0200
,
0000
0000
0320
0000
0000
2030
0001
0000
0000
3100
0000
0000
,
1001
0000
0000
0110
0000
0000
0001
0000
0001
0010
0000
0010
,
0200
0000
0000
1300
0000
0020
0000
0000
0130
0000
0000
0102
,
0000
0000
2003
0000
0000
3020
0000
0000
1030
0001
0000
0200
,
0000
0000
0301
0000
0000
0101
0000
0000
1000
0001
0000
0000
,
0010
0000
0100
0010
0000
0011
0000
0000
0110
0000
0000
2100
,
0000
0000
0000
3002
0000
0000
0103
0000
0100
0010
0000
0000
,
2001
0000
0000
3010
0000
0000
1002
0000
0000
0103
0000
2010
,
0000
0001
0100
3100
,
1000
0000
0001
0100
0000
0101
0000
0000
1010
0000
0000
2100
,
0000
0000
0000
3002
0000
0000
1003
0000
0010
0100
0000
0000
,
0102
0000
0000
0013
0000
0000
2100
0000
0000
3010
0000
0210
,
0000
0301
1001
0100
,
0010
0000
1000
0001
0000
1001
0000
0000
0110
0000
0000
0100
,
0010
0000
0000
1000
0000
1000
0001
0000
0001
0100
0000
0100
,
0010
0000
1000
0001
0000
0010
0000
0000
0000
0100
0000
1000
,
0001
0000
0001
1000
0000
1000
0010
0000
0010
0100
0000
0100
,
0010
0000
1000
0000
0000
0101
0000
0000
0000
0001
0000
0100
,
0001
0000
0000
1000
0000
0001
0000
0000
0100
0010
0000
0010
,
1000
0000
0002
0000
0000
0203
0000
0000
0310
1000
0000
0010
,
2000
0000
0000
3001
0000
0010
0000
0000
0100
0000
0000
2100
,
0000
0000
3010
0100
0000
0000
1001
0000
1000
0001
0000
0200
,
0010
0000
0000
0302
0000
0000
1003
0000
0001
0100
0000
0000
,
1010
0000
0000
1001
0000
0000
0011
0000
0001
0100
0000
0000
,
0120
0000
0000
1030
0000
0000
1200
0000
0000
0301
0000
0200
,
0000
0000
0320
0000
0000
0031
1000
0000
1000
0010
0000
0010
,
0200
0000
0000
0301
0000
1000
0000
0000
0010
0100
0000
0000
,
0101
0000
0000
1100
0000
0000
0010
0000
0100
0010
0000
0100
,
0020
0000
0000
1030
0000
0002
0000
0000
0103
0000
0000
0012
,
0000
0000
1003
0001
0000
0000
1000
0000
0010
0100
0000
0010
,
2000
0000
0000
3001
0000
0200
0000
0000
0310
0000
0000
1010
,
0000
0000
0001
1000
0000
0000
0010
0000
0010
0100
0000
0002
,
1000
0000
0000
0013
0000
0000
1200
0000
0000
0310
0000
0200
,
0000
0000
1300
0000
0000
1002
0000
0000
0103
0010
0000
2000
,
0000
0000
3002
0000
0000
2003
0000
0000
3010
0200
0000
0000
,
0001
0000
0000
0301
0000
0000
1000
0000
1000
0010
0000
0010
,
2000
0000
0000
3100
0000
0020
0000
0000
0032
0000
0000
2003
,
0000
0000
3010
0000
0000
1001
0000
0000
0110
0000
0000
0002
,
0000
0000
2003
0000
0000
3020
0000
0000
1030
0100
0000
0000
,
1000
0000
0001
0100
0000
0101
0000
0000
1001
0000
0000
2100
,
0000
0000
0000
3001
0000
0000
1000
0000
0100
0010
0000
0000
,
0012
0000
0000
1003
0000
0000
1020
0000
0000
0130
0000
0110
,
0000
0000
0000
0010
0000
0000
1000
0000
1000
0100
0000
0000
,
1000
0000
0001
1000
0000
1100
0000
0000
0110
0000
0000
0012
,
0000
0000
0000
2003
0000
0000
3010
0000
0100
0010
0000
0000
,
1002
0000
0000
0013
0000
0000
2100
0000
0000
3001
0000
1010
,
0000
0001
1000
0100
,
1000
0000
0010
0100
0000
0001
1000
0000
0010
0100
0000
0002
,
2000
0000
0000
0000
,
0000
0000
0000
3003
;

//---------------dance-single - ----------------
#NOTEDATA:;
#CHARTNAME:;
#CHARTHASH:0:
#STEPSTYPE:dance-single;
#BANNER:;
#DESCRIPTION:;
#CHARTSTYLE:;
#DIFFICULTY:Medium;
#METER:10;
#METERF:0.000000;
#RADARVALUES:0.508209,0.545608,0.606572,0.721329,0.639360,434.000000,360.000000,74.000000,88.000000,0.000000,0.000000,0.000000,0.000000,0.000000,0.508209,0.545608,0.606572,0.721329,0.639360,434.000000,360.000000,74.000000,88.000000,0.000000,0.000000,0.000000,0.000000,0.000000;
#CREDIT:;
#DISPLAYBPM:173.000000:190.000000;
#NOTES:
0000
0000
0000
0000
,
0000
0000
0000
0000
,
0000
0000
0000
0000
,
0000
0000
0000
0000
,
0000
0000
0000
0000
0000
1001
0000
0000
1001
0000
0000
2000
,
0001
0000
0000
0100
0000
0000
3010
0000
0000
0000
0000
0020
,
0001
0000
0000
1000
0000
0000
0130
0000
0000
0000
0000
0002
,
1000
0010
0100
0010
,
1003
0000
0000
0000
0000
0110
0000
0000
0110
0000
0000
0001
,
1000
0000
0000
0010
0000
0010
0100
0000
0100
0001
0000
0000
,
1000
0000
0001
0000
0000
0011
0000
0000
0000
0000
0000
0100
,
0010
0000
0000
1010
0000
0000
1000
0000
1000
0001
0000
0001
,
0010
0000
0100
0000
0000
0110
0000
0000
0000
0001
0000
1000
,
0001
0000
0100
0010
0000
0100
0010
0000
0000
0000
0000
0201
,
0000
0000
0302
0000
0000
0203
0000
0000
0310
1000
0000
0001
,
1000
0000
0000
1100
0000
0000
0010
0000
0100
0000
0000
0101
,
0000
0000
0000
1000
0000
0020
0000
0000
0230
0000
0000
0302
,
0000
1003
2001
0010
,
0100
0000
0000
0100
0000
0000
3100
0000
1000
0001
0000
0000
,
1100
0000
0000
0001
0000
0001
1000
0000
1000
0010
0000
0000
,
0100
0000
0001
0000
0000
1001
0000
0000
0000
0000
0000
1000
,
0010
0000
1000
0010
0000
0000
1010
0000
0000
0101
0000
0000
,
0001
0000
1000
0000
0000
0110
0000
0000
0010
0100
0000
0000
,
0210
0000
0000
0301
0000
2000
0000
0000
3010
0000
0000
2100
,
0000
0000
3002
0000
0000
0203
0000
0000
0310
0100
0000
0000
,
0100
0000
0001
1000
0000
0001
0200
0000
0000
0310
0000
2000
,
0000
0000
3002
0000
0000
0023
0000
0000
0130
0000
0000
0021
,
0000
0000
0031
2000
0000
0000
3002
0000
0000
0103
0000
0000
,
1000
0000
0000
1100
0000
0000
0001
0000
1000
0001
0000
0000
,
2010
0000
0000
3001
0000
0000
0102
0000
0000
0000
0000
1003
,
0000
0000
0001
0000
0000
0020
0000
0000
0031
0100
0000
0001
,
0200
0000
0000
0310
0000
1000
0000
0000
0000
0001
0000
0000
,
1000
0000
0000
0100
0000
0000
1000
0000
0010
1000
0000
0010
,
2000
0000
0000
3001
0000
0020
0000
0000
0130
0000
0000
0000
,
1100
0000
0000
0101
0000
0000
0001
0000
0010
0001
0000
0010
,
0002
0000
0000
0103
0000
0020
0000
0000
0000
1000
0000
0000
,
0100
0000
0000
1000
0000
0000
0001
0000
0000
0130
0000
0020
,
0000
0000
0000
1030
0000
0000
2100
0000
0000
0000
0000
3001
,
0000
0000
1001
0000
0000
0020
0000
0000
0000
0130
0000
0002
,
0000
0000
1000
0000
0000
0103
0000
0000
0000
0010
0000
0000
,
0110
0000
0000
1001
0000
0000
0100
0000
0100
0010
0000
0010
,
2000
0000
0000
3001
0000
0200
0000
0000
0310
0000
0000
0101
,
0000
0000
1010
0000
0000
1100
0000
0000
0012
0000
0000
2003
,
0000
0000
3002
0000
0000
2003
0000
0000
0000
3100
0000
0000
,
0010
0000
0000
0000
0000
0011
0000
0000
0011
0000
0000
0012
,
0000
1000
0100
1003
,
2100
0000
0000
3001
0000
0000
0202
0000
0000
0303
0000
1001
,
0000
0010
1000
0001
,
0100
0000
0000
0000
0000
1010
0000
0000
1010
0000
0000
1020
,
0000
0100
1000
0130
,
0102
0000
0000
1003
0000
0000
2020
0000
0000
3030
0000
0110
,
0000
0001
0010
0001
,
0100
0000
0000
0000
0000
0110
0000
0000
0110
0000
0000
0001
,
1000
0000
0000
0010
0000
0010
0100
0000
0000
0001
0000
1000
,
0002
0000
0000
0103
0000
0020
0000
0000
0000
0000
0000
1030
,
0010
0000
0000
0101
0000
0000
0011
0000
0000
1000
0000
0100
,
1000
0000
0001
0000
0000
0010
0000
0000
0000
0000
0000
0100
,
2000
0000
0000
3010
0000
2000
0000
0000
3001
0100
0000
0000
,
0010
0000
1000
0000
0000
0100
0000
0000
1000
0001
0000
0000
,
1020
0000
0000
0130
0000
0001
0000
0000
1000
0000
0000
0002
,
0000
0000
0013
0000
0000
0000
0001
0000
1000
0001
0000
0200
,
0000
0310
1002
0100
,
1000
0000
0000
1003
0000
0000
0001
0000
1000
0001
0000
0000
,
0012
0000
0000
0103
0000
0000
2010
0000
0000
0000
0000
3002
,
0000
0000
0023
0000
0000
0230
0000
0000
1300
0001
0000
0000
,
0020
0000
0000
0130
0000
0010
0000
0000
0000
1000
0000
0000
,
0001
0000
0000
0100
0000
0000
0001
0000
0010
0001
0000
0010
,
0002
0000
0000
1003
0000
0200
0000
0000
1300
0000
0000
0000
,
0110
0000
0000
1001
0000
0000
0010
0000
0100
0010
0000
0100
,
0020
0000
0000
1030
0000
0002
0000
0000
0000
0100
0000
0000
,
1000
0000
0000
1000
0000
0000
0013
0000
0000
0100
0000
0020
,
0000
0000
0000
0031
0000
0000
1200
0000
0000
0000
0000
2300
,
0000
0000
3020
0000
0000
0230
0000
0000
0000
0301
0000
2000
,
0000
0000
3010
0000
0000
1010
0000
0000
0000
0000
0000
0000
,
0100
0000
0000
0100
0000
0000
1000
0000
1000
0010
0000
0010
,
0200
0000
0000
0301
0000
0020
0000
0000
0130
0000
0000
1100
,
0000
0000
0110
0000
0000
0011
0000
0000
0101
0000
0000
2001
,
0000
0000
3020
0000
0000
0230
0000
0000
0000
0301
0000
0000
,
1000
0000
0000
0000
0000
1100
0000
0000
1100
0000
0000
2100
,
0000
0010
0100
3100
,
0021
0000
0000
0130
0000
0000
2200
0000
0000
3300
0000
0110
,
0000
0001
1010
0001
,
0100
0000
0000
0000
0000
0101
0000
0000
0101
0000
0000
0102
,
0000
1000
0100
0103
,
2010
0000
0000
3001
0000
0000
0022
0000
0000
0033
0000
1001
,
0000
2000
0010
0100
,
0001
0000
0000
3001
0000
0000
1000
0000
0010
0200
0000
0000
,
0002
0000
0000
0000
,
0000
0000
0000
0303
;

//---------------dance-single - ----------------
#NOTEDATA:;
#CHARTNAME:;
#CHARTHASH:0:
#STEPSTYPE:dance-single;
#BANNER:;
#DESCRIPTION:;
#CHARTSTYLE:;
#DIFFICULTY:Easy;
#METER:7;
#METERF:0.000000;
#RADARVALUES:0.393452,0.463536,0.409846,0.459028,0.172135,336.000000,286.000000,50.000000,56.000000,0.000000,0.000000,0.000000,0.000000,0.000000,0.393452,0.463536,0.409846,0.459028,0.172135,336.000000,286.000000,50.000000,56.000000,0.000000,0.000000,0.000000,0.000000,0.000000;
#CREDIT:;
#DISPLAYBPM:173.000000:190.000000;
#NOTES:
0000
0000
0000
0000
,
0000
0000
0000
0000
,
0000
0000
0000
0000
,
0000
0000
0000
0000
,
0000
0000
0000
0000
,
1020
0000
0000
1000
0000
0000
0130
0000
0000
0000
0000
0102
,
0000
0010
0103
0000
,
2001
0010
0100
0100
,
3001
0000
0000
0000
0000
2000
0000
0000
3001
0000
0000
0000
,
1100
0001
1000
0001
,
0010
0100
0100
0000
,
0001
0011
1000
0100
,
0110
0001
1000
0100
,
1000
1000
0010
0100
,
0001
0010
0100
1000
,
0020
0130
0001
0010
,
2000
0000
0010
3100
,
1001
0110
1001
0010
,
1000
0001
1000
0100
,
1100
0010
1000
0001
,
1000
0100
0100
0000
,
0010
0010
0011
1100
,
0010
0100
0001
1000
,
1001
0010
1000
0001
,
0100
0100
0100
0010
,
2000
3001
1000
0100
,
0020
0000
1000
0130
,
0110
1001
0110
0001
,
0010
0010
0001
0001
,
2000
0000
0000
0000
0000
0000
3002
0000
0000
0000
0000
0203
,
0000
0000
0320
0000
0000
0000
1030
0000
0000
0001
0000
0000
,
0101
0100
1000
0000
,
0010
0010
1000
0001
,
2001
0010
0200
3300
,
0001
0001
1000
0010
,
2010
0100
0002
3003
,
0010
0000
0000
0100
0000
0000
1000
0000
0000
0001
0000
0200
,
0000
0000
0000
0000
0000
0000
0320
0000
0000
0000
0000
2030
,
0000
0000
3001
0000
0000
0012
0000
0000
0000
0103
0000
0020
,
0000
0000
2030
0000
0000
3002
0000
0000
0000
0103
0000
0000
,
0010
0010
1000
0010
,
2100
0001
0100
3100
,
1000
0000
0000
0001
0000
0000
0100
0000
0000
0000
0000
0010
,
0000
0000
1000
0000
0000
0110
0000
0000
0000
0000
0000
0000
,
0001
0000
0000
0000
0000
1000
0000
0000
0001
0000
0000
1000
,
0000
1001
0010
0100
,
0002
0000
0000
0000
0000
0000
2000
0000
0000
3003
0000
1001
,
0000
0100
0100
0010
,
1000
0000
0000
0000
0000
0010
0000
0000
0100
0000
0000
0010
,
0000
0110
0001
0100
,
0020
0000
0000
0000
0000
0000
0200
0000
0000
0330
0000
0110
,
0000
0001
1000
0010
,
0100
0000
0000
0000
0000
1001
0000
0000
1001
0000
0000
0000
,
0001
0010
0001
0100
,
0120
1000
2000
3030
,
0010
0100
0001
0010
,
1100
1000
0010
0000
,
0101
0001
1000
0001
,
0010
0010
0100
1000
,
0020
0100
1000
0130
,
0002
0000
1000
0013
,
1001
0110
1001
0000
,
1000
1000
0001
0100
,
0020
0000
0000
0000
0000
0000
2030
0000
0000
0000
0000
3002
,
0000
0000
0203
0000
0000
0000
1000
0000
0000
0301
0000
0000
,
0012
2003
0002
3000
,
0100
0103
0110
1001
,
1020
0100
2000
0030
,
0100
3100
1000
0001
,
0021
0230
2000
0300
,
0010
0000
0000
3010
0000
0000
1000
0000
0000
0001
0000
0200
,
0000
0000
0000
0000
0000
0000
0320
0000
0000
0000
0000
2030
,
0000
0000
3001
0000
0000
2001
0000
0000
0000
3010
0000
0000
,
0100
0001
0100
0000
,
1000
1000
0001
0010
,
0110
0001
0100
0010
,
1000
0000
0000
0001
0000
0000
1000
0000
0000
0000
0000
0010
,
0000
0000
0100
0000
0000
0101
0000
0000
0000
0000
0000
0000
,
1000
0000
0000
0000
0000
0200
0000
0000
0320
0000
0000
0031
,
0000
0101
1000
0001
,
2000
0000
0000
0000
0000
0000
0200
0000
0000
3300
0000
1100
,
0000
0001
0010
0100
,
1000
0000
0000
0000
0000
0002
0000
0000
2003
0000
0000
3010
,
0000
1100
0001
1000
,
0002
0000
0000
0000
0000
0000
0020
0000
0000
0033
0000
0011
,
0000
0100
0100
0100
,
0001
1100
0101
1100
,
0101
0000
0000
0000
;

//---------------dance-single - ----------------
#NOTEDATA:;
#CHARTNAME:;
#CHARTHASH:0:
#STEPSTYPE:dance-single;
#BANNER:;
#DESCRIPTION:;
#CHARTSTYLE:;
#DIFFICULTY:Beginner;
#METER:3;
#METERF:0.000000;
#RADARVALUES:0.185016,0.254617,0.065575,0.073772,0.000000,158.000000,150.000000,8.000000,9.000000,0.000000,0.000000,0.000000,0.000000,0.000000,0.185016,0.254617,0.065575,0.073772,0.000000,158.000000,150.000000,8.000000,9.000000,0.000000,0.000000,0.000000,0.000000,0.000000;
#CREDIT:;
#DISPLAYBPM:173.000000:190.000000;
#NOTES:
// measure 0
0000
0000
0000
0000
,  // measure 1
0000
0000
0000
0000
,  // measure 2
0000
0000
0000
0000
,  // measure 3
0000
0000
0000
0000
,  // measure 4
0000
0000
0000
0000
,  // measure 5
0020
0000
0030
0000
,  // measure 6
0200
0000
0300
0000
,  // measure 7
0002
0000
0000
0000
,  // measure 8
0003
0000
1000
0000
,  // measure 9
1001
0000
0010
0000
,  // measure 10
0100
0000
0100
0000
,  // measure 11
0001
0000
0001
0000
,  // measure 12
1000
0000
1000
0000
,  // measure 13
0010
0000
1000
0000
,  // measure 14
0100
0000
0100
0000
,  // measure 15
0010
0000
0001
0000
,  // measure 16
0100
0000
0100
0000
,  // measure 17
1000
1000
1000
0000
,  // measure 18
0000
0000
0000
0000
,  // measure 19
0110
0000
0001
0000
,  // measure 20
0100
0000
0010
0000
,  // measure 21
1000
0000
0001
0000
,  // measure 22
1000
0000
1000
0000
,  // measure 23
0010
0000
0100
0000
,  // measure 24
0100
0000
0100
0000
,  // measure 25
0001
0000
1000
0000
,  // measure 26
0100
0000
0010
0000
,  // measure 27
0001
0001
0001
0000
,  // measure 28
0000
0000
0100
0000
,  // measure 29
0001
0000
1000
0000
,  // measure 30
1001
0000
0100
0000
,  // measure 31
0010
0010
0010
0000
,  // measure 32
0000
0000
1000
0000
,  // measure 33
0100
0100
0100
0000
,  // measure 34
0000
0000
1000
0000
,  // measure 35
0001
0001
0001
0000
,  // measure 36
0000
0000
0000
0000
,  // measure 37
0100
0000
0010
0000
,  // measure 38
0110
0000
1000
0000
,  // measure 39
0100
0100
0100
0000
,  // measure 40
0000
0000
0010
0000
,  // measure 41
0001
0000
0001
0000
,  // measure 42
1000
0000
1000
0000
,  // measure 43
0010
0010
0010
0000
,  // measure 44
0000
0000
0100
0000
,  // measure 45
0001
0001
0000
0000
,  // measure 46
1000
0000
1000
0000
,  // measure 47
0020
0000
0000
0000
,  // measure 48
0030
0000
0100
0000
,  // measure 49
0010
0010
0000
0000
,  // measure 50
1000
0000
0001
0000
,  // measure 51
2000
0000
0000
0000
,  // measure 52
3000
0000
0010
0000
,  // measure 53
0110
0000
0001
0000
,  // measure 54
0010
0000
0010
0000
,  // measure 55
0010
0000
0001
0000
,  // measure 56
0100
0000
0100
0000
,  // measure 57
1000
0000
1000
0000
,  // measure 58
0100
0000
0010
0000
,  // measure 59
0001
0000
0100
0000
,  // measure 60
1000
0000
0010
0000
,  // measure 61
0100
0100
0100
0000
,  // measure 62
0000
0000
0000
0001
,  // measure 63
0001
0000
1000
0000
,  // measure 64
1001
0000
0010
0000
,  // measure 65
0100
0100
0100
0000
,  // measure 66
0000
0000
0010
0000
,  // measure 67
1000
1000
1000
0000
,  // measure 68
0000
0000
0100
0000
,  // measure 69
0001
0001
0001
0000
,  // measure 70
0000
0000
0000
0000
,  // measure 71
0100
0000
0010
0000
,  // measure 72
0110
0000
0100
0000
,  // measure 73
0001
0001
0001
0000
,  // measure 74
0000
0000
0010
0000
,  // measure 75
0001
0000
0001
0000
,  // measure 76
1000
0000
1000
0000
,  // measure 77
0010
0010
0010
0000
,  // measure 78
0000
0000
1000
0000
,  // measure 79
0100
0100
0000
0000
,  // measure 80
1000
0000
0001
0000
,  // measure 81
2000
0000
0000
0000
,  // measure 82
3000
0000
0010
0000
,  // measure 83
0100
0100
0000
0000
,  // measure 84
0010
0000
0100
0000
,  // measure 85
0002
0000
0000
0000
,  // measure 86
0003
0000
1000
0000
,  // measure 87
2002
0000
0000
0000
,  // measure 88
0000
0000
0000
3003
;
