#TITLE:I Swear;
#SUBTITLE:(NRG Cupid Mix);
#ARTIST:Eric Cartman;
#TITLETRANSLIT:;
#SUBTITLETRANSLIT:;
#ARTISTTRANSLIT:;
#GENRE:;
#CREDIT:;
#BANNER:I Swear.png;
#BACKGROUND:I Swear-bg.png;
#LYRICSPATH:;
#CDTITLE:;
#MUSIC:I Swear (NRG Cupid Mix).ogg;
#OFFSET:0.000000;
#SAMPLESTART:58.574001;
#SAMPLELENGTH:12.000000;
#SELECTABLE:YES;
#BPMS:0.000000=130.000000
;
#STOPS:
;
#BGCHANGES:;
#KEYSOUNDS:;
#ATTACKS:;

//---------------dance-single - ----------------
#NOTES:
     dance-single:
     :
     Hard:
     13:
     0.632193,0.598396,0.266899,0.301337,0.779172,514.000000,483.000000,31.000000,35.000000,0.000000,0.000000,0.632193,0.598396,0.266899,0.301337,0.779172,514.000000,483.000000,31.000000,35.000000,0.000000,0.000000:
// measure 0
0000
0000
0000
0000
,  // measure 1
0000
0000
0000
0000
,  // measure 2
0000
0000
0000
0000
,  // measure 3
0000
0000
0000
0000
,  // measure 4
1000
0000
0010
0100
0000
0100
0000
0001
0000
0001
0000
1000
0100
0000
0000
0000
,  // measure 5
0010
0000
0001
0000
1000
0010
0000
0010
0000
0100
0001
0100
0001
0000
0000
0000
,  // measure 6
1000
0000
0100
0010
0100
0010
0000
0001
0000
0100
0010
0100
0010
0000
0000
0000
,  // measure 7
1000
0000
0001
0000
1000
0100
1000
0100
0000
0010
0000
0001
0100
0001
0100
0001
,  // measure 8
0200
0000
1300
0000
0100
0010
0000
1000
0000
1000
0100
0000
0020
0000
0130
0000
,  // measure 9
0000
0000
0100
1000
0100
0020
0000
0001
0000
0031
1000
0000
0010
0000
0100
0000
,  // measure 10
0020
0000
1030
0000
0100
0010
0000
0001
0000
0001
1000
0000
0020
0000
1030
0000
,  // measure 11
0100
0000
0010
0000
0001
1000
0000
0010
0000
1000
0000
0001
0100
0000
0010
0000
,  // measure 12
2000
0000
3100
0000
0010
0100
0000
1000
0000
1000
0100
0000
0020
0000
0031
0000
,  // measure 13
0000
0000
1000
0010
0100
0020
0000
1000
0000
1030
0010
0000
1000
0000
0001
0000
,  // measure 14
0020
0000
0130
0000
1000
0100
0000
0010
0000
0010
0100
0000
0020
0000
0130
0000
,  // measure 15
1000
0000
0010
0000
0100
0001
0000
0001
0000
0100
0000
0010
1000
0001
0010
0100
,  // measure 16
2000
0000
0000
0000
3001
0001
0100
1000
,  // measure 17
0000
0000
1000
0000
0000
0100
0000
0000
0010
0000
1000
0100
0000
1000
0100
0000
,  // measure 18
0120
0000
0000
0000
0031
0001
0100
0010
,  // measure 19
0000
0000
0001
0000
0000
0010
0000
0000
1000
0000
0001
1000
0000
0001
1000
0000
,  // measure 20
1100
0100
1000
0001
1000
0010
1000
0100
,  // measure 21
0010
0000
0001
0000
1000
0000
0010
0000
0100
0000
0001
0100
0000
0001
0100
0000
,  // measure 22
0010
0000
1010
0000
0000
1001
0000
0000
0011
0000
0001
1000
0000
0010
0100
0000
,  // measure 23
0001
0000
0011
0000
0000
1001
0000
0000
1010
0000
0000
0010
0000
0000
0100
0000
,  // measure 24
1001
0000
0000
1000
0000
1001
0000
1100
0000
0100
0010
0001
1000
0000
0000
0000
,  // measure 25
0000
0000
1010
0000
0000
0110
0000
0101
0000
0001
1000
0100
0010
0000
0000
0000
,  // measure 26
0011
0000
0000
0001
0000
1001
0000
1010
0000
0010
1000
0001
0010
0000
0000
0000
,  // measure 27
0000
0000
0010
0100
0000
1100
0000
1001
0000
0001
0100
0010
1000
0000
0000
0000
,  // measure 28
1010
0000
0010
1000
0000
0001
0010
0000
0001
1000
0000
1000
0001
0000
0000
0000
,  // measure 29
0000
0000
0001
0010
0000
0010
0000
0100
0000
0100
1000
0010
0100
0000
1000
0000
,  // measure 30
0100
0000
0010
0000
0000
0010
0000
1000
0000
1000
0000
0000
0001
0010
0100
1000
,  // measure 31
0001
0000
0100
0010
0000
0001
0000
0010
0000
1000
0001
0000
0010
0000
0100
0000
,  // measure 32
1100
0000
0000
0000
0001
0100
0002
0000
0000
0000
1003
0000
0100
0000
0020
0000
,  // measure 33
0000
1030
0010
0200
0000
1300
0001
0100
,  // measure 34
0010
0000
1000
0000
0001
0010
0000
0100
0000
0100
0000
0010
0001
0000
1000
0000
,  // measure 35
0010
0000
0100
0000
0001
0010
0000
0010
0000
0100
0000
0100
1000
0000
0010
0000
,  // measure 36
1010
0000
0000
0000
0001
0010
0002
0000
0000
0000
0000
0000
1003
0000
0010
0000
,  // measure 37
0100
0000
0100
0000
1000
0000
0200
0000
0000
0000
0301
0000
1000
0000
0100
0010
,  // measure 38
0200
0000
0000
0000
1300
0001
1000
0000
0010
0000
0100
0000
0100
0000
0001
0000
,  // measure 39
1000
0000
0010
0000
1000
0001
1000
0001
0000
0010
0000
0100
1000
0100
0010
0000
,  // measure 40
0011
0001
0100
0010
1010
0010
1000
0100
,  // measure 41
0110
0010
0001
1000
1001
1000
0010
0100
,  // measure 42
0101
0001
1000
2100
0000
3100
1100
1002
,  // measure 43
0000
0000
1003
0000
0010
0000
2010
0000
0000
0000
3010
0000
0100
0001
0100
0001
,  // measure 44
2000
0000
3100
0000
0010
0100
0000
1000
0000
1000
0001
0000
0200
0000
0310
0000
,  // measure 45
0000
0000
0010
1000
0100
0020
0000
0100
0000
0130
0010
0000
0001
0000
1000
0000
,  // measure 46
0020
0000
0130
0000
1000
0100
0000
0010
0000
0010
1000
0000
0002
0000
1003
0000
,  // measure 47
0100
0000
0010
0000
0001
1000
0000
0010
0000
1000
0000
0100
0010
0000
0001
0000
,  // measure 48
2000
0000
3100
0000
0010
0001
0000
1000
0000
1000
0010
0000
0200
0000
0310
0000
,  // measure 49
0000
0000
0100
0001
0100
0020
0000
0100
0000
0130
0010
0000
2000
0000
3001
0000
,  // measure 50
0010
0000
0100
0000
1000
0100
0000
0010
0000
0010
0100
0000
1000
0000
0010
0000
,  // measure 51
0100
0000
0001
0000
0010
0100
0000
1000
0000
0001
0000
0001
1000
0010
0100
0001
,  // measure 52
2000
0000
3100
0000
0010
0100
0000
1000
0000
1000
0001
0000
0200
0000
0310
0000
,  // measure 53
0000
0000
0100
1000
0100
0020
0000
0001
0000
0031
0010
0000
1000
0000
0001
0000
,  // measure 54
0010
0000
0100
0000
1000
0100
0000
0010
0000
0010
0001
0000
0100
0000
0010
0000
,  // measure 55
1000
0000
0010
0000
0100
0010
0000
1000
0000
1000
0000
0001
0010
0000
0100
0000
,  // measure 56
2000
0000
3100
0000
0010
0001
0000
1000
0000
1000
0010
0000
0100
0000
0001
0000
,  // measure 57
0000
0000
0001
0100
0001
0020
0000
1000
0000
1030
0010
0000
0001
0000
1000
0000
,  // measure 58
0010
0000
0100
0000
0001
1000
0000
0010
0000
0010
1000
0000
0100
0000
0010
0000
,  // measure 59
0001
0000
1000
0000
0010
0100
0000
0100
0000
0001
0000
1000
0001
0010
0100
1000
,  // measure 60
0100
0000
0010
0000
0100
0010
0000
0010
0000
0000
0000
0000
0000
0000
0000
0000
;

//---------------dance-single - ----------------
#NOTES:
     dance-single:
     :
     Challenge:
     14:
     0.670321,0.650431,0.068877,0.068877,0.947059,545.000000,537.000000,8.000000,8.000000,0.000000,0.000000,0.670321,0.650431,0.068877,0.068877,0.947059,545.000000,537.000000,8.000000,8.000000,0.000000,0.000000:
// measure 0
0000
0000
0000
0000
,  // measure 1
0000
0000
0000
0000
,  // measure 2
0000
0000
0000
0000
,  // measure 3
0000
0000
0000
0000
,  // measure 4
0001
0000
1000
0001
0010
0001
0000
1000
0000
1000
0000
0010
0100
0000
0100
0000
,  // measure 5
0001
0000
1000
0000
0100
0010
0000
0001
0000
0001
1000
0001
0100
0000
0100
0000
,  // measure 6
0010
0000
1000
0001
1000
0100
0000
0010
0000
0100
1000
0100
1000
0000
0001
0000
,  // measure 7
0100
0000
0010
0000
1000
0001
1000
0001
0000
0010
0000
0010
0100
1000
0010
0100
,  // measure 8
0002
0000
0013
0000
0100
0010
0000
0001
0000
0001
0100
0000
0010
0000
0100
0000
,  // measure 9
0000
0000
0100
1000
0100
0020
0000
0031
0000
0001
0010
0000
1000
0000
0001
0000
,  // measure 10
0010
0000
0100
0000
1000
0100
0000
0010
0000
0010
0001
0000
1000
0000
0001
0000
,  // measure 11
0100
0000
0010
0000
1000
0001
0000
0010
0000
0001
0000
1000
0100
0000
0010
0000
,  // measure 12
0002
0000
1003
0000
0010
0100
0000
1000
0000
1000
0100
0000
0010
0000
0100
0000
,  // measure 13
0000
0000
0001
0010
0100
0020
0000
1000
0000
1030
0010
0000
0001
0000
1000
0000
,  // measure 14
0010
0000
0100
0000
1000
0100
0000
0010
0000
0010
1000
0000
0001
0000
0010
0000
,  // measure 15
1000
0000
0010
0000
0100
1000
0001
1000
0100
0000
0010
0000
0001
1000
0010
0100
,  // measure 16
0001
0000
0010
0000
0000
0010
0000
0000
0010
0000
0100
0000
1000
0000
0010
0000
,  // measure 17
0100
0000
0001
0000
0000
0001
0000
0000
0001
0000
1000
0100
0000
0100
1000
0000
,  // measure 18
0001
0000
0100
0000
0000
0100
0000
0000
0010
0000
1000
0000
0001
0000
0010
0000
,  // measure 19
0100
0000
0010
0000
0000
0010
0000
0000
0010
0000
0001
0100
0000
0100
0001
0000
,  // measure 20
1000
0100
0110
0000
0001
0100
0010
1000
,  // measure 21
0001
0000
0010
0000
0100
0010
0000
0000
0001
0000
1000
0010
0000
0010
1000
0000
,  // measure 22
0001
0000
1001
0000
0000
1100
0000
0000
1001
0000
0001
1000
0000
0010
0100
0000
,  // measure 23
0001
0000
0011
0000
0000
0110
0000
0000
1100
0000
1000
0000
0001
0100
0001
0100
,  // measure 24
0010
1000
0000
1000
0001
0000
0001
0010
0000
0010
0100
1000
0010
0000
0100
0000
,  // measure 25
0010
1000
0000
1000
0100
0000
0100
0010
0000
0010
0001
1000
0010
0000
0000
0000
,  // measure 26
0010
0100
0000
0100
0001
0000
0001
1000
0000
1000
0100
0010
0100
0000
1000
0000
,  // measure 27
0001
0100
0000
0100
0010
0000
0010
1000
0000
1000
0100
0010
0001
0000
0100
0000
,  // measure 28
0001
0010
0001
0000
1000
0000
0001
0010
0001
0000
0100
0000
0001
0010
0001
0000
,  // measure 29
1000
0010
1000
0000
0001
0000
1000
0010
1000
0000
0100
0000
1000
0010
1000
0000
,  // measure 30
0001
0010
0001
0000
0100
0000
0010
1000
0010
0000
0100
0000
0001
0010
0100
1000
,  // measure 31
0100
0000
0010
1000
0000
0010
0000
0001
0000
0100
1000
0000
0100
0000
0010
0000
,  // measure 32
1000
0000
0100
0000
0010
0100
0010
0100
0000
1000
0000
0001
0100
0000
0010
0000
,  // measure 33
1000
0000
0001
0000
0100
0010
0000
0100
0000
0100
0000
0001
1000
0000
0100
0000
,  // measure 34
0010
0000
0001
0000
1000
0100
0000
0010
0000
0010
0000
0001
0100
0000
0010
0000
,  // measure 35
1000
0000
0001
0000
0010
0100
0000
1000
0000
1000
0000
0001
0100
0000
0010
0000
,  // measure 36
0100
0000
0001
0000
1000
0100
1000
0100
0000
0010
0000
0001
1000
0000
0010
0000
,  // measure 37
0100
0000
1000
0000
0100
0010
0000
1000
0000
1000
0000
0001
0010
0000
0100
0000
,  // measure 38
0010
0000
0001
0000
1000
0010
0000
0100
0000
0100
0000
0001
1000
0000
0100
0000
,  // measure 39
0010
0000
0001
0000
1000
0100
0010
0100
0000
1000
0000
0001
0100
0010
0100
0000
,  // measure 40
0101
0000
0000
0000
0000
0000
0000
0000
0000
0001
0000
0000
1000
0000
0000
0100
0000
0000
0000
0000
0000
0010
0000
0000
0000
0000
0000
0001
0000
0000
0000
0000
0000
0001
0000
0000
1000
0000
0000
0000
0000
0000
0010
0000
0100
0000
0010
0000
,  // measure 41
0100
0000
0000
0100
0001
0010
0000
0100
0000
0100
0000
1000
0001
0000
0010
0000
,  // measure 42
0100
0000
0000
0000
0000
0000
0000
0000
0000
1000
0000
0000
0010
0000
0000
0100
0000
0000
0000
0000
0000
0001
0000
0000
0000
0000
0000
0001
0000
0000
0000
0000
0000
0010
0000
0000
0100
0000
0000
0000
0000
0000
1000
0000
0010
0000
1000
0000
,  // measure 43
0010
0000
0000
0100
0001
1000
0000
0100
0000
0100
0000
0010
0001
1000
0010
0100
,  // measure 44
0001
0000
0010
0000
0100
0010
0000
0001
0000
0001
0010
0000
0100
0000
0010
0000
,  // measure 45
0000
0000
0001
0100
0010
0200
0000
1000
0000
1300
0100
0000
0010
0000
1000
0000
,  // measure 46
0001
0000
0010
0000
0100
1000
0000
0100
0000
0100
0010
0000
0100
0000
1000
0000
,  // measure 47
0010
0000
0100
0000
0001
0010
0000
0100
0000
0100
0000
1000
0100
0000
0010
0000
,  // measure 48
0001
0000
0100
0000
0010
0100
0000
1000
0000
1000
0100
0000
0001
0000
1000
0000
,  // measure 49
0000
0000
0100
1000
0100
0020
0000
1000
0000
1030
0010
0000
0001
0000
1000
0000
,  // measure 50
0010
0000
0100
0000
1000
0100
0000
0010
0000
0010
1000
0000
0001
0000
0010
0000
,  // measure 51
0100
0000
1000
0000
0010
0100
0000
0001
0000
1000
0000
0100
0010
0001
1000
0010
,  // measure 52
0100
0000
0001
0000
1000
0100
0000
0010
0000
0010
0100
0000
1000
0000
0001
0000
,  // measure 53
0000
0000
0001
0100
0010
0200
0000
1000
0000
1300
0100
0000
0001
0000
1000
0000
,  // measure 54
0100
0000
0010
0000
0100
1000
0000
0001
0000
0001
0010
0000
0001
0000
1000
0000
,  // measure 55
0001
0000
0100
0000
0000
0010
0000
0010
0000
1000
0000
1000
0001
0000
0010
0000
,  // measure 56
0001
0000
0100
0000
0010
0100
0000
0001
0000
0001
1000
0000
0100
0000
0010
0000
,  // measure 57
0000
0000
0001
0010
0100
0020
0000
1000
0000
1030
0010
0000
0001
0000
1000
0000
,  // measure 58
0010
0000
0100
0010
0000
0010
0000
1000
0000
1000
0001
0000
0010
0000
0100
0000
,  // measure 59
1000
0000
0000
1000
0100
0010
0100
0000
0000
1000
0001
0000
0001
0010
0100
1000
,  // measure 60
0010
0000
1000
0000
0001
0010
0000
0010
0000
0000
0000
0000
0000
0000
0000
0000
;

//---------------dance-single - ----------------
#NOTES:
     dance-single:
     :
     Medium:
     10:
     0.453851,0.442293,0.060267,0.103316,0.228155,369.000000,362.000000,7.000000,12.000000,0.000000,0.000000,0.453851,0.442293,0.060267,0.103316,0.228155,369.000000,362.000000,7.000000,12.000000,0.000000,0.000000:
// measure 0
0000
0000
0000
0000
,  // measure 1
0000
0000
0000
0000
,  // measure 2
0000
0000
0000
0000
,  // measure 3
0000
0000
0000
0000
,  // measure 4
1000
0000
0010
0000
0000
0100
0000
0100
0000
0001
0000
1000
0100
0000
0000
0000
,  // measure 5
0010
0000
0001
0000
0000
1000
0000
1000
0000
0010
0000
0100
0001
0000
0000
0000
,  // measure 6
1000
0000
0100
0000
0000
0010
0000
0010
0000
0001
0000
0100
0010
0000
0000
0000
,  // measure 7
1000
0000
0100
0000
0000
0010
0000
0010
0000
0100
0000
1000
0001
0000
0100
0000
,  // measure 8
0010
1000
0100
0000
0100
1000
0001
1000
,  // measure 9
0000
0000
0010
0000
0100
0000
0000
0001
0000
0001
0000
0000
1000
0000
0100
0000
,  // measure 10
0010
0100
1000
0000
0001
0100
0010
0100
,  // measure 11
0001
0010
0100
1000
,  // measure 12
0001
0100
0010
0000
0010
1000
0001
1000
,  // measure 13
0000
0000
0100
0000
0010
0000
0000
0001
0000
0001
0000
0000
0010
0000
0100
0000
,  // measure 14
1000
0010
1000
0000
0100
0100
0010
0100
,  // measure 15
1000
0000
0001
0000
0100
0000
0010
1000
,  // measure 16
1001
0000
0000
0000
1000
1000
0100
0010
,  // measure 17
0000
0001
0000
0100
0000
0000
1000
0100
,  // measure 18
0001
0000
0000
0000
1000
1000
0100
0010
,  // measure 19
0000
0001
0000
1000
0010
0010
0100
0001
,  // measure 20
1000
0000
0100
0000
0010
0100
0010
2000
,  // measure 21
0000
3010
0001
1000
0000
0010
0100
2000
,  // measure 22
0000
0000
3100
0000
0000
0100
0000
0000
0100
0000
0001
1000
0000
0001
1000
0000
,  // measure 23
0000
0000
0100
0000
0000
0001
0000
0000
1000
0000
0000
0010
0000
0000
0001
0000
,  // measure 24
1001
0000
0000
0001
0000
0001
0000
0001
0100
0000
0010
0000
1000
0000
0100
0000
,  // measure 25
0000
0000
0010
0000
0000
0010
0000
0010
0001
0000
1000
0000
0010
0000
0100
0000
,  // measure 26
0001
0000
0000
0001
0000
0001
0000
0001
0010
0000
0100
0000
1000
0000
0010
0000
,  // measure 27
0100
0000
0010
0000
0000
1000
0000
1000
0001
0000
0010
0000
0100
0000
1000
0000
,  // measure 28
0010
0000
0100
0000
0000
0100
0000
0100
0001
0000
1000
0000
0100
0000
0010
0000
,  // measure 29
0000
0000
1000
0000
0000
0010
0000
0010
0000
0010
0001
0000
0100
0000
0020
0000
,  // measure 30
0000
0031
0010
0200
0000
0301
1000
0100
,  // measure 31
0010
0010
0001
0001
1000
1000
0010
0100
,  // measure 32
0101
0000
0000
0000
1000
0100
2000
0000
0000
0000
3001
0000
0100
0000
0020
0000
,  // measure 33
0000
0130
0001
2000
0000
3100
0010
0002
,  // measure 34
0000
0000
0003
0000
0000
1000
0001
0100
,  // measure 35
0010
0000
1000
0000
0001
0000
0100
0010
,  // measure 36
1010
0000
0000
0000
0001
0010
0002
0000
0000
0000
0000
0000
1003
0000
0100
0000
,  // measure 37
0010
0010
0100
1000
0000
0010
0100
0001
,  // measure 38
1000
0000
0100
0010
1001
0001
0100
0020
,  // measure 39
0000
0000
0000
0000
0031
0000
0000
0000
0010
0000
0000
0010
0000
0000
1000
0000
,  // measure 40
0001
0010
0100
0010
0001
1000
0010
0100
,  // measure 41
1000
0100
0010
0001
1000
0001
0010
1000
,  // measure 42
0100
0010
0100
0002
0000
0103
0010
0021
,  // measure 43
0000
0130
1000
1010
0000
1000
0001
0100
,  // measure 44
0010
0100
0001
0000
0001
1000
0100
1000
,  // measure 45
0000
0000
0010
0000
0100
0000
0000
0001
0000
0001
0000
0000
0010
0000
0100
0000
,  // measure 46
1000
0100
0010
0000
0001
0010
0100
0010
,  // measure 47
0001
0010
0100
1000
,  // measure 48
0001
0100
0010
0000
0010
1000
0001
1000
,  // measure 49
0000
0000
1000
0000
0100
0000
0000
0010
0000
0010
0000
0000
0001
0000
0100
0000
,  // measure 50
0010
0100
0001
0000
1000
1000
0100
0010
,  // measure 51
0100
0000
1000
0000
0010
0000
0100
0001
,  // measure 52
1000
0100
0010
0000
0010
0100
1000
0100
,  // measure 53
0000
0000
0010
0000
0001
0000
0000
1000
0000
1000
0010
0000
0100
0000
0001
0000
,  // measure 54
1000
0100
0010
0000
0010
0100
1000
0001
,  // measure 55
0100
0000
0010
0000
1000
0000
0100
0010
,  // measure 56
0001
0100
0010
0000
0010
0100
0001
0100
,  // measure 57
0000
0000
0010
0000
1000
0000
0000
0001
0000
0001
0010
0000
0100
0000
1000
0000
,  // measure 58
0010
0100
0001
0000
0010
0100
1000
0100
,  // measure 59
0010
0000
0001
0000
0100
0000
1000
0100
,  // measure 60
0001
0000
1000
0000
0100
0010
0000
0010
0000
0000
0000
0000
0000
0000
0000
0000
;

//---------------dance-single - ----------------
#NOTES:
     dance-single:
     :
     Easy:
     6:
     0.236150,0.338224,0.068877,0.051658,0.008610,192.000000,184.000000,8.000000,6.000000,0.000000,0.000000,0.236150,0.338224,0.068877,0.051658,0.008610,192.000000,184.000000,8.000000,6.000000,0.000000,0.000000:
// measure 0
0000
0000
0000
0000
,  // measure 1
0000
0000
0000
0000
,  // measure 2
0000
0000
0000
0000
,  // measure 3
0000
0000
0000
0000
,  // measure 4
1000
0010
0100
0000
,  // measure 5
0001
0010
0100
0000
,  // measure 6
1000
0100
0010
0000
,  // measure 7
0001
0100
0010
0000
,  // measure 8
1000
0100
0001
0100
,  // measure 9
0000
1000
0010
0010
,  // measure 10
0100
0001
0010
0001
,  // measure 11
1000
0000
1000
0000
,  // measure 12
0001
0010
1000
0010
,  // measure 13
0000
0001
1000
1000
,  // measure 14
0010
0100
1000
0100
,  // measure 15
0001
0000
0001
1000
,  // measure 16
0100
0000
0000
0000
0000
0000
0000
0100
,  // measure 17
0000
0000
0000
0000
,  // measure 18
0010
0000
0000
0000
0000
0000
0000
0001
,  // measure 19
0000
0000
0001
0000
1000
1000
0000
0000
,  // measure 20
1001
0000
1000
0010
,  // measure 21
0100
0000
0001
0000
,  // measure 22
1000
1000
0100
0010
,  // measure 23
0000
0001
0010
0100
,  // measure 24
1001
0000
1000
0010
,  // measure 25
0100
0010
1000
0100
,  // measure 26
0010
0000
0001
0100
,  // measure 27
0010
0100
0001
0010
,  // measure 28
0100
0000
1000
0010
,  // measure 29
0002
0000
0013
0000
,  // measure 30
1000
0001
0010
1000
,  // measure 31
0020
0000
0000
0000
0130
0000
1000
1000
,  // measure 32
0000
1000
0000
0001
,  // measure 33
0100
1000
0100
0001
,  // measure 34
2000
0000
3000
0000
0000
0100
0100
0020
,  // measure 35
0000
0030
0000
0000
0000
0000
0001
0001
,  // measure 36
0000
0001
0000
1000
,  // measure 37
0010
0001
0010
1000
,  // measure 38
0002
0000
0010
0000
0103
0001
0001
2000
,  // measure 39
0000
0000
3000
0000
,  // measure 40
1010
1000
0100
0010
,  // measure 41
0011
0001
0100
0010
,  // measure 42
1010
1000
1001
0100
,  // measure 43
1001
0010
1001
0100
,  // measure 44
0001
0010
1000
0010
,  // measure 45
0000
0001
0100
0010
,  // measure 46
0100
0001
0010
0100
,  // measure 47
1000
0000
0010
0000
,  // measure 48
1000
0010
0001
0010
,  // measure 49
0000
1000
0001
0001
,  // measure 50
0010
0100
1000
0010
,  // measure 51
1000
0100
0010
0001
,  // measure 52
1000
0010
0001
0010
,  // measure 53
0000
1000
0001
0010
,  // measure 54
0001
0100
0010
1000
,  // measure 55
0100
0000
0010
0000
,  // measure 56
1000
0010
0001
0100
,  // measure 57
0000
1000
0100
0010
,  // measure 58
1000
0100
0001
0100
,  // measure 59
1000
0010
0100
0001
,  // measure 60
1000
0000
0000
0000
0000
0100
0000
0100
0000
0000
0000
0000
0000
0000
0000
0000
;

//---------------dance-single - ----------------
#NOTES:
     dance-single:
     :
     Beginner:
     2:
     0.115615,0.154973,0.034439,0.000000,0.000000,94.000000,90.000000,4.000000,0.000000,0.000000,0.000000,0.115615,0.154973,0.034439,0.000000,0.000000,94.000000,90.000000,4.000000,0.000000,0.000000,0.000000:
0000
0000
0000
0000
,
0000
0000
0000
0000
,
0000
0000
0000
0000
,
0000
0000
0000
0000
,
1000
0000
0000
0000
,
1000
0000
0000
0000
,
0001
0000
0000
0000
,
0001
0000
0000
0000
,
0100
0000
0100
0000
,
0010
0000
0010
0000
,
1000
0000
1000
0000
,
0001
0000
0000
0000
,
0010
0000
0010
0000
,
0100
0000
0100
0000
,
1000
0000
1000
0000
,
0010
0000
0100
0000
,
0001
0000
0000
0000
,
0000
0000
0000
0000
,
0001
0000
0000
0000
,
0000
0000
0000
0000
,
1000
0000
0000
0000
,
1000
0000
0000
0000
,
0100
0000
0100
0000
,
0010
0000
0010
0000
,
1001
0000
0000
0000
,
0001
0000
1000
0000
,
0010
0000
0000
0000
,
0100
0000
0001
0000
,
1000
0000
0000
0000
,
0100
0000
0000
0000
,
0010
0000
0000
0000
,
0100
0000
0100
0000
,
1001
0000
0000
0000
,
1000
0000
0010
0000
,
0001
0000
0000
0010
,
0010
0000
0000
0000
,
1001
0000
0000
0000
,
0001
0000
0010
0000
,
1000
0000
0000
0010
,
0010
0000
0000
0000
,
0001
0000
0001
0000
,
1000
0000
1000
0000
,
0010
0000
0100
0000
,
0001
0000
1000
0000
,
1001
0000
1000
0000
,
0100
0000
0100
0000
,
0010
0000
0010
0000
,
0100
0000
0000
0000
,
1000
0000
1000
0000
,
0010
0000
0010
0000
,
0100
0000
0100
0000
,
0010
0000
0010
0000
,
1000
0000
0100
0000
,
0001
0000
0100
0000
,
1000
0000
0100
0000
,
0010
0000
0100
0000
,
1000
0000
0010
0000
,
0001
0000
0010
0000
,
1000
0000
0010
0000
,
0100
0000
0001
0000
,
1000
0000
0000
0000
;

//---------------dance-double - ----------------
#NOTES:
     dance-double:
     :
     Hard:
     12:
     0.504278,0.520345,0.068877,0.094706,0.077487,410.000000,402.000000,8.000000,11.000000,0.000000,0.000000,0.504278,0.520345,0.068877,0.094706,0.077487,410.000000,402.000000,8.000000,11.000000,0.000000,0.000000:
00000000
00000000
00000000
00000000
,
00000000
00000000
00000000
00000000
,
00000000
00000000
00000000
00000000
,
00000000
00000000
00000000
00000000
,
10000000
01000000
00010000
01000000
00100000
00100000
00001000
00010000
,
00000010
00000100
00001000
00000100
00000001
00000001
00001000
00000000
,
00000001
00000010
00001000
00000010
00000100
00000100
00010000
00001000
,
01000000
10000000
01000000
00010000
10000000
01000000
00100000
00100000
,
00001000
00010000
00100000
00010000
00001000
00000010
00000001
00001000
,
00000000
00000010
00000100
00001000
00010000
00010000
00001000
00000010
,
00010000
00100000
00001000
00010000
00100000
00010000
00001000
00000010
,
00000001
00000100
00001000
00010000
,
01000000
00010000
00001000
00010000
01000000
00010000
00001000
00000100
,
00000000
00000001
00000010
00001000
00010000
00010000
00100000
10000000
,
00010000
00100000
00001000
00010000
00100000
00010000
00001000
00000010
,
00000001
00000000
00000100
00000000
00010000
00000000
00100000
01000000
,
10010000
00000000
00000000
00000000
10000000
10000000
00100000
02000000
,
00000000
03001000
00010000
00000200
00000000
00000310
00000001
00000100
,
00000110
00000000
00000000
00000000
00000010
00000010
00010000
00002000
,
00000000
00103000
01000000
20000000
00000000
30100000
00010000
00001000
,
00011000
00010000
00000100
00001000
00000010
00000010
00000100
00000001
,
00000010
00000100
00010000
00001000
00100000
01000000
10000000
00100000
,
01000000
00100000
00010000
00001000
00000010
00000001
00001000
00000010
,
00000000
00000100
00001000
00010000
01000000
10000000
00100000
01000000
,
00001000
00010000
00000000
00000100
00001000
00000000
00000010
00000000
00000100
00000000
00000001
00000000
00000010
00000000
00001000
00000000
,
00010000
00000000
01000000
10000000
00000000
00010000
01000000
00000000
00100000
00000000
00010000
00000000
00001000
00000000
00000010
00000000
,
00000001
00000100
00000000
00000010
00000100
00000000
00000001
00000000
00000010
00000000
00001000
00000000
00010000
00000000
01000000
00000000
,
10000000
00000000
00100000
01000000
00000000
00010000
00100000
00000000
01000000
00000000
10000000
00000000
01000000
00000000
00010000
00000000
,
00001000
00000000
00000010
00000000
00000001
00000100
00000000
00000010
00000100
00000000
00000001
00000000
00001000
00000000
00000100
00000000
,
00000010
00000000
00001000
00010000
00000000
01000000
10000000
00000000
00100000
00000000
00010000
00000000
00001000
00000000
00010000
00000000
,
00100000
10000000
00000000
00010000
00100000
00000000
01000000
00000000
00010000
00000000
00001000
00000000
00000100
00000000
00000001
00000000
,
00000010
00001000
00010000
01000000
10000000
00100000
00010000
00001000
,
00011000
00000000
00000000
00000000
10000000
00100000
20000000
00000000
00000000
00000000
31000000
00000000
00100000
00000000
20000000
00000000
,
00000000
30100000
00001000
00020000
00000000
00030010
00000100
00002000
,
00010000
00000000
00000010
00000000
00013000
00100000
10000000
01000000
,
00010000
00000000
01000000
00000000
10000000
00000000
00100000
00010000
,
00011000
00000000
00000000
00000000
00000001
00000010
00000002
00000000
00000000
00000000
00000000
00000000
00000103
00000000
00000010
00000000
,
00010000
00010000
00001000
00100000
00000000
01000000
10000000
00010000
,
02000000
00000000
13000000
01000000
00100000
10000000
01000000
00010000
,
00002000
00000010
00010000
00000100
,
00013000
01000000
10000000
00100000
10000000
01000000
00010000
00001000
,
00000100
00000001
00000010
00001000
00010000
00001000
00000010
00000001
,
00000100
00001000
00010000
00011000
00000000
00100000
00010000
00110000
,
00000000
10000000
00100000
10100000
00000000
10000000
01000000
00010000
,
00001000
00010000
00100000
00010000
00001000
00010000
00100000
10000000
,
00000000
01000000
00100000
10000000
00010000
00010000
00001000
00000010
,
00001000
00010000
00100000
00010000
00001000
00010000
00100000
10000000
,
01000000
00010000
00001000
00000100
,
00000010
00001000
00010000
00001000
00000010
00001000
00010000
00001000
,
00000000
00000001
00000010
00001000
00010000
00010000
00001000
00000010
,
00000001
00000100
00001000
00000100
00000010
00000100
00001000
00010000
,
01000000
00000000
10000000
00000000
00100000
00000000
00010000
10000000
,
00010000
00100000
10000000
01000000
00010000
01000000
10000000
00010000
,
00000000
01000000
00100000
00010000
00001000
00001000
00000010
00000001
,
00001000
00000010
00000001
00000010
00001000
00000100
00000001
00000100
,
00010000
01000000
10000000
00100000
,
00010000
00001000
00000010
00001000
00010000
00100000
10000000
00010000
,
00000000
00100000
10000000
00100000
00001000
00001000
00000010
00000001
,
00001000
00000010
00000001
00000010
00001000
00000100
00000001
00000100
,
00010000
00000000
01000000
00000000
10000000
00000000
00100000
00010000
,
00001000
00000000
00000010
00000000
00001000
00010000
00000000
00010000
00000000
00000000
00000000
00000000
00000000
00000000
00000000
00000000
;

//---------------dance-double - ----------------
#NOTES:
     dance-double:
     :
     Medium:
     9:
     0.382514,0.390258,0.008610,0.043048,0.008610,311.000000,310.000000,1.000000,5.000000,0.000000,0.000000,0.382514,0.390258,0.008610,0.043048,0.008610,311.000000,310.000000,1.000000,5.000000,0.000000,0.000000:
00000000
00000000
00000000
00000000
,
00000000
00000000
00000000
00000000
,
00000000
00000000
00000000
00000000
,
00000000
00000000
00000000
00000000
,
10000000
00000000
01000000
00000000
00100000
00001000
00010000
00000000
,
00000010
00000000
00000100
00000000
00000001
00001000
00000100
00000000
,
00010000
00000000
00001000
00000000
00100000
00010000
10000000
00000000
,
00100000
00000000
00010000
00000000
00001000
00000010
00000100
00000010
,
00000001
00001000
00000010
00000000
00000100
00001000
00010000
00000000
,
01000000
00000000
10000000
00000000
00100000
00100000
10000000
00000000
,
00010000
00100000
01000000
00000000
10000000
01000000
00010000
00000000
,
00001000
00000010
00000001
00000100
,
00001000
00010000
00100000
00000000
01000000
00010000
10000000
00000000
,
01000000
00000000
00100000
00000000
00010000
00010000
00001000
00000000
,
00000010
00000001
00001000
00000000
00000010
00000100
00001000
00000000
,
00010000
00000000
01000000
00000000
10000000
00000000
00100000
00010000
,
00002000
00000000
00000000
00000000
00013000
00001000
00010000
00000100
,
00001000
00000010
00000100
00000001
,
00001001
00000000
00000000
00000000
00001000
00000100
00010000
00001000
,
00010000
00000000
00100000
00000000
10000000
00000000
00010000
00100000
,
00010000
00000000
10000000
00000000
00100000
00010000
00001000
00020000
,
00000000
00030100
00000010
00000001
00000000
00000100
00001000
00010000
,
00002000
00000010
00010000
00000010
,
00013000
00001000
00000010
00000001
,
00000100
00000000
00001000
00000000
00010000
01000000
10000000
01000000
,
00100000
00000000
00001000
00000000
00010000
00000000
00000010
00000100
,
00000001
00000000
00000010
00000000
00001000
00010000
00100000
00010000
,
00001000
00000010
00000001
00000100
,
00001000
00000000
00010000
00000000
01000000
10000000
00100000
00010000
,
00100000
00000000
00100000
10000000
01000000
00000000
01000000
00010000
,
00001000
00000000
00000100
00001000
00010000
00000000
00001000
00000010
,
00000200
00000000
00001000
00000000
00000010
00000000
00001300
00000001
,
00000100
00000000
00001000
00010000
00000000
01000000
00010000
00001000
,
00000000
00001000
00000100
00001000
00000000
00010000
00100000
02000000
,
00010000
00000000
10000000
00000000
03010000
10000000
10000000
01000000
,
00010000
00000000
00001000
00000000
00000100
00000000
00000001
00001000
,
00000100
00000000
00000010
00001000
00000000
00000000
00010000
00100000
,
01000000
01000000
00010000
10000000
00000000
01000000
00010000
00001000
,
00000010
00000000
00000001
00001000
00000010
00010000
00001000
01000000
,
00100000
10000000
01000000
01000000
,
00010000
00000000
00001000
00000010
00000100
00000000
00001000
00000001
,
00000100
00000000
00000010
00010000
00001000
00000000
00010000
00100000
,
01000000
00000000
00010000
10000000
00000000
01000000
00010000
00001000
,
00000000
00000010
00001000
00010000
00000000
00100000
01000000
00010000
,
10000000
00000000
01000000
00000000
00010000
01000000
10000000
01000000
,
00000000
00000000
00100000
00000000
00001000
00001000
00010000
00000000
,
00000010
00000000
00000100
00000000
00000001
00001000
00000100
00001000
,
00000001
00000010
00001000
00010000
,
01000000
00000000
10000000
00000000
00100000
00010000
00001000
00010000
,
00000000
00000000
00001000
00000000
00000010
00000010
00000001
00000000
,
00001000
00000000
00000010
00000000
00000100
00001000
00010000
00001000
,
00000100
00000000
00000001
00000000
00000010
00000000
00001000
00010000
,
00001000
00010000
01000000
00000000
10000000
00100000
01000000
00000000
,
00001000
00010000
00001000
00000000
00000010
00000010
00000100
00000000
,
00001000
00000001
00000100
00000000
00000010
00010000
00001000
00010000
,
00100000
01000000
00010000
10000000
,
01000000
00010000
00001000
00000000
00001000
00010000
00000010
00001000
,
00000001
00000010
00000100
00000000
00010000
00001000
00100000
00000000
,
00010000
10000000
00100000
00000000
01000000
00001000
00010000
00000100
,
00000010
00000000
00000001
00000000
00000100
00000000
00001000
00010000
,
01000000
00000000
00010000
00000000
00000000
00001000
00000000
00001000
00000000
00000000
00000000
00000000
00000000
00000000
00000000
00000000
;

//---------------dance-double - ----------------
#NOTES:
     dance-double:
     :
     Easy:
     6:
     0.242300,0.260172,0.017219,0.060267,0.008610,197.000000,195.000000,2.000000,7.000000,0.000000,0.000000,0.242300,0.260172,0.017219,0.060267,0.008610,197.000000,195.000000,2.000000,7.000000,0.000000,0.000000:
00000000
00000000
00000000
00000000
,
00000000
00000000
00000000
00000000
,
00000000
00000000
00000000
00000000
,
00000000
00000000
00000000
00000000
,
10000000
01000000
00100000
00000000
,
00001000
00010000
00001000
00000000
,
00000010
00000100
00001000
00000000
,
00000001
00000100
00000001
00000000
,
00000010
00000100
00001000
00000100
,
00000000
00010000
00001000
00010000
,
01000000
00100000
01000000
10000000
,
00100000
00000000
01000000
00000000
,
00001000
00010000
00001000
00000000
,
00000010
00000100
00001000
00000001
,
00000100
00000010
00000100
00001000
,
00010000
00000000
00100000
10000000
,
01000000
00000000
00100000
01000000
,
10000000
00100000
01000000
00001000
,
00010000
00000000
00000001
00000010
,
00000100
00010000
00001000
00100000
,
00010000
00000000
10000000
01000000
,
00100000
01000000
10000000
00010000
,
02000000
00000000
03000000
00000000
,
00001000
00000000
00020000
00000000
,
00030002
00000000
00000103
00001000
,
00000100
00000010
00010000
00001000
,
00100000
00000000
10000000
00100000
,
00010000
01000000
00100000
00010000
,
00001000
00000000
00000010
00000001
,
00000100
00001000
00010000
00000000
,
00001000
00000010
00001000
00010000
,
01000000
01000000
10000000
00010000
,
01010000
00000000
00100000
10000000
,
00010000
00100000
00001000
00010000
,
00002000
00003000
00001000
00000010
,
00000001
00000100
00001000
00010000
,
00011000
00000000
00000000
00010000
,
00001000
00100000
00010000
10000000
,
00100000
01000000
00010000
00100000
,
01000000
00010000
00001000
00001000
,
00010000
00000010
00001000
00000001
,
00000100
00001000
00010000
01000000
,
10000000
00100000
02000000
03001000
,
00020000
00030100
00000020
00000130
,
00001000
00000001
00000100
00000001
,
00000000
00000010
00000100
00010000
,
00001000
00100000
00010000
10000000
,
00100000
00000000
01000000
00000000
,
00001000
00010000
00000100
00001000
,
00000000
00000100
00000010
00000001
,
00001000
00000010
00000100
00001000
,
00010000
00000000
01000000
10000000
,
00010000
01000000
00100000
01000000
,
00000000
00010000
10000000
01000000
,
00100000
01000000
10000000
00100000
,
01000000
00001000
00010000
00000100
,
00000010
00000100
00001000
00000001
,
00000000
00000100
00000010
00010000
,
00001000
00010000
01000000
10000000
,
00100000
00010000
00001000
00000010
,
00001000
00000000
00000000
00000000
00000000
00010000
00000000
00010000
00000000
00000000
00000000
00000000
00000000
00000000
00000000
00000000
;
