#VERSION:0.83;
#TITLE:I Know You Too Well To Like You Anymore;
#SUBTITLE:;
#ARTIST:Reel Big Fish;
#TITLETRANSLIT:;
#SUBTITLETRANSLIT:;
#ARTISTTRANSLIT:;
#GENRE:;
#ORIGIN:;
#CREDIT:;
#BANNER:I Know You Too Well To Like You Anymore.png;
#BACKGROUND:I Know You Too Well To Like You Anymore-bg.png;
#PREVIEWVID:;
#JACKET:I Know You Too Well To Like You Anymore-jacket.png;
#CDIMAGE:;
#DISCIMAGE:;
#LYRICSPATH:I Know You Too Well To Like You Anymore.lrc;
#CDTITLE:;
#MUSIC:I Know You Too Well To Like You Anymore.ogg;
#OFFSET:-0.024450;
#SAMPLESTART:59.211006;
#SAMPLELENGTH:16.700003;
#SELECTABLE:YES;
#DISPLAYBPM:226.000000;
#BPMS:0.000=226.010,
280.000=226.490,
284.000=226.750,
288.000=226.010;
#STOPS:;
#DELAYS:;
#WARPS:;
#TIMESIGNATURES:0.000=4=4;
#TICKCOUNTS:0.000=4;
#COMBOS:0.000=1;
#SPEEDS:0.000=1.000=0.000=0;
#SCROLLS:0.000=1.000;
#FAKES:;
#LABELS:0.000=Song Start;
#BGCHANGES:0.000=I Know You Too Well To Like You Anymore.avi=1.000=0=0=0=StretchNoLoop====,
99999=-nosongbg-=1.000=0=0=0 // don't automatically add -songbackground-
;
#KEYSOUNDS:;
#ATTACKS:
;

//---------------dance-single - ----------------
#NOTEDATA:;
#CHARTNAME:;
#STEPSTYPE:dance-single;
#DESCRIPTION:;
#CHARTSTYLE:;
#DIFFICULTY:Hard;
#METER:12;
#RADARVALUES:0.667589,0.795255,0.455678,0.998614,0.000000,482.000000,435.000000,47.000000,103.000000,24.000000,0.000000,0.000000,0.000000,0.000000,0.667589,0.795255,0.455678,0.998614,0.000000,482.000000,435.000000,47.000000,103.000000,24.000000,0.000000,0.000000,0.000000,0.000000;
#CREDIT:Ben Speirs;
#DISPLAYBPM:226.000000;
#NOTES:
// measure 0
0000
0000
0000
0000
,  // measure 1
0000
0000
0000
0000
,  // measure 2
0000
0000
0000
0000
,  // measure 3
0000
0000
0000
0000
,  // measure 4
1000
0000
0010
0000
MMMM
0000
0000
0001
,  // measure 5
0010
0100
2200
3303
,  // measure 6
0001
0000
0100
0000
MMMM
0000
0000
1000
,  // measure 7
0100
0000
0010
0000
0011
0000
1033
0001
,  // measure 8
1000
0000
0001
0100
0000
0100
0020
0000
,  // measure 9
2030
0000
3001
0000
1000
0100
0010
0000
,  // measure 10
0002
0000
2003
0000
3001
0100
0010
0000
,  // measure 11
0200
0000
0301
0010
3300
0100
1000
0000
,  // measure 12
0001
0000
1003
0010
0000
0010
0200
0000
,  // measure 13
0302
0000
1003
0000
0001
0010
0100
0000
,  // measure 14
2000
0000
3200
0000
0310
0001
0010
0001
,  // measure 15
0200
0000
0310
1000
0033
0001
1000
0000
,  // measure 16
0101
0000
1000
0020
0000
0032
0000
0023
,  // measure 17
0000
2030
0000
3001
0000
1000
0100
0010
,  // measure 18
0002
0000
1003
0010
0000
0100
0000
0002
,  // measure 19
0000
0000
1303
0000
0001
0010
0100
0000
,  // measure 20
2100
3331
1000
0010
,  // measure 21
0220
0000
3330
0000
1000
0001
1000
0001
,  // measure 22
0200
0000
0000
0000
,  // measure 23
0320
0000
0000
0000
1330
0001
0000
0000
,  // measure 24
0001
0100
0000
0010
1000
0010
0000
1000
,  // measure 25
0100
1000
0000
0001
0010
0001
0000
1000
,  // measure 26
0002
0103
0202
0303
,  // measure 27
1000
0010
0100
0001
0000
0001
0010
0100
,  // measure 28
1000
0010
0000
0100
0001
0100
0000
0001
,  // measure 29
0010
0001
0000
1000
0100
1000
0000
0001
,  // measure 30
2000
3010
2020
3030
,  // measure 31
0001
0010
0100
1000
0001
0100
0001
0100
,  // measure 32
0002
2003
3200
0320
,  // measure 33
0331
1000
0001
1000
0002
0000
0133
0010
,  // measure 34
3200
0302
2003
3100
,  // measure 35
1000
0010
1000
0002
0000
1003
0100
0010
,  // measure 36
0002
0203
0320
2330
,  // measure 37
3301
0100
0001
0000
2000
0000
3002
0300
,  // measure 38
1033
0100
0310
0001
2003
0000
3100
0000
,  // measure 39
1000
0010
1000
0002
0000
1003
0100
0010
,  // measure 40
0002
0203
2300
3200
,  // measure 41
0301
0000
0101
0000
1010
0000
0001
1000
,  // measure 42
0002
0023
0230
1300
,  // measure 43
0001
0010
0001
1000
0000
0001
0100
0001
,  // measure 44
2000
0000
3100
0000
1130
0000
1000
0100
,  // measure 45
0010
0001
2002
3333
,  // measure 46
0001
0100
3001
0100
0320
0000
1030
0000
,  // measure 47
0001
0010
0100
1000
0001
1000
0001
1000
,  // measure 48
0020
0130
0020
0031
,  // measure 49
0020
0000
1030
0001
1000
0000
0001
0010
,  // measure 50
0200
0000
2300
0000
3001
0000
1000
0010
,  // measure 51
0100
0000
0001
0000
1000
0001
0100
0001
,  // measure 52
1000
1100
1001
0101
,  // measure 53
2000
0000
3001
0100
0000
0100
0010
0000
,  // measure 54
1010
1001
0101
1001
,  // measure 55
1003
0100
1000
0100
0010
0001
0010
0001
,  // measure 56
1000
0000
2100
0000
3001
0100
0020
0000
,  // measure 57
2030
0000
3001
0000
1000
0100
0010
0000
,  // measure 58
0002
0000
2003
0000
3001
0100
0010
1000
,  // measure 59
0002
0013
0100
1000
,  // measure 60
1001
0000
0012
0000
1003
0010
0200
0000
,  // measure 61
0302
0000
1003
0000
0001
0010
0100
0000
,  // measure 62
2000
0000
3002
0000
1003
0010
0100
0001
,  // measure 63
2000
0000
3100
0000
0010
0001
0100
0000
,  // measure 64
1010
0000
0001
0200
0000
2300
0000
3200
,  // measure 65
0000
0302
0000
1003
0000
0001
0010
0100
,  // measure 66
2000
0000
3001
0100
0000
0010
0000
2010
,  // measure 67
0000
0000
3031
0000
1000
0010
0100
0000
,  // measure 68
0001
0012
0133
0110
,  // measure 69
2001
0000
3010
0000
1000
0100
0010
0001
,  // measure 70
0200
0000
0000
3300
,  // measure 71
2002
0000
0000
0000
3000
0000
1003
0010
,  // measure 72
1003
0000
0001
0100
0001
0000
1000
0100
,  // measure 73
1000
0000
0001
0010
0001
0000
2000
0000
,  // measure 74
3010
0000
0010
0000
0100
0001
1000
0001
,  // measure 75
0200
0310
3300
1000
,  // measure 76
0001
0011
0101
2000
,  // measure 77
3001
0100
0010
1000
0002
0000
0023
0000
,  // measure 78
3130
0000
0100
0000
1000
0100
0000
0010
,  // measure 79
0001
0101
3000
0110
,  // measure 80
1001
0000
1000
0100
0020
0000
0031
0000
,  // measure 81
0101
0000
0100
0010
2000
0000
3001
0000
,  // measure 82
1001
0000
1010
0000
0001
0010
0000
0010
,  // measure 83
0200
0000
1303
0000
0001
0100
0001
0000
,  // measure 84
2000
0000
3020
0000
0230
0000
0301
1000
,  // measure 85
0001
0000
1000
0010
0100
0001
0010
0100
,  // measure 86
2000
0000
0000
0000
,  // measure 87
3002
0000
0000
3003
,  // measure 88
0101
0101
MMMM
0000
,  // measure 89
1100
1100
MMMM
0003
,  // measure 90
0011
0011
MMMM
3000
,  // measure 91
1010
3030
1010
0000
MMMM
0000
0003
0000
,  // measure 92
0101
0000
0101
0000
1000
0100
0000
0100
,  // measure 93
0010
0001
2002
3003
,  // measure 94
1000
0000
1000
0000
0001
0100
0000
0100
,  // measure 95
0010
0000
0010
0000
1000
0001
1000
0001
,  // measure 96
0100
0202
3303
0000
;

//---------------dance-single - Scrapped SA CSP----------------
#NOTEDATA:;
#CHARTNAME:;
#STEPSTYPE:dance-single;
#DESCRIPTION:Scrapped SA CSP;
#CHARTSTYLE:;
#DIFFICULTY:Edit;
#METER:12;
#RADARVALUES:0.605262,0.701696,0.339335,0.795013,0.000000,437.000000,402.000000,35.000000,82.000000,148.000000,0.000000,0.000000,0.000000,0.000000,0.605262,0.701696,0.339335,0.795013,0.000000,437.000000,402.000000,35.000000,82.000000,148.000000,0.000000,0.000000,0.000000,0.000000;
#CREDIT:Ben Speirs - Scrapped SA CSP;
#DISPLAYBPM:226.000000;
#NOTES:
0000
0000
0000
0000
,
0000
0000
0000
0000
,
0000
0000
0000
0000
,
0000
0000
0000
0000
,
1000
0000
0010
0000
MMMM
0000
0000
0001
,
0010
0100
MMMM
3303
,
0001
0000
0100
0000
MMMM
0000
0000
1000
,
0100
0000
0010
0000
MMMM
0000
1033
0001
,
1000
0000
0001
0100
0000
0100
0020
0000
,
2030
0000
3001
0000
1000
0100
0010
0000
,
0002
0000
2003
0000
3001
0100
0010
0000
,
1000
0000
MMMM
0000
0100
0001
2000
0000
,
3002
0000
1003
0010
0000
0010
0200
0000
,
0302
0000
1003
0000
0001
0010
0100
0000
,
2000
0000
3200
0000
0310
0001
0010
0001
,
0100
0000
MMMM
0000
1030
0001
0100
0000
,
0101
0000
1000
0020
0000
0032
0000
0023
,
0000
2030
0000
3001
0000
1000
0100
0010
,
0002
0000
1003
0010
0000
0100
0000
0002
,
0000
0000
1303
0000
0001
0010
0100
0000
,
2100
3331
MMMM
0001
,
0102
0300
1003
0000
0001
0010
0100
1000
,
0002
0000
0000
0000
,
2303
0000
3000
0030
MMMM
0000
0000
0000
,
0001
0100
0000
0010
1000
0010
0000
1000
,
0100
1000
0000
0001
0010
0001
0000
1000
,
0001
MMMM
0202
0303
,
1000
0010
0100
0001
0000
0001
0010
0100
,
1000
0010
0000
0100
0001
0100
0000
0001
,
0010
0001
0000
1000
0100
1000
0000
0001
,
1000
MMMM
2020
3030
,
0001
0010
0100
1000
0001
0100
0001
0100
,
0001
1000
MMMM
1301
,
0301
1000
0010
1000
0002
0000
0133
0010
,
3200
0302
1003
MMMM
,
1000
0001
1000
0002
0000
1003
0100
0010
,
0001
1000
0010
MMMM
,
0001
1000
0100
MMMM
,
0031
0100
0301
0000
2003
0000
3100
0000
,
1000
0010
1000
0002
0000
1003
0100
0010
,
0002
0203
2300
3200
,
0301
0000
MMMM
0000
1001
0000
0001
1000
,
0002
0023
0230
1300
,
0001
0010
0001
1000
0000
0001
0100
0001
,
2000
0000
3100
0000
MMMM
0000
0001
0100
,
0020
1030
MMMM
1000
,
0001
0100
3001
0100
0320
0000
1030
0000
,
0001
0010
0100
1000
0001
1000
0001
1000
,
0020
0130
0020
0031
,
0020
1030
0001
MMMM
,
0002
0000
2303
0000
3010
0000
1000
0010
,
0100
0001
1000
MMMM
,
1000
1100
1001
MMMM
,
2000
0000
3001
0100
0000
0100
0010
0000
,
1010
1001
0101
MMMM
,
1003
0100
1000
0100
0010
0001
0010
0001
,
1000
0000
2100
0000
3001
0100
0020
0000
,
2030
0000
3001
0000
1000
0100
0010
0000
,
0002
0000
2003
0000
3001
0100
0010
1000
,
0001
0000
MMMM
0000
0001
1000
0100
0000
,
1001
0000
0012
0000
1003
0010
0200
0000
,
0302
0000
1003
0000
0001
0010
0100
0000
,
2000
0000
3002
0000
1003
0010
0100
0001
,
1000
0000
MMMM
0000
1000
0001
0100
0000
,
1010
0000
0001
0200
0000
2300
0000
3200
,
0000
0302
0000
1003
0000
0001
0010
0100
,
2000
0000
3001
0100
0000
0010
0000
2010
,
0000
0000
3031
0000
MMMM
0000
0001
1000
,
0020
0130
MMMM
0110
,
1001
0000
MMMM
0000
1000
0100
0010
0001
,
0200
0000
0000
3300
,
2002
0000
0000
0000
3000
0000
1003
0010
,
1003
0000
0001
0100
0001
0000
1000
0100
,
1000
0000
0001
0010
0001
0000
2000
0000
,
3010
0000
0010
0000
0100
0001
1000
0001
,
0200
0310
MMMM
0002
,
1003
0101
0101
2000
,
3001
0100
0010
1000
0002
0000
0023
0000
,
3130
0000
0100
0000
1000
0100
0000
0010
,
0002
0103
MMMM
0110
,
1001
0000
1000
0100
0020
0000
0031
0000
,
MMMM
0000
0001
0100
0020
0000
1030
0000
,
1001
0000
1010
0000
0001
1000
0000
1000
,
0010
0000
MMMM
0000
0001
0100
0001
0000
,
2000
0000
3020
0000
0230
0000
0301
1000
,
0001
0000
1000
0010
0100
0001
0010
0100
,
2000
0000
0000
0000
,
3002
0003
MMMM
3003
,
0101
0101
MMMM
3000
,
1100
1100
MMMM
0003
,
0011
0011
MMMM
3000
,
1010
3030
1010
0000
MMMM
0000
0003
0000
,
1000
0000
1000
0000
0001
0100
0000
0100
,
0010
0010
MMMM
0000
,
0001
0000
0001
0000
1000
0100
0000
0100
,
0010
0000
0010
0000
MMMM
0000
1000
0001
,
0100
2002
3003
0000
;

//---------------dance-single - ----------------
#NOTEDATA:;
#CHARTNAME:;
#STEPSTYPE:dance-single;
#DESCRIPTION:;
#CHARTSTYLE:;
#DIFFICULTY:Medium;
#METER:9;
#RADARVALUES:0.506925,0.608136,0.281163,0.542936,0.000000,366.000000,337.000000,29.000000,56.000000,0.000000,0.000000,0.000000,0.000000,0.000000,0.506925,0.608136,0.281163,0.542936,0.000000,366.000000,337.000000,29.000000,56.000000,0.000000,0.000000,0.000000,0.000000,0.000000;
#CREDIT:Ben Speirs;
#DISPLAYBPM:226.000000;
#NOTES:
0000
0000
0000
0000
,
0000
0000
0000
0000
,
0000
0000
0000
0000
,
0000
0000
0000
0000
,
0001
0100
0202
0303
,
1000
0000
0100
0000
2200
0030
3300
0000
,
0001
0010
0022
0033
,
1000
0010
2020
3030
,
1000
0000
0001
0100
0000
0100
0010
0000
,
1000
0100
0010
0001
,
1000
0000
1000
0000
0001
0100
0001
0000
,
2000
0000
3000
3000
0001
0000
0100
0000
,
0010
0000
1000
0001
0000
0001
0100
0000
,
0001
0010
0100
1000
,
0001
0000
0001
0000
1000
0010
1000
0000
,
0002
0000
0003
0003
1000
0000
0001
0000
,
0100
0000
0100
0010
0000
0010
0000
1000
,
0000
1000
0000
0002
0000
0000
1003
0000
,
0001
0000
0001
0100
0000
0010
0000
2000
,
0000
0000
3000
0001
,
1000
1000
0001
0100
,
0100
0000
0010
0000
1000
0100
0010
0000
,
0002
0000
0000
0000
,
2000
0000
0000
3003
,
0001
0100
0000
0000
0100
0010
0000
0000
,
0010
1000
0000
0000
1000
0001
0000
0000
,
2000
0000
3200
0000
,
1300
0000
0001
0100
0000
0100
0010
0000
,
1000
0010
0000
0000
0010
0100
0000
0000
,
0100
0001
0000
0000
0001
1000
0000
0000
,
0002
0000
0023
0000
,
0031
0000
1000
0010
0000
0010
0100
0000
,
0001
1000
0100
0100
,
1000
0001
0100
0100
,
0001
0010
0100
1000
,
0010
0000
0000
0010
0000
0000
0010
0000
,
1000
0100
1000
1000
,
0001
0100
0001
0001
,
1000
0001
0100
0010
,
0100
0000
0000
0100
0000
0000
0100
0000
,
0001
1000
0200
0300
,
1000
0001
0200
0300
,
0001
0100
0010
1000
,
0001
0000
1000
0100
0000
0010
0001
0000
,
1000
0001
0020
0030
,
0001
1000
0020
0030
,
1000
0010
0100
0001
,
1000
0000
0001
0010
0000
0010
0100
0000
,
2200
3300
0002
0003
,
1000
0001
0100
0010
,
0100
0000
0100
0000
0001
0000
1000
0001
,
1000
0001
0100
0000
,
0001
0100
0001
0000
0100
0000
0010
0000
,
1000
0001
0010
0100
,
1000
0100
1000
0000
0100
0000
0010
0000
,
0001
0001
1000
1000
,
1010
0202
0303
0110
,
2002
0000
3003
0001
,
1000
0000
1000
0000
0001
0100
0010
0000
,
0100
0000
0100
0000
0001
1000
0010
0000
,
0101
2020
3030
0110
,
2002
0000
3003
1000
,
0001
0000
0001
0000
1000
0100
0010
0000
,
0100
0000
0100
0000
1000
0010
0100
0000
,
0001
0000
0001
0100
0000
0100
0000
0010
,
0000
0010
0000
2000
0000
0000
3001
0000
,
1000
0000
1000
0100
0300
0010
0000
0002
,
0000
0000
0003
1000
,
0010
0010
0100
0001
,
0001
0000
1000
0000
0001
0010
0100
0000
,
2200
0000
3300
0000
,
0202
0000
0303
0000
,
1000
0000
0001
0100
0010
0000
1000
0000
,
0001
0000
1000
0100
0010
0000
0001
0000
,
0100
0000
0100
0000
0010
1000
0000
1000
,
0010
0100
0001
0000
,
1000
1000
0100
0010
,
0001
1000
0001
1000
0001
0000
0000
0000
,
1000
0010
0100
0100
,
0001
1000
0001
0000
,
0101
0000
0100
0010
1000
0000
0000
0000
,
1100
0000
0100
0010
0001
0000
0000
0000
,
1000
1000
0001
0001
,
0200
0300
0001
1000
,
0010
0000
0010
0000
0100
0000
0001
1000
,
0001
0000
1000
0000
0001
0010
0100
0000
,
2200
0000
3300
0000
,
0202
0000
0000
0000
0303
0303
0000
0000
,
1000
0010
2020
3030
,
0001
0100
0202
0303
,
1000
0100
2200
3300
,
0001
0010
0022
0033
,
1000
0000
0100
0000
1100
0000
0000
0100
,
0010
0010
0011
0000
,
0001
0000
0100
0000
0101
0000
0000
0100
,
0010
0010
2020
3030
,
0110
2002
3003
0000
;

//---------------dance-single - ----------------
#NOTEDATA:;
#CHARTNAME:;
#STEPSTYPE:dance-single;
#DESCRIPTION:;
#CHARTSTYLE:;
#DIFFICULTY:Easy;
#METER:6;
#RADARVALUES:0.319944,0.421017,0.087257,0.145429,0.000000,231.000000,222.000000,9.000000,15.000000,0.000000,0.000000,0.000000,0.000000,0.000000,0.319944,0.421017,0.087257,0.145429,0.000000,231.000000,222.000000,9.000000,15.000000,0.000000,0.000000,0.000000,0.000000,0.000000;
#CREDIT:Ben Speirs;
#DISPLAYBPM:226.000000;
#NOTES:
0000
0000
0000
0000
,
0000
0000
0000
0000
,
0000
0000
0000
0000
,
0000
0000
0000
0000
,
1000
0000
1000
0000
,
0001
0000
0001
0000
,
0100
0000
0100
0000
,
0010
0000
0010
1000
,
0001
0001
0000
1000
,
1000
0000
0100
0000
,
1000
0100
1000
0000
,
0001
0100
0001
0000
,
0100
0100
0000
0010
,
0010
0000
1000
0000
,
0001
0100
0001
0000
,
1000
0100
1000
0000
,
0001
0010
0100
0000
,
1000
0000
0010
0000
,
1000
0010
0100
0000
,
0001
0000
1000
0000
,
0001
0001
0000
1000
,
1000
0000
0100
0000
,
2002
0000
0000
0000
,
3003
0000
0000
0000
,
0001
0000
1000
0000
,
0010
0000
0100
0000
,
0001
0100
0010
0000
,
1000
0100
0010
0000
,
0001
0000
1000
0000
,
0010
0000
0100
0000
,
0001
0100
0010
0000
,
1000
0100
0010
0000
,
0001
1000
0010
0010
,
1000
0001
0010
0010
,
0001
0000
1000
0000
,
0020
0000
0030
0000
,
1000
0001
0100
0100
,
0001
1000
0100
0100
,
1000
0000
0001
0000
,
0200
0000
0300
0000
,
0001
0100
0010
0000
,
0100
0010
0100
0000
,
0010
1000
0100
0000
,
2000
0000
3000
0000
,
1000
0100
0010
0000
,
0100
0010
0100
0000
,
0010
0001
0100
0000
,
0002
0000
0003
0000
,
1000
0000
1000
0000
,
0010
0100
0010
0000
,
1000
0010
1000
0000
,
0001
0000
1000
0000
,
0100
0100
0010
0000
,
0010
0000
0001
0000
,
0100
0100
0010
0000
,
0010
0000
1000
0000
,
0001
0100
0000
0001
,
2000
0000
3000
0000
,
0001
0010
0001
0000
,
1000
0100
1000
0000
,
1000
0010
0000
1000
,
0002
0000
0003
0000
,
0001
0100
0001
0000
,
0001
0010
0001
0000
,
1000
0100
0010
0000
,
0001
0000
1000
0000
,
0001
0100
0010
0000
,
1000
0000
0001
0000
,
1000
0010
0000
0100
,
0001
0000
1000
0000
,
2002
0000
0000
0000
,
3003
0000
0000
0000
,
0001
0100
0001
0000
,
1000
0100
1000
0000
,
0010
0010
0100
0000
,
0020
0000
0030
0000
,
1000
0100
1000
0000
,
0001
0100
0001
0000
,
0100
0100
0010
0000
,
0200
0000
0300
0000
,
0001
0100
0010
0000
,
1000
0100
0010
0000
,
0001
1000
0001
0000
,
1001
0000
0000
0000
,
1000
0010
0100
0000
,
0001
0000
1000
0000
,
0200
0000
0300
0000
,
0020
0000
0030
0000
,
0001
0000
1001
0000
,
1000
0000
1001
0000
,
0010
0000
0110
0000
,
0100
0000
0110
0000
,
0001
0100
0001
0000
,
0100
0000
0110
0000
,
1000
0100
1000
0000
,
0100
0000
0110
0000
,
1000
0002
0003
0000
;

//---------------dance-single - ----------------
#NOTEDATA:;
#CHARTNAME:;
#STEPSTYPE:dance-single;
#DESCRIPTION:;
#CHARTSTYLE:;
#DIFFICULTY:Beginner;
#METER:3;
#RADARVALUES:0.132964,0.232687,0.019391,0.000000,0.000000,96.000000,94.000000,2.000000,0.000000,0.000000,0.000000,0.000000,0.000000,0.000000,0.132964,0.232687,0.019391,0.000000,0.000000,96.000000,94.000000,2.000000,0.000000,0.000000,0.000000,0.000000,0.000000,0.000000;
#CREDIT:Ben Speirs;
#DISPLAYBPM:226.000000;
#NOTES:
0000
0000
0000
0000
,
0000
0000
0000
0000
,
0000
0000
0000
0000
,
0000
0000
0000
0000
,
1000
0000
0000
0000
,
0000
0000
0000
0000
,
0001
0000
0000
0000
,
0000
0000
0000
0000
,
0100
0000
0000
0000
,
0100
0000
0000
0000
,
0100
0000
0000
0000
,
0000
0000
0000
0000
,
0010
0000
0000
0000
,
0010
0000
0000
0000
,
0010
0000
0000
0000
,
0000
0000
0000
0000
,
1000
0000
1000
0000
,
0000
0000
0000
0000
,
0001
0000
0001
0000
,
0000
0000
0000
0000
,
0100
0000
0000
0000
,
0100
0000
0000
0000
,
0100
0000
0000
0000
,
0000
0000
0000
0000
,
0010
0000
0010
0000
,
0010
0000
0010
0000
,
0010
0000
0000
0000
,
0000
0000
0000
0000
,
0010
0000
0010
0000
,
0010
0000
0010
0000
,
0010
0000
0000
0000
,
0000
0000
0000
0000
,
1000
0000
0000
0000
,
1000
0000
0000
0000
,
1000
0000
0000
0000
,
0000
0000
0000
0000
,
0001
0000
0000
0000
,
0001
0000
0000
0000
,
0001
0000
0000
0000
,
0000
0000
0000
0000
,
0100
0000
0000
0000
,
0100
0000
0000
0000
,
0100
0000
0000
0000
,
0000
0000
0000
0000
,
0010
0000
0000
0000
,
0010
0000
0000
0000
,
0010
0000
0000
0000
,
0000
0000
0000
0000
,
1000
0000
0000
0000
,
0000
0000
0000
0000
,
0100
0000
0000
0000
,
0000
0000
0000
0000
,
0010
0000
0010
0000
,
0010
0000
0000
0000
,
0001
0000
0001
0000
,
0001
0000
0000
0000
,
1001
0000
0000
0000
,
1000
0000
0000
0000
,
1000
0000
1000
0000
,
1000
0000
0000
0000
,
0010
0000
0000
0000
,
0010
0000
0000
0000
,
0010
0000
0010
0000
,
0010
0000
0000
0000
,
0100
0000
0000
0000
,
0100
0000
0000
0000
,
0001
0000
0000
0000
,
0001
0000
0000
0000
,
1000
0000
0000
0000
,
1000
0000
1000
0000
,
1000
0000
0000
0000
,
0000
0000
0000
0000
,
0010
0000
0010
0000
,
0010
0000
0010
0000
,
0010
0000
0000
0000
,
1000
0000
0000
0000
,
0001
0000
0001
0000
,
0001
0000
0001
0000
,
0001
0000
0000
0000
,
0100
0000
0000
0000
,
0010
0000
0000
0000
,
1000
0000
0000
0000
,
0100
0000
0100
0000
,
0100
0000
0000
0000
,
0010
0000
0010
0000
,
0010
0000
0000
0000
,
0001
0000
0000
0000
,
1000
0000
0000
0000
,
0010
0000
0000
0000
,
0010
0000
0000
0000
,
0010
0000
0000
0000
,
0010
0000
0000
0000
,
0100
0000
0000
0000
,
0100
0000
0000
0000
,
0100
0000
0000
0000
,
0100
0000
0000
0000
,
1001
0000
0000
0000
;

//---------------dance-double - ----------------
#NOTEDATA:;
#CHARTNAME:;
#STEPSTYPE:dance-double;
#DESCRIPTION:;
#CHARTSTYLE:;
#DIFFICULTY:Hard;
#METER:12;
#RADARVALUES:0.662049,0.701696,0.436287,1.153738,0.000000,478.000000,433.000000,45.000000,119.000000,48.000000,0.000000,0.000000,0.000000,0.000000,0.662049,0.701696,0.436287,1.153738,0.000000,478.000000,433.000000,45.000000,119.000000,48.000000,0.000000,0.000000,0.000000,0.000000;
#CREDIT:Ben Speirs;
#DISPLAYBPM:226.000000;
#NOTES:
00000000
00000000
00000000
00000000
,
00000000
00000000
00000000
00000000
,
00000000
00000000
00000000
00000000
,
00000000
00000000
00000000
00000000
,
10000000
00000000
00100000
00000000
MMMMMMMM
00000000
00000000
00010000
,
00100000
00001000
00022000
00033000
,
00010000
00000000
00000100
00000000
MMMMMMMM
00000000
00000000
00000001
,
00000100
00000000
00000010
00000000
00001000
00000000
00000001
00001000
,
00000002
00000000
00000013
00000100
00000030
00000100
00020000
00000000
,
00032000
00000000
00103030
00000000
00001000
01000000
00010000
00000000
,
01000000
00000000
01000000
00000000
00010000
10000000
00100000
10000000
,
00020000
00000000
00130000
00000000
01000000
10000000
00010000
00000000
,
20000000
00000000
31000000
00100000
03000000
00100000
00002000
00000000
,
00023000
00000000
03030100
00000000
00010000
00000010
00001000
00000000
,
00000010
00000000
00000010
00000000
00001000
00000001
00000100
00000001
,
00002000
00000000
00003100
00000000
00000010
00000000
00000001
00000100
,
00000002
00000000
00000103
00001000
00000000
00001000
00000000
00010000
,
00000000
00010000
00000000
02000000
00000000
13000000
00010000
10000000
,
00200000
00000000
01300000
20000000
00000000
32000000
00000000
03032000
,
00000000
00000000
00103000
00000000
00001000
00010000
00001000
00000000
,
00020100
00000000
00031000
00000000
01000000
00001000
00010000
00000000
,
00012000
00000000
00103000
00000000
00001000
00010000
00000100
00000010
,
00000002
00000000
00000000
00000000
,
00002003
00000000
00000000
00000000
,
00033001
00000100
00000000
00000100
00001000
00000100
00000000
00001000
,
00010000
00001000
00000000
00010000
01000000
00010000
00000000
01000000
,
20000000
30010000
02020000
03030000
,
10000000
00100000
10000000
00010000
00000000
00010000
00100000
01000000
,
10033000
00100000
00000000
00100000
00010000
00100000
00000000
00010000
,
00001000
00010000
00000000
00001000
00000010
00001000
00000000
00000010
,
00000002
00001003
00002020
00003030
,
00000001
00000100
00000010
00001000
00000001
00000010
00000001
00000010
,
00000200
00010300
00010100
00012000
,
00103000
00010000
00100000
00010000
02000000
00000000
03100000
00000000
,
20000000
30020000
02030000
03100000
,
10000000
01000000
00100000
00002000
00000000
00103000
00010000
01000000
,
00001000
00100000
00002000
00000000
00023000
00000000
00030200
00000000
,
00001300
00000010
00002000
00000000
00003002
00000000
00000203
00000000
,
00000301
00001000
00000100
00001000
00000002
00000000
00001003
00000000
,
00000001
00000010
00000100
00020000
00000000
00030100
00001000
00000010
,
00020000
00230000
20300000
32000000
,
03020000
00000000
00332000
00000000
00033020
00000000
00000031
00001000
,
00000002
00000203
00002300
00023000
,
00130000
01000000
00100000
02000000
00000000
03010000
00100000
01000000
,
20000000
00000000
32000000
00000000
03020000
00000000
01030000
00010000
,
00002000
00000000
00003020
00000000
00000332
00000030
00001003
00000000
,
00000001
00000100
00000010
00001000
00000020
00000000
00001033
00000100
,
00020000
00000000
00030100
00000000
00010000
00001000
00010300
00000000
,
00002000
00003010
00002000
00013000
,
00020000
00230000
20300000
30010000
,
01000000
00000000
01000000
00000000
00010000
00000000
10000000
01000000
,
00100000
00000000
00010000
00000000
01000000
00001000
00010000
00000100
,
00010000
00010100
00011000
00101000
,
00021000
00300000
00030010
00001000
00000000
00000010
00020000
00000000
,
00031000
01001000
00011000
00010100
,
00010000
00001000
00010000
00001000
00200000
00000000
01300000
00000000
,
20010000
00000000
30020000
00000000
10030000
01000000
00200000
00000000
,
00302000
00000000
00013000
00000000
00000100
00010000
00000010
00000000
,
00001010
00000000
00001010
00000000
00000001
00000100
00000010
00000100
,
00000002
00001003
00000100
00000110
,
00001002
00000000
00002003
00000000
00003001
00000010
00000200
00000000
,
00020300
00000000
00031000
00000000
00100000
00001000
01000000
00000000
,
01010000
00000000
01100000
00000000
10000000
00100000
01000000
00100000
,
20000000
30010000
01000000
01100000
,
20010000
00000000
30100000
00010000
00000000
00010000
00000000
00001000
,
00000000
00001000
00000000
00000020
00000000
00000031
00001000
00000001
,
00000200
00000000
00000310
00000002
00000000
00000023
00000000
00023030
,
00000000
00000000
00030100
00000000
00010000
00001000
00100000
00000000
,
00102000
00023000
00030100
00010100
,
00012000
00000000
00103000
00000000
00001000
00100000
01000000
10000000
,
00020000
00000000
00000000
00000000
,
20030000
00000000
00000000
00000000
30000000
00000000
00010000
10000000
,
00100000
00000000
00130000
00010000
00002000
00000000
00013000
00000100
,
00020000
00000000
00031000
00000010
00000001
00000000
00002003
00000000
,
00003010
00000000
00000010
00000000
00001000
00000001
00000100
00000001
,
00000020
00003130
00001000
00010100
,
00011000
00001000
00100000
00020000
,
10030000
00100000
01000000
00100000
20000000
00000000
30020000
00003000
,
00130000
00000000
00100000
00000000
00001000
00100000
00010000
00100000
,
00001000
00011000
00000000
00010200
,
00002300
00000000
00003001
00000100
00000010
00000000
00001000
00000000
,
00001200
00000000
00010300
00001000
00200000
00000000
00301000
00000000
,
30011000
00000000
00011000
00000000
00010000
00100000
00000000
00100000
,
20000000
00000000
30010000
00000000
00100000
01000000
10000000
00000000
,
00020000
00000000
02030000
00000000
03002000
00000000
00013000
00000100
,
00020000
00000000
00030010
00000100
00000010
00000100
00000001
00000010
,
00000200
00000000
00000000
00000000
,
00020300
00000000
00002000
00033000
,
00101000
00101000
MMMMMMMM
00000000
,
00010010
00010010
MMMMMMMM
00000000
,
01001000
01001000
MMMMMMMM
00000000
,
00010100
00010100
MMMMMMMM
00000000
,
00021000
00000000
00030200
00000000
00001300
00000010
00000000
00000010
,
00000100
00000001
00002002
00003003
,
00001200
00000000
00020300
00000000
00031000
00100000
00000000
00100000
,
00020000
00000000
20030000
00000000
30010000
01000000
00010000
01000000
,
00001000
00022000
00033000
00000000
;

//---------------dance-double - ----------------
#NOTEDATA:;
#CHARTNAME:;
#STEPSTYPE:dance-double;
#DESCRIPTION:;
#CHARTSTYLE:;
#DIFFICULTY:Medium;
#METER:9;
#RADARVALUES:0.523545,0.608136,0.281163,0.523545,0.000000,378.000000,349.000000,29.000000,54.000000,0.000000,0.000000,0.000000,0.000000,0.000000,0.523545,0.608136,0.281163,0.523545,0.000000,378.000000,349.000000,29.000000,54.000000,0.000000,0.000000,0.000000,0.000000,0.000000;
#CREDIT:Ben Speirs;
#DISPLAYBPM:226.000000;
#NOTES:
00000000
00000000
00000000
00000000
,
00000000
00000000
00000000
00000000
,
00000000
00000000
00000000
00000000
,
00000000
00000000
00000000
00000000
,
00000001
00000100
00002000
00000000
,
00013000
00001000
00020000
00000000
,
00031000
00010000
02000000
00000000
,
13000000
00010000
20000000
00000000
,
30010000
00000000
01000000
00100000
00000000
00100000
10000000
00000000
,
01000000
00100000
00010000
01000000
,
00001000
00000000
00001000
00000000
00010000
00001000
00010000
00000000
,
00000200
00000000
00001300
00000002
,
00002003
00000000
00003010
00000100
00000000
00000100
00000001
00000000
,
00000010
00000100
00001000
00000010
,
00010000
00000000
00010000
00000000
00001000
00010000
00001000
00000000
,
00200000
00000000
00000000
00000000
00310000
00000000
01000000
00010000
,
01000000
00000000
00010000
10000000
00000000
10000000
00000000
01000000
,
00000000
01000000
00000000
00200000
00000000
00000000
00301000
00000000
,
00010000
00000000
00000100
00001000
00000000
00000010
00000000
00000200
,
00000000
00000000
00000301
00000000
00001000
00000001
00001000
00000000
,
00000002
00000203
00000310
00002000
,
00003200
00000000
00010300
00000000
00001000
00010000
00001000
00000000
,
00022000
00000000
00033000
00000000
,
20020000
00000000
30030000
00000000
,
10000000
01000000
00000000
00000000
01000000
00100000
00000000
00000000
,
00100000
00001000
00000000
00000000
00001000
00010000
00000000
00000000
,
00021000
00000000
00030200
00000000
,
00001300
00000000
00000010
00000100
00000000
00000100
00000001
00001000
,
00000001
00000010
00000000
00000000
00000010
00000100
00000000
00000000
,
00000100
00010000
00000000
00000000
00010000
00001000
00000000
00000000
,
00012000
00000000
00203000
00000000
,
00310000
00000000
01000000
00100000
00000000
00100000
10000000
00000000
,
00010000
01000000
00100000
00100000
,
10000000
01000000
00100000
00100000
,
00010000
01000000
00001000
00010000
,
00000100
00000000
00000000
00000100
00000000
00000000
00000010
00000001
,
00001000
00000010
00000100
00000100
,
00000001
00000010
00000100
00000100
,
00001000
00000010
00010000
00001000
,
00100000
00000000
00000000
00100000
00000000
00000000
01000000
10000000
,
00010000
00010000
01000000
01000000
,
00001000
00001000
00010000
00010000
,
00000100
00000010
00000100
00000010
,
00000001
00000000
00000000
00001000
00000000
00000000
00000001
00000000
,
00000100
00001000
00020000
00000000
,
00031000
00010000
02000000
00000000
,
13000000
00010000
10000000
00100000
,
01000000
00000000
00010000
00100000
00000000
01000000
10000000
00010000
,
20000000
00000000
30020000
00000000
,
00130000
00001000
00010000
00000100
,
00000010
00000000
00000010
00000000
00000001
00000000
00001000
00000001
,
00001000
00000001
00000100
00000000
,
00000001
00001000
00000001
00000000
00001000
00000000
00000100
00000000
,
00010000
00000000
00001000
00100000
00000000
00100000
00010000
00000000
,
10000000
00010000
10000000
00000000
00010000
00000000
00100000
00000000
,
00001000
00000000
00010000
00000010
00000000
00000010
00000100
00000000
,
00000110
00002002
00003003
00001100
,
00000202
00003333
00001000
00000100
,
00010000
00000000
00010000
00000000
00001000
00010000
00001000
00000000
,
00100000
00000000
00100000
00000000
00010000
10000000
00100000
00000000
,
01100000
20020000
30030000
00110000
,
20200000
33330000
00010000
00100000
,
00001000
00000000
00001000
00000000
00010000
00001000
00010000
00000000
,
00000100
00000000
00000100
00000000
00001000
00000001
00000100
00000000
,
00000010
00000000
00001000
00000001
00000000
00000001
00000000
00000010
,
00000000
00000010
00000000
00000200
00000000
00000000
00010300
00000000
,
00001000
00000000
00100000
00010000
00000000
01000000
00000000
00200000
,
00000000
00000000
10300000
00000000
00010000
10000000
00010000
00000000
,
20000000
00000000
30200000
00000000
01300000
00010000
02000000
00000000
,
03302000
00013000
00000010
00000100
,
00002002
00000000
00000000
00003003
,
00000220
00000000
00000000
00000000
00000330
00000000
00000001
00000100
,
00000001
00000000
00001000
00000000
00000100
00000000
00010000
00001000
,
00010000
00001000
00100000
00010000
,
01000000
00000000
01000000
00000000
00010000
01000000
00000000
01000000
,
00100000
10000000
00010000
00000000
,
10000000
01000000
00010000
00001000
,
00010000
00001000
00010000
00001000
00010000
00000000
00001000
00000000
,
00000100
00000100
00000001
00001000
,
00000010
00000110
00000000
00001001
,
00000001
00000000
00000100
00000020
00000000
00000000
00001030
00000000
,
00000100
00000000
00010000
00002000
00000000
00000000
00103000
00000000
,
00010000
00000000
00010000
00000000
10000000
01000000
10000000
00000000
,
00010000
01000000
00100000
00000000
,
10000000
00000000
10000000
00000000
00100000
00000000
01000000
00010000
,
01000000
00000000
00010000
00000000
00100000
00001000
00100000
00000000
,
00002000
00000000
00000000
00000000
,
00020000
00000000
00000000
00033000
,
00010100
00010100
00000000
00000000
,
00101000
00101000
00000000
00000000
,
00010010
00010010
00000000
00000000
,
01001000
01001000
00000000
00000000
,
00001000
00010000
00021000
00000000
,
00030100
00001000
00001200
00000000
,
00010300
00001000
00012000
00000000
,
00103000
00010000
00210000
00000000
,
00301000
00022000
00033000
00000000
;

//---------------dance-double - ----------------
#NOTEDATA:;
#CHARTNAME:;
#STEPSTYPE:dance-double;
#DESCRIPTION:;
#CHARTSTYLE:;
#DIFFICULTY:Easy;
#METER:6;
#RADARVALUES:0.293628,0.374238,0.067867,0.242382,0.000000,212.000000,205.000000,7.000000,25.000000,0.000000,0.000000,0.000000,0.000000,0.000000,0.293628,0.374238,0.067867,0.242382,0.000000,212.000000,205.000000,7.000000,25.000000,0.000000,0.000000,0.000000,0.000000,0.000000;
#CREDIT:Ben Speirs;
#DISPLAYBPM:226.000000;
#NOTES:
00000000
00000000
00000000
00000000
,
00000000
00000000
00000000
00000000
,
00000000
00000000
00000000
00000000
,
00000000
00000000
00000000
00000000
,
10000000
10000000
00000000
00000000
,
00010000
00010000
00000000
00000000
,
00001000
00001000
00000000
00000000
,
00000001
00000001
00000000
00000000
,
00000001
00000100
00000000
00000010
,
00002000
00003000
00000000
00000100
,
00010000
00010000
00001000
00000000
,
00200000
00000000
01300000
00000000
,
10000000
00100000
00000000
01000000
,
00020000
00030000
00000000
00100000
,
00001000
00001000
00010000
00000000
,
00000200
00000000
00000310
00000000
,
00000001
00001000
00000001
00000000
,
00001000
00000000
00000100
00000000
,
00010000
00001000
00010000
00000000
,
00001000
00000000
00100000
00000000
,
00010000
01000000
00000000
01000000
,
00200000
00000000
10300000
00000000
,
20020000
00000000
00000000
00000000
,
30030000
00000000
00000000
00000000
,
10000000
00000000
01000000
00000000
,
00010000
00000000
00001000
00000000
,
00000010
00000000
00000010
00000000
,
00000001
00001000
00000001
00000000
,
00000001
00000000
00000100
00000000
,
00001000
00000000
00010000
00000000
,
00100000
00000000
00100000
00000000
,
10000000
00010000
10000000
00000000
,
00010000
00000000
00100000
00000000
,
00001000
00010000
00001000
00000000
,
00010000
00000000
00000010
00000000
,
00000200
00000000
00000300
00000001
,
00001000
00000000
00000100
00000000
,
00010000
00001000
00010000
00000000
,
00001000
00000000
01000000
00000000
,
00200000
00000000
00300000
10000000
,
00010000
01000000
00010000
00000000
,
00100000
00001000
00100000
00000000
,
00001000
00000000
00010000
00000000
,
00000020
00000000
00000030
00001000
,
00000001
00000100
00000001
00000000
,
00001000
00000100
00001000
00000000
,
00000100
00000000
00010000
00000000
,
00001000
00000000
00100000
00000000
,
20010000
00000000
00010000
00000000
,
01000000
00000000
31000000
00000000
,
10000000
01000000
00100000
00000000
,
00002000
00000000
00003000
00000000
,
00010000
00010000
00000100
00000000
,
00010000
00000000
00011000
00000000
,
00001000
00001000
01000000
00000000
,
00001000
00000000
00011000
00000000
,
00010000
00000100
00000000
00000100
,
00000020
00000000
00000030
00000000
,
00000001
00001000
00000001
00000000
,
00001000
00000100
00010000
00000000
,
00001000
00100000
00000000
00100000
,
02000000
00000000
03000000
00000000
,
10000000
00010000
10000000
00000000
,
00010000
00000000
00100000
00000000
,
00001000
00010000
00001000
00000000
,
00010000
00000000
00000100
00000000
,
00001000
00000001
00001000
00000000
,
00000020
00000000
00000030
00000000
,
00001000
00000010
00000000
00000010
,
00000200
00000300
00000001
00000000
,
00002002
00000000
00003003
00000000
,
00000220
00000000
00000330
00000000
,
00001000
00000010
00001000
00000000
,
00000100
00010000
00000100
00000000
,
00010000
00001000
00100000
00000000
,
00002000
00000000
00003000
00000000
,
00100000
00100000
00010000
00000000
,
10000000
10000000
00100000
00000000
,
01000000
00000000
00001000
00000000
,
00020000
00000000
00030000
00000000
,
00000100
00000010
00000001
00000000
,
00000100
00000010
00001000
00000000
,
00000010
00000000
00010000
00000000
,
00001000
00000000
00000000
00000000
,
00100000
00100000
01000000
00000000
,
10000000
00000000
00010000
00000000
,
20020000
00000000
00000000
00000000
,
30030000
00000000
00000000
00000000
,
10000000
01000000
00000000
00000000
,
01000000
00010000
00000000
00000000
,
00010000
00001000
00000000
00000000
,
00001000
00000100
00000000
00000000
,
00000001
00000001
00000000
00000000
,
00001000
00001000
00000000
00000000
,
00010000
00010000
00000000
00000000
,
10000000
10000000
00000000
00000000
,
10000000
00020000
00030000
00000000
;

//---------------dance-double - 2P CO-OP----------------
#NOTEDATA:;
#CHARTNAME:;
#STEPSTYPE:dance-double;
#DESCRIPTION:2P CO-OP;
#CHARTSTYLE:;
#DIFFICULTY:Edit;
#METER:11;
#RADARVALUES:0.952907,1.447353,2.065094,3.306090,2.074790,688.000000,392.000000,213.000000,341.000000,32.000000,98.000000,347.000000,0.000000,0.000000,0.952907,1.447353,2.065094,3.306090,2.074790,688.000000,392.000000,213.000000,341.000000,32.000000,98.000000,347.000000,0.000000,0.000000;
#CREDIT:Ben Speirs - 2P COUPLES;
#DISPLAYBPM:226.000000;
#NOTES:
00000000
00000000
00000000
00000000
,
00000000
00000000
00000000
00000000
,
00000000
00000000
00000000
00000000
,
00000000
00000000
00000000
00000000
,
02000000
03000000
00000000
00000000
02000000
03000000
00000000
00000000
00000440
00003333
00000000
00000000
00000000
00000000
00000000
00000000
,
00200000
00300000
00000000
00000000
00200000
00300000
00000000
00000000
00004004
00003333
00000000
00000000
00000000
00000000
00000000
00000000
,
00000040
00000030
00000000
00000000
00000040
00000030
00000000
00000000
02200000
33330000
30030000
00000000
00000000
00000000
00000000
00000000
,
00000400
00000300
00000000
00000000
00000400
00000300
00000000
00000000
20020000
33330000
00000000
00000000
20000004
30000003
00024000
00033000
,
20000004
00000000
00000000
30000003
00000000
00000000
00000000
00000000
00000000
00000000
00000000
00000000
00200400
00000000
00000000
00300300
00000000
00000000
00000000
00000000
00000000
00000000
00000000
00000000
20000040
00000000
00000000
30000030
00000000
00000000
00000000
00000000
00000000
00000000
00000000
00000000
00240000
00000000
00000000
00330000
00030000
00000000
00000000
00000000
00000000
00000000
00000000
00000000
,
20044000
00000000
00000000
30033000
00033000
00000000
00000000
00000000
00000000
00000000
00000000
00000000
02004000
00000000
00000000
03003000
00003000
00000000
00000000
00000000
00000000
00000000
00000000
00000000
20400000
00000000
00000000
30330000
00300000
00000000
00000000
00000000
00000000
00000000
00000000
00000000
02400000
00000000
00000000
03300000
00300000
00000000
00000000
00000000
00000000
00000000
00000000
00000000
,
20440000
00000000
00000000
30330000
00330000
00000000
00000000
00000000
00000000
00000000
00000000
00000000
20044000
00000000
00000000
30033000
00033000
00000000
00000000
00000000
00000000
00000000
00000000
00000000
02004000
00000000
00000000
33003000
00003000
00000000
20040000
00000000
00000000
30030000
00000000
00000000
00200400
00000000
00000000
00300300
00000000
00000000
00000000
00000000
00000000
00000000
00000000
00000000
,
20200040
30300030
00000000
00000000
20000004
30000003
00300000
00000000
00024000
00033000
00000000
00000000
20000004
30000003
00000000
00000000
,
20000004
00000000
00000000
30000003
00000000
00000000
00000000
00000000
00000000
00000000
00000000
00000000
00200400
00000000
00000000
00300300
00000000
00000000
00000000
00000000
00000000
00000000
00000000
00000000
02000004
00000000
00000000
03000003
00000000
00000000
00000000
00000000
00000000
00000000
00000000
00000000
00002400
00000000
00000000
00003300
00003000
00000000
00000000
00000000
00000000
00000000
00000000
00000000
,
00022004
00000000
00000000
00033003
00033000
00000000
00000000
00000000
00000000
00000000
00000000
00000000
00020040
00000000
00000000
00030030
00030000
00000000
00000000
00000000
00000000
00000000
00000000
00000000
00000204
00000000
00000000
00003303
00000300
00000000
00000000
00000000
00000000
00000000
00000000
00000000
00000240
00000000
00000000
00000330
00000300
00000000
00000000
00000000
00000000
00000000
00000000
00000000
,
00002204
00000000
00000000
00003303
00003300
00000000
00000000
00000000
00000000
00000000
00000000
00000000
00002004
00000000
00000000
00033003
00033000
00000000
00000000
00000000
00000000
00000000
00000000
00000000
00020040
00000000
00000000
00030033
00030000
00000000
00002004
00000000
00000000
00003003
00000000
00000000
00200400
00000000
00000000
00300300
00000000
00000000
00000000
00000000
00000000
00000000
00000000
00000000
,
02000404
03000303
00000000
00000000
20000004
30000003
00000300
00000000
00024000
00033000
00000000
00000000
20000004
30000003
00000000
00000000
,
20200404
30300303
00000000
00000000
00200000
00300000
20000000
30000000
00000000
00000000
00020000
00030000
00000000
00000000
00200000
00300000
,
00000000
00000000
00000020
00000030
00000000
00000000
00200000
00300030
00000000
00000000
00000004
00000003
00000400
00000300
00000000
00000000
,
00000004
00000003
00000000
00003000
00004000
00003300
00000400
00000300
00000000
00000000
04000000
03000000
00000000
00000000
00000400
00000300
,
00000000
00000000
00000000
00000000
04000020
03000030
00000000
00000000
00042000
00333000
00000000
00000000
40000002
30000003
00000000
00000000
,
40400202
30300303
30300000
00000000
04042020
03033030
00000000
00000000
00042000
00033000
00000000
00000000
00442200
00333300
00000000
00000000
,
44000022
33000033
00000033
00000000
00042000
00033000
00000000
00000000
40000002
30000003
04000020
03000030
00400200
00300300
00042000
00033000
,
40000002
30000003
00000000
00000000
00000000
00000000
00000000
00000000
00000000
00000000
00000000
00000000
00000000
00000000
00000000
00000000
,
04400220
03300330
00000000
00000000
00000000
00000000
00000000
00000000
00000000
00000000
00000000
00000000
00000000
00000000
00000000
00000000
,
40000002
30000003
00400000
00300000
00000022
00000033
00400000
00300000
04000000
03000000
00040000
00030000
00000022
00000033
00040000
00030000
,
00400002
00300003
00004000
00003000
00000202
00000333
00004000
00003000
00040000
00030000
00004000
00003000
00000002
00000003
00040000
00030000
,
00000242
00000333
00000000
00000000
00000000
00000000
00000000
00000000
00040242
00030333
00000000
00000000
00000000
00000000
00000000
00000000
,
00040002
00030003
00004000
00003000
00400200
00300300
00040000
00030000
00000020
03000030
00040000
00330000
40002000
30003000
00400000
00330003
,
40000002
00000000
00000000
00000003
30000000
00000000
00000200
00000000
00000000
00000300
00000000
00000000
44000000
00000000
00000000
00000000
33000000
00000000
00000200
00000000
00000000
00000300
00000000
00000000
00000020
00000000
00000000
00000030
00000000
00000000
00002000
00000000
00000000
00003000
00000000
00000000
44000000
00000000
00000000
33000000
33000000
00000000
00002000
00000000
00000000
00003000
00000000
00000000
,
40000200
00000000
00000000
30000300
30000000
00000000
00020000
00000000
00000000
00030000
00000000
00000000
40400000
00000000
00000000
33300000
30300000
00000000
00020000
00000000
00000000
00033000
00000000
00000000
00002000
00000000
00000000
00033000
00000000
00000000
00020000
00000000
00000000
00033000
00000000
00000000
40000000
00000000
00000000
30000000
00000000
00000000
00002000
00000000
00000000
00003000
00000000
00000000
,
42400000
33300000
00000000
00000000
00000000
00000000
00000000
00000000
42402000
33303000
00000000
00000000
00000000
00000000
00000000
00000000
,
40002000
30003000
00020000
00030000
00400200
00300300
00002000
00003000
04000000
03000030
00002000
00003300
00040002
00030003
00000200
30003300
,
40000002
30000003
04000000
03000000
0040M000
00300M00
000000M0
0000000M
00040000
00030000
00000000
00000000
04040000
03030000
00000000
00000000
,
00004000
00003000
00040000
00030000
00004000
00003000
00040000
00030000
00000400
00000300
00000000
00000000
00004400
00003300
00000000
00000000
,
00000004
00000003
00000000
00000000
00004000
00003000
00000000
00000000
00000400
00000300
00000300
00000000
00040000
00033000
00000000
00000000
,
00004000
00003000
00000000
00000000
00400000
00300003
00040000
00030300
0000000M
000000M0
00040M00
0003M000
40000000
30000030
00000000
00000000
,
40400002
30300003
00000200
00000300
000M0020
00M00030
0M000000
M0000000
00002000
00003000
00000000
00000000
00002200
00003300
00000000
00000000
,
00020000
00030000
00002000
00003000
00200000
00300000
00000000
00000000
00020000
00030000
00000000
00000000
20020000
30030000
00000000
00000000
,
20000000
30000000
00000000
00000000
02000000
03000000
03000000
00000000
00200000
00300000
00000000
00000000
00002000
00003000
00000000
00000000
,
00020000
00030000
00000000
00000000
00000020
00000030
00002000
00003000
M0000000
0M000000
00M02000
000M3000
00000002
00000003
00000000
00000000
,
40000022
30000033
00000000
00000000
0400M000
03000M00
000000M0
0000000M
00040000
00030000
00000000
00000000
00040000
00030000
00000000
00000000
,
00004000
00003000
00000000
00000000
00000400
00000300
00000000
00000000
00000004
00000003
00000000
00000000
00000004
00000003
00000000
00000000
,
00000400
00000300
00000000
00000000
00004000
00003000
00000000
00000000
00040000
00030000
00000000
00000000
04000000
03000000
00000000
00000000
,
40000000
30000000
00040000
00030000
40000000
30000000
00040000
00030000
0000000M
000000M0
40000M00
3000M000
04000000
03000000
00000000
00000000
,
44000002
33000003
00000000
00000000
000M0200
00M00300
0M000000
M0000000
00002000
00003000
00000000
00000000
00002000
00003000
00000000
00000000
,
00020000
00030000
00000000
00000000
02000000
03000000
00000000
00000000
20000000
30000000
00000000
00000000
20000000
30000000
00000000
00000000
,
02000000
03000000
00000000
00000000
00020000
00030000
00000000
00000000
00002000
00003000
00000000
00000000
00000200
00000300
00000000
00000000
,
00000002
00000003
00002000
00003000
00000002
00000003
00002000
00003000
M0000000
0M000000
00M00002
000M0003
00000200
00000300
00000000
00000000
,
40000202
33000303
00000000
00000000
00040002
00030003
00000000
00000000
00400200
00300300
00000000
00000000
00004200
00003300
00000000
00000000
,
00040002
03033003
00000000
00000000
00000240
00003330
00000000
00000000
00040002
00033033
00000000
00000000
00004002
00033003
00000000
00000000
,
00040020
00030030
00000000
00000000
00040002
00030003
00000000
00000000
00000420
00000330
00000000
00000000
00040020
00030030
00004000
00003000
,
04003002
03000003
00000000
00000000
00400020
00300030
00000000
00000000
40000002
30000003
00000000
00000000
00400002
03330003
00000000
00000000
,
40402002
30303033
00000000
00000000
40002000
30003000
00000000
00000000
00400200
00300300
00000000
00000000
00420000
00330000
00030000
00000000
,
40002000
30033030
00000000
00000000
02400000
03330000
00002000
00003000
40000000
33033000
00002000
00003000
40020000
30033000
00030000
00000000
,
44020200
33033300
00000000
00000000
44020200
33033300
00000000
00000000
04400220
03300330
00000000
00000000
04400220
03303330
00000000
00030000
,
40040002
30030033
00000000
00000000
00042000
03033300
40000002
30000003
00000000
30000003
00042000
00033000
40000002
30003033
00000000
00000000
,
04042020
03033030
00000000
00000000
04000020
03000030
00000000
00000000
00400200
00300300
00000000
00000000
40000002
30000003
00042000
00033000
,
40000002
30000003
00000000
00000000
04000020
03000030
00000000
00000000
00400200
00300300
00000000
00000000
00042000
00033000
00000000
00000000
,
00442200
00333300
00000000
00000000
00442200
00333300
00000000
00000000
00042000
00033000
04000020
03000030
00400200
00300300
04000020
03000030
,
00042000
00033000
00000000
00000000
00400200
00300300
00000000
00000000
04000020
03000030
00000000
00000000
40000002
30000003
00000000
00000000
,
40400202
30300303
00000303
00000000
40042002
30033003
00000000
00000000
00042000
00033000
00000000
00000000
04042020
03033030
00000000
00000000
,
40042002
30033003
00000000
00000000
40000002
30000003
00000000
00000000
04000020
03000030
00000000
00000000
00400200
00300300
00000000
00000000
,
00042000
00033000
00000000
00000000
00042000
00033000
00000000
00000000
40000002
30000003
04000020
03000030
00400200
00300300
04000020
03000030
,
40000002
30000003
00000000
00000000
00042000
00033000
00000000
00000000
04000020
03000030
00000000
00000000
00400200
00300300
00000000
00000000
,
40400202
30300303
00000000
00000000
00000002
00000003
00000200
00000300
00000000
00000000
00002000
00003000
00000000
00000000
02000000
03300000
,
00000000
00000000
00000200
00000300
00000000
00000000
02000000
03000000
00000000
00000000
40000000
30000000
00040000
00030000
00000000
00000000
,
00400000
00300000
00000000
00000000
00400000
00330000
00000040
00000030
00000000
00000000
00004000
00003000
00000000
00000000
00000004
00003003
,
00000000
00000000
00000000
00000000
00000000
00000000
00000000
00000000
00000000
00000000
00000000
03000000
02000004
03000003
00000000
00000000
,
02024040
33033030
00000000
00000000
20000004
30000003
00000000
00000000
00024000
00033000
00000000
00000000
20000004
30000003
00000000
00000000
,
20200404
30300303
00000000
00000000
00024000
00033000
00000000
00000000
20000004
30000003
02000040
03000030
00200400
00300300
00024000
00033000
,
20000004
30000003
00000000
00000000
00000000
00000000
00000000
00000000
00000000
00000000
00000000
00000000
00000000
00000000
00000000
00000000
,
00200400
00300300
00000000
00000000
00000000
00000000
00000000
00000000
00000000
00000000
00000000
00000000
20000000
30000000
00200000
03300000
,
20000000
30000000
00000000
00000000
00000004
00000033
00000400
00000300
00000004
00000033
00000000
00000000
00020000
00030000
02000000
03300000
,
00020000
00030000
00000000
00000000
00004000
00003000
00000040
00000030
00004000
00003000
00000000
00000000
02000040
03000030
00000000
00000000
,
00400200
00303300
00000000
00000000
00400200
00300300
00000000
00000000
00042000
00033000
00000000
00300000
40000002
30000003
00042000
00033000
,
40000002
30033003
00000000
00000000
00000000
00030000
00000000
00000000
00000000
03000000
00000000
00000000
00002000
30333000
00000000
00000000
,
00000020
30300330
00000000
00000000
00200000
03300000
00000000
00000000
00200020
03300330
00000000
00000000
00040000
00030000
00000000
00000000
,
04000000
03000000
00000000
00000000
00000400
00000300
00000000
00000000
04000400
03000300
00000000
00000000
04000020
03000030
00000000
00000000
,
00200400
00300300
00000000
00000000
00024000
00033000
00000000
00000000
20000004
30000003
00000000
00000000
00200400
00300300
00000000
00000000
,
20024004
30033003
00000000
00000000
02200440
03300330
00000000
00000000
00000000
00000000
00000000
00000000
20200404
30300303
00000000
00000000
,
02024004
33033003
00000000
00000000
02000000
03000000
00200000
00300000
20000000
30030000
00000000
00000000
00000000
00000000
00004000
00003003
,
00000400
00000300
00000000
00000000
00000040
00000030
00000004
00003003
00004000
00003003
00000000
00000000
00000000
00000000
00000000
00000000
,
20000004
33000003
00000000
00000000
02000040
03000030
00000000
00000000
00024000
00033000
00000000
00000000
00200400
00300300
00000000
00000000
,
20000004
30000003
00000000
00000000
00000000
00000000
00000000
00000000
00000000
00000000
00000000
00000000
00024000
00033000
00000000
00000000
,
02024040
03033030
00000000
00000000
20024004
30033003
00000000
00000000
20200404
30300303
00000000
00000000
20000004
30000003
02000040
03000030
,
00200400
00300300
00000000
00000000
00024000
00033000
20000004
30000003
00024000
00033000
00000000
00000000
02000040
03000030
00000000
00000000
,
02204004
33333003
00000000
00000000
00000000
00000000
00000000
00000000
00000000
03300330
00000000
00000000
00000000
00000000
00000000
00000000
,
20020440
33330330
00000000
00000000
00000000
00000000
00000000
00000000
00000000
00000000
00000000
00000000
00000000
00000000
00000000
00000000
,
20000000
30000000
00000000
00000000
20000000
30000000
00000000
00000000
00400040
00300030
00000000
00000000
00000000
00000000
00000000
00000000
,
00020000
00033000
00000000
00000000
00020000
00030000
00000000
00000000
00400040
00300030
00000000
00000000
00000000
00000000
00000000
00000000
,
00002000
00003300
00000000
00000000
00002000
00003000
00000000
00000000
00400040
00300030
00000000
00000000
00000000
00000000
00000000
00000000
,
00000002
00000003
00000000
00000000
00000002
00000003
00000000
00000000
00400040
00300030
00000000
00000000
00000000
00000000
00000000
00000000
,
00000002
00000003
00000000
00000000
00000002
00000003
00000000
00000000
00400040
00300030
00000000
00000000
00000000
00000000
00000000
00000000
,
00002000
00003000
00000000
00000000
00002000
00003000
00000000
00000000
00400040
00300030
00000000
00000000
00000000
00000000
00000000
00000000
,
00020000
00030000
00000000
00000000
00020000
00030000
00000000
00000000
00400040
00300030
00000000
00000000
00000000
00000000
00000000
00000000
,
20000000
30000000
00000000
00000000
20000000
30000000
00000000
00000000
02400040
03300030
00000000
00000000
00000000
00000000
00000000
00000000
,
22440000
33333000
00000000
00000000
22440000
33330000
00000000
00000000
00000000
00000000
00000000
00000000
00000000
00000000
00000000
00000000
;
