#VERSION:0.83;
#TITLE:Holdin On;
#SUBTITLE:(Skrillex & Nero Remix);
#ARTIST:MONSTA;
#TITLETRANSLIT:;
#SUBTITLETRANSLIT:;
#ARTISTTRANSLIT:;
#GENRE:;
#ORIGIN:;
#CREDIT:;
#BANNER:Holdin On (Skrillex and Nero Remix).png;
#BACKGROUND:Holdin On (Skrillex and Nero Remix)-bg.png;
#PREVIEWVID:;
#JACKET:Holdin On (Skrillex and Nero Remix)-jacket.png;
#CDIMAGE:;
#DISCIMAGE:;
#LYRICSPATH:;
#CDTITLE:;
#MUSIC:Holdin On (Skrillex and Nero Remix).ogg;
#OFFSET:-0.060000;
#SAMPLESTART:22.120260;
#SAMPLELENGTH:11.034483;
#SELECTABLE:YES;
#BPMS:0.000=174.000;
#STOPS:171.750=1.379;
#DELAYS:;
#WARPS:;
#TIMESIGNATURES:0.000=4=4;
#TICKCOUNTS:0.000=4;
#COMBOS:0.000=1;
#SPEEDS:0.000=1.000=0.000=0;
#SCROLLS:0.000=1.000,
24.000=0.750,
128.000=1.000,
159.750=0.100,
171.750=1.000,
300.000=0.750;
#FAKES:;
#LABELS:0.000=Song Start;
#BGCHANGES:;
#KEYSOUNDS:;
#ATTACKS:
;

//---------------dance-single - ----------------
#NOTEDATA:;
#CHARTNAME:;
#STEPSTYPE:dance-single;
#DESCRIPTION:;
#CHARTSTYLE:;
#DIFFICULTY:Challenge;
#METER:13;
#RADARVALUES:0.552851,0.673981,0.471062,0.507298,0.170307,534.000000,469.000000,65.000000,70.000000,21.000000,14.000000,0.000000,0.000000,0.000000,0.552851,0.673981,0.471062,0.507298,0.170307,534.000000,469.000000,65.000000,70.000000,21.000000,14.000000,0.000000,0.000000,0.000000;
#CREDIT:Daniel Van Eden;
#NOTES:
// measure 0
0000
0000
0000
0000
,  // measure 1
0000
0000
0000
0000
,  // measure 2
0000
0000
0000
0000
,  // measure 3
0000
0000
0000
0000
,  // measure 4
0000
0000
0000
0000
,  // measure 5
0000
0000
0000
0000
,  // measure 6
0000
0000
0000
0000
,  // measure 7
0000
0000
0000
0000
,  // measure 8
2000
0001
0100
0001
,  // measure 9
3020
1000
0230
0010
,  // measure 10
0302
1000
0100
1000
,  // measure 11
0023
0001
0230
1000
,  // measure 12
0320
0001
1000
0001
,  // measure 13
0230
0010
2300
0001
,  // measure 14
3020
1000
0100
0001
,  // measure 15
0230
0000
0301
0000
0011
0001
1000
0000
,  // measure 16
1001
0000
0000
0000
0001
0000
0000
0000
0100
0000
0000
0100
0000
0000
0010
0000
,  // measure 17
2000
0010
0000
3001
0010
0100
0000
0010
,  // measure 18
0002
0000
1010
0000
,  // measure 19
0000
0000
1000
0000
2203
3301
0000
0001
,  // measure 20
1000
0000
0001
0100
0010
0100
0000
0100
,  // measure 21
0000
0100
0001
0010
0002
0010
0000
2003
,  // measure 22
0100
0000
0000
0000
3101
0000
0000
0001
,  // measure 23
0010
0000
0110
0000
0100
0001
0100
1000
,  // measure 24
0010
0000
0000
0000
0000
0000
1000
0000
0100
0000
0000
0100
0000
0000
0010
0000
,  // measure 25
0002
0010
0000
1003
0010
0100
0000
0010
,  // measure 26
2000
0000
0101
0000
,  // measure 27
0000
0000
0010
0000
3022
0133
0000
0000
,  // measure 28
0110
0000
0000
0100
0000
0000
0001
0000
0010
0000
0000
0100
0000
0000
0100
0000
,  // measure 29
0010
0000
0000
1000
0000
0000
0010
0000
0001
0000
0000
0000
1000
0000
0002
0000
,  // measure 30
0010
0000
1010
0000
,  // measure 31
1000
0000
0100
0000
2203
3310
0100
0010
,  // measure 32
1000
0000
0000
1000
0010
0000
0001
0000
0020
0000
0000
0000
0000
0000
0130
0000
,  // measure 33
0001
0000
0000
0001
0010
0000
1000
0000
0020
0000
0000
0000
0000
0000
0130
0000
,  // measure 34
1000
0000
0000
1000
0100
0000
0010
0000
0001
0000
0000
0000
1000
0000
0020
0000
,  // measure 35
0000
0000
0000
0000
0030
0000
0000
0100
,  // measure 36
0001
0000
0000
0001
0100
0000
1000
0000
0200
0000
0000
0000
0000
0000
0310
0000
,  // measure 37
1000
0000
0000
1000
0100
0000
0001
0000
0200
0000
0000
0000
0310
0000
0001
0000
,  // measure 38
1000
1000
0010
0010
0100
0100
0001
0001
,  // measure 39
0010
0000
0010
0000
0100
0000
0100
0000
1000
0001
1000
0001
1000
0001
1000
0002
,  // measure 40
0000
0000
0000
0000
,  // measure 41
0000
0000
0000
0000
,  // measure 42
0000
0000
0000
0000
0000
0000
0000
0000
0000
0000
0000
0000
0000
0000
0000
0003
,  // measure 43
0110
0000
2001
0000
3010
0100
0100
0100
,  // measure 44
0100
0000
0001
0000
0010
000M
0010
0000
1000
0000
0010
0000
0100
0000
0001
0000
,  // measure 45
1000
0000
2100
0000
3001
0010
0010
0010
,  // measure 46
0010
0000
0100
0000
1000
0000
1000
0000
0100
M000
0100
0000
0001
0000
1000
0000
,  // measure 47
0010
0000
0210
0000
0301
0010
0010
0010
,  // measure 48
0010
0000
0001
0000
0100
000M
0100
0000
1000
0000
0100
0000
0010
0000
0001
0000
,  // measure 49
0100
0000
0102
0000
0013
0100
0100
0100
,  // measure 50
1100
0000
2000
3011
0000
0002
1103
0000
,  // measure 51
0110
0000
1002
0000
0013
0100
0100
0100
,  // measure 52
0100
0000
1000
0000
0100
M000
0100
0000
0001
0000
0100
0000
0010
0000
1000
0000
,  // measure 53
0010
0000
0120
0000
1030
0100
0100
0100
,  // measure 54
0100
0000
0010
0000
0001
0000
0001
0000
0010
000M
0010
0000
1000
0000
0001
0000
,  // measure 55
0100
0000
1020
0000
0130
0001
0001
0001
,  // measure 56
0001
0000
1000
0000
0010
M000
0010
0000
0001
0000
0010
0000
0100
0000
1000
0000
,  // measure 57
0001
0000
2001
0000
3010
0100
0100
0100
,  // measure 58
0020
0000
1030
0000
2000
0001
3001
0000
,  // measure 59
1001
0000
0000
0000
0021
0000
0000
0000
0031
1000
0001
0000
0001
0000
0001
0000
,  // measure 60
0001
0000
1000
0000
0010
M000
0010
0000
0001
0000
0100
0000
0001
0000
0010
0000
,  // measure 61
0100
0000
2100
0000
3010
0010
0010
0010
,  // measure 62
0010
0000
1000
0000
0100
M000
0100
0000
0001
0000
0001
0000
1000
0000
0010
0000
,  // measure 63
0100
0000
0000
0000
0120
0000
0000
0000
1030
0001
1000
0000
1000
0000
1000
0000
,  // measure 64
1000
0000
0001
0000
0100
000M
0100
0000
1000
0000
0100
0000
0010
0000
0001
0000
,  // measure 65
1000
0000
0012
0000
0103
0100
0100
0100
,  // measure 66
0020
0000
0000
0000
1000
0000
0000
0000
1000
0030
0000
0000
0001
0000
0000
0000
0101
0000
0000
0000
1100
0000
0000
0000
,  // measure 67
1001
0000
0000
0000
2010
0000
0000
0000
3001
0000
1000
0000
1000
0000
0010
M000
,  // measure 68
0010
0000
0001
0000
0100
0000
0010
0M00
0010
0000
0001
0000
0100
0000
0010
0000
,  // measure 69
1000
0000
0000
0000
1020
0000
0000
0000
1030
0000
0100
M000
0100
0000
0001
0000
,  // measure 70
1000
0000
0001
0000
0100
000M
0100
0000
1000
0000
0001
0000
0010
0000
0001
0000
,  // measure 71
0001
0000
0000
0000
1020
0000
0000
0000
0130
0000
0001
0000
0001
0000
0100
000M
,  // measure 72
0100
0000
1000
0000
0010
0000
0100
00M0
0100
0000
1000
0000
0001
0000
0010
0000
,  // measure 73
0100
0000
1000
0000
0100
1000
0001
0000
,  // measure 74
1000
0010
1000
0000
0100
0000
0010
0001
0010
0000
0100
0000
1000
0000
0000
0000
,  // measure 75
2002
0000
3003
0000
1001
0001
0001
0001
,  // measure 76
0101
0001
0001
0001
0011
0010
0100
0000
,  // measure 77
2200
0000
3300
0000
1001
1000
1000
1000
,  // measure 78
1100
1000
1000
1000
1020
0000
0130
0000
,  // measure 79
0202
0000
0303
0000
0011
0010
0010
0010
,  // measure 80
0110
0100
0100
0100
1100
1000
0010
0000
,  // measure 81
2020
0000
3030
0000
0110
0100
0100
0100
,  // measure 82
0001
0000
0010
0000
1000
0000
0020
0000
0000
0130
0000
0000
,  // measure 83
2002
0000
0000
0000
3003
0000
0000
0000
1010
0000
0010
M000
0010
0000
0001
0000
,  // measure 84
0011
0000
0010
000M
0010
0000
1000
0000
1010
0000
0010
0000
0100
0000
0000
0000
,  // measure 85
0202
0000
0000
0000
0303
0000
0000
0000
1100
0000
0100
M000
0100
0000
0001
0000
,  // measure 86
0101
0000
0100
000M
0100
0000
1000
0000
1200
0000
0000
0000
0310
0000
0000
0000
,  // measure 87
0022
0000
0000
0000
0033
0000
0000
0000
0011
0000
0010
000M
0010
0000
1000
0000
,  // measure 88
1100
0000
0100
M000
0100
0000
0001
0000
0101
0000
0100
0000
0010
0000
0000
0000
,  // measure 89
2010
0000
0000
3011
2000
0000
3101
0000
,  // measure 90
0011
0000
0000
0000
0010
0000
0000
0000
0100
0000
0000
0000
1000
0000
0000
0000
0000
0000
0100
0000
0000
0010
0000
0000
,  // measure 91
0002
0000
0000
0000
,  // measure 92
0000
0000
0000
0000
,  // measure 93
0003
0000
0000
0000
;
