#VERSION:0.83;
#TITLE:Hiho;
#SUBTITLE:;
#ARTIST:Captain Jack;
#TITLETRANSLIT:;
#SUBTITLETRANSLIT:;
#ARTISTTRANSLIT:;
#GENRE:;
#ORIGIN:;
#CREDIT:;
#BANNER:banner.png;
#BACKGROUND:Hiho-bg.png;
#PREVIEWVID:;
#JACKET:jacket.png;
#CDIMAGE:;
#DISCIMAGE:;
#LYRICSPATH:;
#CDTITLE:;
#MUSIC:Hiho.ogg;
#OFFSET:0.076000;
#SAMPLESTART:73.616402;
#SAMPLELENGTH:12.000000;
#SELECTABLE:YES;
#BPMS:0.000=146.000;
#STOPS:;
#DELAYS:;
#WARPS:;
#TIMESIGNATURES:0.000=4=4;
#TICKCOUNTS:0.000=4;
#COMBOS:0.000=1;
#SPEEDS:0.000=1.000=0.000=0;
#SCROLLS:0.000=1.000;
#FAKES:;
#LABELS:0.000=Song Start;
#BGCHANGES:;
#KEYSOUNDS:;
#ATTACKS:
;

//---------------dance-single - ----------------
#NOTEDATA:;
#CHARTNAME:;
#STEPSTYPE:dance-single;
#DESCRIPTION:;
#CHARTSTYLE:;
#DIFFICULTY:Beginner;
#METER:2;
#RADARVALUES:0.123000,0.145891,0.009567,0.000000,0.000000,90.000000,89.000000,1.000000,0.000000,0.000000,0.000000,0.000000,0.000000,0.000000,0.123000,0.145891,0.009567,0.000000,0.000000,90.000000,89.000000,1.000000,0.000000,0.000000,0.000000,0.000000,0.000000,0.000000;
#CREDIT:;
#NOTES:
0000
0000
0000
0000
,
0000
0000
0000
0000
,
0000
0000
0000
0000
,
0000
0000
0000
0000
,
0000
0000
0000
0000
,
1000
0000
1000
0000
,
0100
0000
0100
0000
,
0010
0000
0010
0000
,
0001
0000
0000
0000
,
0001
0000
0001
0000
,
0100
0000
0100
0000
,
0010
0000
0010
0000
,
1000
0000
0000
0000
,
1000
0000
1000
0000
,
0100
0000
0000
0000
,
0010
0000
0010
0000
,
0001
0000
0000
0000
,
0001
0000
0001
0000
,
0100
0000
0000
0000
,
0100
0000
0100
0000
,
0010
0000
0000
0000
,
1000
0000
0000
0000
,
0100
0000
0000
0000
,
0010
0000
0000
0000
,
0001
0000
0000
0000
,
1000
0000
1000
0000
,
0010
0000
0000
0000
,
0100
0000
0100
0000
,
0001
0000
0000
0000
,
0001
0000
0001
0000
,
0010
0000
0000
0000
,
0100
0000
0100
0000
,
1000
0000
0000
0000
,
0001
0000
1000
0000
,
0010
0000
0000
0000
,
1000
0000
0001
0000
,
0010
0000
0000
0000
,
0001
0000
1000
0000
,
0100
0000
0000
0000
,
1000
0000
0001
0000
,
0100
0000
0000
0000
,
0010
0000
0000
0100
,
0100
0000
0000
0001
,
0001
0000
0001
0000
,
1000
0000
1000
0000
,
0001
0000
0001
0000
,
0010
0000
0000
0000
,
0100
0000
0100
0000
,
1000
0000
0000
0000
,
1000
0000
1000
0000
,
0010
0000
0000
0000
,
0010
0000
0010
0000
,
0100
0000
0000
0000
,
0001
0000
0001
0000
,
0010
0000
0010
0000
,
0100
0000
0100
0000
,
1000
0000
0000
0000
,
1000
0000
1000
0000
,
0010
0000
0010
0000
,
0100
0000
0100
0000
,
0001
0000
0000
0000
,
1001
0000
0000
0000
;

//---------------dance-single - ----------------
#NOTEDATA:;
#CHARTNAME:;
#STEPSTYPE:dance-single;
#DESCRIPTION:;
#CHARTSTYLE:;
#DIFFICULTY:Easy;
#METER:6;
#RADARVALUES:0.228233,0.324907,0.086100,0.019133,0.000000,167.000000,158.000000,9.000000,2.000000,0.000000,0.000000,0.000000,0.000000,0.000000,0.228233,0.324907,0.086100,0.019133,0.000000,167.000000,158.000000,9.000000,2.000000,0.000000,0.000000,0.000000,0.000000,0.000000;
#CREDIT:;
#NOTES:
0000
0000
0000
0000
,
0000
0000
0000
0000
,
0000
0000
0000
0000
,
0000
0000
0000
0000
,
0000
0000
0000
0000
,
1000
0000
1000
0000
,
0100
0100
0100
0000
,
0010
0010
0010
0010
,
0010
0000
0001
0000
,
0001
0000
0001
0000
,
0100
0100
0100
0000
,
0010
0010
0010
0010
,
0010
0000
1000
0000
,
1000
0000
0100
0000
,
1000
0100
1000
0000
,
0001
0100
0001
0010
,
0001
0000
0001
0000
,
1000
0000
0010
0000
,
1000
0100
1000
0000
,
0001
1000
0010
1000
,
0001
0000
0001
0000
,
1000
0000
1000
0000
,
0100
0000
0100
0000
,
0010
0000
0010
0000
,
0001
0000
0001
0000
,
1000
0000
1000
0000
,
0010
0100
0100
0000
,
0001
0000
0010
0000
,
0100
0010
0001
1000
,
0001
0000
0001
0000
,
0100
0100
0010
0000
,
0010
0000
1000
0000
,
1000
0100
1000
1000
,
0001
0000
0010
0000
,
0001
0100
0010
0000
,
0100
0001
0010
0010
,
0100
0000
0100
1000
,
0001
0000
1000
0000
,
0010
0010
1000
0000
,
0100
0000
1000
0000
,
0001
0100
0010
0000
,
1000
0100
1000
1100
,
0001
0100
0001
0101
,
0001
0010
0001
1000
,
0010
0010
0110
0100
,
1001
0000
0001
0000
,
1000
1000
1000
0000
,
0100
1000
0010
0100
,
0001
0000
0001
0000
,
1000
0000
0100
0000
,
0010
0010
0010
0000
,
0001
1000
0010
0100
,
0001
0000
1000
0000
,
1001
0000
1001
0000
,
0100
0100
0100
0000
,
0010
0010
0010
0010
,
0010
0000
1000
0000
,
0110
0000
0110
0000
,
0001
0001
0001
0000
,
1000
0100
1000
0010
,
0100
0000
0001
0001
,
2002
0000
0000
3003
;

//---------------dance-single - ----------------
#NOTEDATA:;
#CHARTNAME:;
#STEPSTYPE:dance-single;
#DESCRIPTION:;
#CHARTSTYLE:;
#DIFFICULTY:Medium;
#METER:8;
#RADARVALUES:0.330732,0.472592,0.086100,0.019133,0.000000,242.000000,233.000000,9.000000,2.000000,0.000000,0.000000,0.000000,0.000000,0.000000,0.330732,0.472592,0.086100,0.019133,0.000000,242.000000,233.000000,9.000000,2.000000,0.000000,0.000000,0.000000,0.000000,0.000000;
#CREDIT:;
#NOTES:
0000
0000
0000
0000
,
0000
0000
0000
0000
,
0000
0000
0000
0000
,
0000
0000
0000
0000
,
0000
0000
0000
0000
,
1000
0000
0100
0000
,
1000
0000
0010
0100
0001
0000
0000
0000
,
1000
0000
0001
0000
0010
0000
0100
1000
,
0001
0000
1000
1000
,
0010
0000
0100
0000
,
0001
0000
1000
0100
0010
0000
0000
0000
,
0001
0000
1000
0000
0010
0000
0100
0001
,
1000
0000
0000
0000
1000
0000
0100
0100
,
1000
0000
0000
0100
1000
0000
0000
0100
,
1000
0000
1000
0000
0001
0000
0000
0100
,
0001
0001
0010
0010
,
0100
0000
0000
0100
1000
0000
0010
0000
,
1000
0000
0000
0010
1000
0000
0000
0010
,
1000
0000
1000
0000
0001
0000
0000
0001
,
0010
0100
0010
0010
,
0001
0000
0000
0001
0100
0000
0010
0000
,
0100
0000
0100
0000
0001
0000
0010
0100
,
0000
0100
1000
0000
0001
0000
1000
0000
,
0010
0000
0100
0000
0001
0000
0010
0100
,
0000
0100
1000
0000
0001
0000
1000
0000
,
0010
0000
0100
0000
0001
0000
0000
0001
,
0010
0010
0100
0000
,
1000
0001
1000
1000
,
0010
0000
0100
0010
0000
0010
0000
1000
,
0000
0000
0001
0000
0001
0000
0000
1000
,
0100
0100
0000
0010
0000
0000
0000
0000
,
0100
0100
1000
1000
,
0001
0000
1000
0010
0000
0010
0000
0100
,
0001
0000
0010
0000
0100
0000
0000
0010
,
0001
0000
0001
1000
0000
1001
0000
0000
,
1000
1000
0010
0010
,
0100
0000
0001
1000
0000
1000
0000
0001
,
0010
0000
0100
0000
0100
0000
0000
0010
,
0001
0000
0001
0100
0000
0110
0000
0000
,
0010
0010
0100
0100
,
0001
0000
0001
1000
0000
1000
0000
1000
,
0001
1000
0100
1001
,
1000
0001
0100
1001
,
0001
1000
0100
0000
1000
0001
0100
0000
,
1010
0101
0011
1100
,
0001
0000
0000
1000
0001
0000
0000
1000
,
0001
0000
0001
0000
1000
0000
0000
1000
,
0100
0100
0010
0010
,
0001
0000
0001
0100
,
0010
0000
0000
0100
0010
0000
0000
0100
,
0010
0000
0010
0000
1000
0000
0000
1000
,
0100
0100
0010
0010
,
0001
0000
0000
0001
1000
0000
0010
1000
,
0100
0000
0000
0010
0001
0000
0000
0100
,
0010
0000
0100
0001
1000
0000
0000
0100
,
1000
0000
0010
0000
0100
0000
0001
0010
,
0100
0000
0000
0100
0010
0000
0010
0000
,
0001
0000
0000
0100
0010
0000
0000
0100
,
0010
0000
0010
1000
1000
0000
0000
1000
,
0100
0000
0100
0000
1000
0010
0100
0001
,
1000
0000
0000
1000
0100
0010
0001
0000
,
2002
0000
0000
3003
;

//---------------dance-single - ----------------
#NOTEDATA:;
#CHARTNAME:;
#STEPSTYPE:dance-single;
#DESCRIPTION:;
#CHARTSTYLE:;
#DIFFICULTY:Hard;
#METER:11;
#RADARVALUES:0.549398,0.561203,0.239166,0.114800,0.105233,402.000000,377.000000,25.000000,12.000000,0.000000,0.000000,0.000000,0.000000,0.000000,0.549398,0.561203,0.239166,0.114800,0.105233,402.000000,377.000000,25.000000,12.000000,0.000000,0.000000,0.000000,0.000000,0.000000;
#CREDIT:;
#NOTES:
// measure 0
0000
0000
0000
0000
,  // measure 1
0000
0000
0000
0000
,  // measure 2
0000
0000
0000
0000
,  // measure 3
0000
0000
0000
0000
,  // measure 4
0000
0000
0000
0000
0000
0000
1000
0100
,  // measure 5
1100
0000
0001
0100
0101
0000
0001
0010
,  // measure 6
0100
1000
0010
0100
0001
0000
1000
0001
,  // measure 7
1000
0010
0100
0010
0001
0010
0100
0010
,  // measure 8
1000
0000
1000
0001
1000
0100
0010
0001
,  // measure 9
0101
0000
0010
1000
1100
0000
1000
0010
,  // measure 10
0100
0001
0010
0100
1000
0000
0001
1000
,  // measure 11
0001
0100
0010
0100
1000
0100
0010
0100
,  // measure 12
0001
0000
1000
0001
0010
0100
1000
0001
,  // measure 13
1100
0000
0001
1000
0101
0000
1000
0001
,  // measure 14
1000
0000
0000
1000
0100
0000
0010
0000
0001
0000
0000
0000
1000
0000
0001
0000
,  // measure 15
1000
0010
0001
0010
1000
0100
0001
0100
,  // measure 16
1000
0000
0001
0010
0100
1000
0001
1000
,  // measure 17
0101
0000
1000
0001
1100
0000
0001
1000
,  // measure 18
0001
0000
0000
0001
0100
0000
0010
0000
1000
0000
0000
0000
0001
0000
1000
0000
,  // measure 19
0001
0010
1000
0010
0001
0100
1000
0100
,  // measure 20
0001
0000
1000
0010
0100
0001
1000
0001
,  // measure 21
1000
0100
0010
0001
1000
0001
0010
0200
,  // measure 22
0000
0301
0100
1000
0010
0001
0010
1000
,  // measure 23
0001
0010
0100
0010
0001
1000
0010
0200
,  // measure 24
0000
1300
0100
0001
0010
0100
1000
0000
,  // measure 25
1000
0000
0000
0010
0000
0000
0100
0000
0001
0000
0000
0010
0000
0000
0100
0000
,  // measure 26
1000
0000
0000
0001
0000
0000
0100
0000
0001
0000
0000
1000
0000
0000
0100
0000
,  // measure 27
1000
0000
0000
0010
0000
0000
1000
0000
0001
0000
0000
0010
0000
0000
0001
0000
,  // measure 28
1000
0000
0000
0100
0000
0000
0010
0000
0001
0000
0000
0100
0000
0000
0010
0000
,  // measure 29
1000
0000
0000
0010
1000
0000
1000
0000
0001
0000
0000
0010
0001
0000
0001
0000
,  // measure 30
1000
0000
0000
0100
1000
0000
1000
0000
0001
0000
0000
0100
0001
0000
0001
0000
,  // measure 31
1000
0000
0000
0100
0010
0000
0001
0000
1000
0000
0000
0010
0100
0000
0001
0000
,  // measure 32
0010
0000
0000
0100
1000
0000
0001
0000
0100
0000
0000
0010
1000
0000
0001
0000
,  // measure 33
1000
0000
0100
0010
0001
0000
0100
0010
,  // measure 34
0001
0010
1000
0002
0000
2000
0000
3003
,  // measure 35
0001
1000
0100
0100
,  // measure 36
1000
0000
0010
0100
0000
0100
0000
0001
,  // measure 37
1000
0000
0100
1000
0010
0000
0100
0001
,  // measure 38
0010
0100
0010
0002
0000
2000
0000
3003
,  // measure 39
1000
0020
0230
0302
,  // measure 40
2003
0000
0100
3100
0000
0010
0000
0001
,  // measure 41
1000
0010
0001
1000
0100
0000
1001
0000
,  // measure 42
0001
0010
1000
0001
0100
0000
1001
0000
,  // measure 43
1000
0010
0001
1000
0100
0001
0010
1000
,  // measure 44
0110
0000
0110
0000
1001
0000
0011
0100
,  // measure 45
1100
0000
1000
0010
0101
0000
0001
0100
,  // measure 46
1000
0000
0000
1000
0100
0000
0001
0000
1000
0000
0000
0000
1000
0000
0001
0000
,  // measure 47
1000
0100
0010
0001
1000
0010
0100
0001
,  // measure 48
1000
0000
0001
1000
0100
0010
0001
1000
,  // measure 49
0011
0000
1000
0001
1010
0000
1000
0100
,  // measure 50
0001
0000
0000
0001
0100
0000
1000
0000
0001
0000
0000
0000
0001
0000
1000
0000
,  // measure 51
0001
0100
0010
1000
0001
0010
0100
1000
,  // measure 52
0001
0000
1000
0001
0010
1000
0010
0010
,  // measure 53
1100
0000
0010
0010
0101
0000
0010
0010
,  // measure 54
1001
0000
0000
0001
0010
0000
0100
0000
1000
0000
0000
0000
0001
0000
1000
0000
,  // measure 55
0001
0001
0100
0100
0010
0010
1000
1000
,  // measure 56
0001
0000
1000
0100
0001
0001
0100
0100
,  // measure 57
0011
0000
0100
0100
1010
0000
0100
0100
,  // measure 58
1001
0000
0000
1000
0010
0000
0100
0000
0001
0000
0000
0000
1000
0000
0001
0000
,  // measure 59
1000
1000
0010
0010
0100
0100
0001
0001
,  // measure 60
1000
0000
0001
0010
0100
1000
0010
0100
,  // measure 61
2002
0000
0000
3003
;
