#VERSION:0.83;
#TITLE:Heart of Fire;
#SUBTITLE:;
#ARTIST:Yasushi Asada;
#TITLETRANSLIT:;
#SUBTITLETRANSLIT:;
#ARTISTTRANSLIT:;
#GENRE:;
#ORIGIN:;
#CREDIT:;
#BANNER:banner.png;
#BACKGROUND:bg.png;
#PREVIEWVID:;
#JACKET:jacket.png;
#CDIMAGE:;
#DISCIMAGE:;
#LYRICSPATH:;
#CDTITLE:;
#MUSIC:Heart of Fire.ogg;
#OFFSET:-0.335000;
#SAMPLESTART:15.006152;
#SAMPLELENGTH:14.656487;
#SELECTABLE:YES;
#BPMS:0.000=131.000;
#STOPS:;
#DELAYS:;
#WARPS:;
#TIMESIGNATURES:0.000=4=4;
#TICKCOUNTS:0.000=4;
#COMBOS:0.000=1;
#SPEEDS:0.000=1.000=0.000=0;
#SCROLLS:0.000=1.000;
#FAKES:;
#LABELS:0.000=Song Start;
#BGCHANGES:;
#KEYSOUNDS:;
#ATTACKS:
;

//---------------dance-single - From Castlevania\: Harmony of Despair----------------
#NOTEDATA:;
#CHARTNAME:;
#STEPSTYPE:dance-single;
#DESCRIPTION:From Castlevania\: Harmony of Despair;
#CHARTSTYLE:;
#DIFFICULTY:Challenge;
#METER:15;
#RADARVALUES:0.772818,0.758404,0.229658,0.221152,0.901621,636.000000,609.000000,27.000000,26.000000,0.000000,0.000000,0.000000,0.000000,0.000000,0.772818,0.758404,0.229658,0.221152,0.901621,636.000000,609.000000,27.000000,26.000000,0.000000,0.000000,0.000000,0.000000,0.000000;
#CREDIT:Kingly;
#NOTES:
0000
0000
0000
0000
,
0000
0000
0000
0000
,
0000
0000
0000
0000
,
0000
0000
0000
0000
0000
0000
0000
0000
0000
0000
0000
0000
0000
0000
0001
1000
,
0001
0000
1000
0010
0000
1000
0100
0000
0010
0000
0100
0000
0001
0000
0100
0010
,
0001
0000
1000
0010
0000
1000
0200
0000
0000
0000
0010
0000
0000
0000
1300
0001
,
1000
0000
0001
0010
0000
0001
0100
0000
0010
0000
0100
0000
1000
0000
0100
0010
,
1000
0000
0001
0010
0000
0001
0200
0000
0000
0000
0310
0000
1000
0001
1000
0001
,
0010
0000
0010
0000
0100
0000
0001
0200
0000
0000
0310
0000
0001
0000
1000
0001
,
0200
0000
0000
0000
0310
0000
1000
0100
0000
1000
0100
0000
0010
0001
1000
0000
,
0010
0000
0010
0000
0100
0000
1000
0200
0000
0000
0310
0000
1000
0000
0001
1000
,
0200
0000
0000
0000
0310
0000
0001
0100
0000
0001
0100
0000
0010
1000
0001
0000
,
1001
0000
1000
0000
0020
0000
0130
0001
0000
0001
0000
1000
0100
0010
0100
1000
,
0001
0000
0001
0000
0100
0000
2010
0000
0000
3001
0000
0001
0010
0000
0100
0000
,
1001
0000
0001
0000
0020
0000
0130
1000
0000
1000
0000
0001
0010
0100
0001
0100
,
0010
0000
0010
0000
0001
0000
0012
0000
0000
1003
0000
1000
0010
0000
0100
0000
,
1001
0000
1000
0100
1000
0000
0001
0100
0001
0000
1000
0010
1000
0000
0001
0010
,
0001
0000
0100
0010
0100
0000
0001
1000
0001
0000
0010
0100
0010
0000
0001
1000
,
0010
0000
0100
0001
1000
0000
0001
0010
0100
0000
1000
0100
0010
0000
0001
0000
,
1001
0000
1000
0010
0100
0000
0001
0010
0100
0000
0000
1100
0000
0000
0101
0000
,
1001
0000
1000
0010
0000
1000
0100
0000
0010
0000
0100
0000
0001
0000
0100
0010
,
0001
0000
1000
0010
0000
1000
0200
0000
0000
0000
0310
0000
0001
0000
1000
0010
,
0100
0001
0100
0001
1000
0100
0010
0000
1000
0000
0010
0000
0001
0000
1000
0010
,
1000
0001
1000
0010
0000
1000
0200
0000
0000
0000
0310
0000
0001
0000
1000
0010
,
1000
0000
0001
0010
0000
0001
0100
0000
0010
0000
0100
0000
1000
0000
0100
0010
,
1000
0000
0001
0010
0000
0001
0200
0000
0000
0000
0310
0000
1000
0000
0001
0010
,
0001
0000
1000
0010
1000
0000
0001
0000
0101
0000
1000
0000
1100
0000
0001
0010
,
0100
0000
1000
0010
0000
1000
0200
0000
0310
0001
1000
0000
0001
0100
0001
0100
,
0010
0000
1000
0100
0000
1000
0001
0000
0100
0000
0010
0000
1000
0000
0001
0000
,
0010
0000
0000
0000
0000
0000
0001
0000
0000
0100
0000
0000
0000
0000
0000
0001
0000
0000
1000
0000
0000
0000
0000
0000
0100
0000
0000
0000
0000
0000
1000
0000
0000
0000
0000
0000
0001
0000
0000
0000
0100
0000
0000
0000
0010
0000
0000
0000
,
1000
0000
0001
0010
0000
0001
1000
0000
0010
0000
0100
0000
0001
0000
1000
0000
,
0100
0000
1000
0010
0000
1000
0001
0010
0100
0000
0000
0000
1000
0001
0000
0000
,
1001
0000
0001
0100
0000
0001
1000
0000
0100
0000
0010
0000
0001
0000
1000
0000
,
0010
0000
0000
0000
0000
0000
1000
0000
0000
0100
0000
0000
0000
0000
0000
1000
0000
0000
0001
0000
0000
0000
0000
0000
0100
0000
0000
0000
0000
0000
0001
0000
0000
0000
0000
0000
1000
0000
0000
0000
0100
0000
0000
0000
0010
0000
0000
0000
,
0001
0000
1000
0010
0000
1000
0001
0000
0010
0000
0100
0000
1000
0000
0001
0000
,
0100
0000
0001
0010
0000
0001
1000
0000
0010
0000
0100
0000
0001
0010
0001
0010
,
0100
1000
0010
0000
0100
0000
0001
0000
0010
0100
0010
0000
0001
0000
1000
0100
,
0010
0100
0001
0000
0100
0000
0010
0000
0001
1000
0001
0000
1000
0010
1000
0010
,
0100
0001
0010
0000
0100
0000
1000
0000
0010
0100
0010
0000
1000
0000
0001
0100
,
0010
0100
1000
0000
0100
0000
0010
0000
1000
0001
0010
0100
1000
0001
1000
0001
,
0100
0001
0010
0000
0100
0000
1000
0000
0010
0100
0010
0000
1000
0000
0001
0100
,
0010
0100
1000
0000
0100
0000
0010
0000
1000
0001
1000
0001
0010
0000
0100
0000
,
1000
0010
0100
0001
0000
0000
0001
0010
0100
1000
0000
0000
1000
0001
2000
0000
,
0100
0000
0000
0100
0000
0000
3002
0000
0100
0000
0000
0100
0000
0000
1003
0000
,
1100
0000
0001
0000
0100
0000
0010
1000
0000
0100
1000
0000
0001
0000
1000
0000
,
0001
0100
0001
0010
0100
0000
1000
0020
0000
0000
1030
0000
0001
0000
0100
0000
,
0101
0000
1000
0000
0100
0000
0010
0001
0000
0100
0001
0000
1000
0000
0001
0000
,
1000
0100
1000
0010
0100
0000
0001
0020
0000
0000
0031
0000
1000
0000
0010
0100
,
0001
0000
0000
1001
0000
0000
0011
0000
0000
0000
1000
0100
1000
0001
1000
0010
,
0100
0000
0000
0101
0000
0000
1010
0000
0000
0000
0001
0100
0001
0010
0001
1000
,
0010
0000
1000
0000
0100
0000
0010
0001
0000
0100
0001
0000
1000
0000
0001
0000
,
1000
0000
0000
0100
0000
0000
1000
0000
0000
0010
0000
0000
0100
0000
0000
0000
0000
0000
0001
0000
0000
1000
0000
0000
0001
0000
0010
0000
0001
0000
0010
0000
0000
0000
0000
0000
0100
0000
1000
0000
0100
0000
1000
0000
0000
0000
0000
0000
,
0001
0000
1000
0000
0100
0000
0010
0001
0000
0100
0001
0000
1000
0000
0001
0000
,
1000
0100
1000
0010
0100
0000
0001
0010
0100
1000
0010
1000
0001
0000
0010
0100
,
1000
0000
0000
1001
0000
0000
1010
0000
0000
0000
0001
0100
0001
1000
0001
0010
,
0100
0000
0000
1100
0000
0000
0011
0000
0000
0000
1000
0100
1000
0010
1000
0001
,
0010
0000
0000
0011
0000
0000
1000
0100
0000
0010
0001
0000
1000
0000
0001
0100
,
1000
0000
0100
0010
0000
1000
0001
0010
0000
0001
0100
0001
1000
0100
1000
0100
,
0010
0001
0010
0001
0010
0000
0100
2000
0000
0000
3010
0000
0100
0001
0100
0000
,
0010
1000
0010
1000
0010
0000
0100
0002
0000
0000
0013
0000
0100
1000
0100
0000
,
0120
0000
0030
0002
0000
0003
0100
0000
1000
0100
0000
0010
1000
0001
1000
0001
,
0020
0000
0030
0200
0000
0300
0001
0000
0100
0010
0001
0000
1001
0000
1000
0010
,
0100
0001
1000
0100
0000
0000
0021
0000
0130
1000
0001
0100
0000
0000
1020
0000
,
0130
1000
0100
1000
0100
0001
0100
0001
1000
0100
0010
0001
0000
0000
0000
0000
;

//---------------dance-single - From Castlevania\: Harmony of Despair----------------
#NOTEDATA:;
#CHARTNAME:;
#STEPSTYPE:dance-single;
#DESCRIPTION:From Castlevania\: Harmony of Despair;
#CHARTSTYLE:;
#DIFFICULTY:Hard;
#METER:13;
#RADARVALUES:0.628219,0.650060,0.255176,0.323223,0.552881,517.000000,487.000000,30.000000,38.000000,0.000000,0.000000,0.000000,0.000000,0.000000,0.628219,0.650060,0.255176,0.323223,0.552881,517.000000,487.000000,30.000000,38.000000,0.000000,0.000000,0.000000,0.000000,0.000000;
#CREDIT:Kingly;
#NOTES:
0000
0000
0000
0000
,
0000
0000
0000
0000
,
0000
0000
0000
0000
,
0000
0000
0000
0000
,
1000
0000
0001
0010
0000
0001
0010
0000
0100
0000
1000
0000
0010
0000
0100
0001
,
0100
0000
0010
1000
0000
0010
2000
0000
0000
0000
0000
0000
0000
0000
0000
0000
,
3001
0000
1000
0010
0000
1000
0010
0000
0100
0000
0001
0000
0010
0000
0100
1000
,
0100
0000
0010
0001
0000
0010
0002
0000
0000
0000
0000
0000
1003
0010
1000
0010
,
0100
0000
0100
0000
0001
0000
0010
0200
0000
0000
1300
0000
0001
0000
0100
0000
,
0002
0000
0000
0000
1003
0000
0100
0010
0000
0100
0010
0000
0001
2000
0000
0000
,
3100
0000
0100
0000
1000
0000
0010
0200
0000
0000
0301
0000
1000
0000
0100
0000
,
2000
0000
0000
0000
3001
0000
0100
0010
0000
0100
0010
0000
1000
0002
0000
0000
,
1003
0000
0100
0000
0002
0000
0000
0000
0000
0000
0000
0000
0103
0010
0100
0000
,
1000
0001
0100
0201
0000
0000
0310
0100
,
0001
0000
0100
0000
2000
0000
0000
0000
0000
0000
0000
0000
3100
0010
0100
0000
,
0001
1000
0100
1200
0000
0000
0310
0001
,
2000
0000
0000
3020
0000
0000
0230
0000
0000
0320
0000
0000
1030
0000
0001
0000
,
0020
0000
0000
0230
0000
0000
2300
0000
0000
3200
0000
0000
0310
0000
0001
0000
,
0200
0000
0000
0320
0000
0000
2030
0000
0000
3200
0000
0000
0310
0000
1000
0000
,
0020
0000
0000
0000
0001
0000
0000
0000
0100
0000
0000
0100
0000
0000
0130
0000
,
1100
0000
0001
0100
0000
0001
0100
0000
0010
0000
0100
0000
1000
0000
0100
0000
,
0010
0000
1000
0001
0000
1000
0002
0000
0000
0000
0000
0000
0000
0000
0000
0000
,
0013
0000
0100
0000
1000
0001
1000
0000
0010
0000
0100
0000
0001
0000
1000
0000
,
0100
0000
0010
0001
0000
0010
0002
0000
0000
0000
0000
0000
1003
0000
0001
1000
,
0001
0000
1000
0100
0000
1000
0100
0000
0010
0000
0100
0000
0001
0000
0100
0000
,
0010
0000
0001
1000
0000
0001
2000
0000
0000
0000
0000
0000
3010
0000
0100
0000
,
1001
0000
0000
0001
0100
0000
0010
0000
1010
0000
0001
0000
1010
0000
0001
0000
,
0010
0000
0100
1000
0000
0100
1000
0000
0001
0000
0100
0000
0010
1000
0010
1000
,
0001
0000
0000
0100
0000
0000
0001
0000
1000
0000
0100
0000
0010
0000
0001
0000
,
1000
0000
0000
0000
0000
0000
0000
0000
0000
0010
0000
0000
0000
0000
0000
0000
0000
0000
0100
0000
0000
0001
0000
0000
0100
0000
0000
0000
0000
0000
0000
0000
0000
0000
0000
0000
0010
0000
0000
0000
1000
0000
0000
0000
0010
0000
0000
0000
,
1000
0000
0000
0100
0000
0000
1000
0000
0001
0000
0100
0000
0010
0000
1000
0000
,
0001
0000
0000
0010
0000
0000
0100
1000
0100
0000
0000
0000
1000
0001
0000
0000
,
1001
0000
0001
0100
0000
0001
0100
0000
0010
0000
1000
0000
0100
0000
1000
0000
,
0010
0000
0000
0000
0000
0000
0100
0000
0000
0001
0000
0000
0000
0000
0000
0100
0000
0000
0001
0000
0000
0000
0000
0000
1000
0000
0000
0000
0000
0000
0100
0000
0000
0000
0000
0000
0010
0000
0000
0000
0001
0000
0000
0000
0010
0000
0000
0000
,
0001
0000
1000
0100
0000
1000
0100
0000
0010
0000
0001
0000
0100
0000
0001
0000
,
0010
0000
0100
1000
0000
0100
1000
0000
0001
0000
0100
0000
0010
1000
0010
1000
,
0001
0010
0001
0000
1000
0000
0100
0000
0010
0000
0001
0000
1000
0000
0010
0000
,
0100
0001
0100
0000
0010
0000
1000
0000
0001
0000
0010
0000
0100
0000
1000
0000
,
0010
0100
0010
0000
1000
0000
0001
0000
0010
0000
0100
0000
1000
0000
0010
0000
,
1000
0001
1000
0000
0100
0000
0010
0000
0001
0000
0100
0000
0010
0000
1000
0000
,
0001
0010
0001
0000
0100
0000
0010
0000
1000
0000
0100
0000
0010
0000
0100
0000
,
1000
0010
1000
0000
0001
0000
0010
0000
0100
0000
1000
0000
0002
0000
0000
0000
,
1003
0010
1000
0010
0000
0000
0100
0001
0100
0001
0000
0000
1000
0001
1000
0000
,
0100
0000
0000
0100
0000
0000
0100
0000
0010
0000
0000
0010
0000
0000
0010
0000
,
0011
0000
1000
0000
0010
0000
0100
0002
0000
0000
1003
0000
0100
0000
0010
0000
,
0100
0000
1000
0000
0001
0000
1000
0020
0000
0000
0130
0000
0001
0000
1000
0000
,
1010
0000
0001
0000
0010
0000
0100
2000
0000
0000
3001
0000
0100
0000
0010
0000
,
0100
0000
0001
0000
1000
0000
0001
0020
0000
0000
0130
0000
1000
0000
0001
0000
,
0101
0000
0000
1001
0000
0000
0011
0000
0000
0000
1000
0100
1000
0100
1000
0000
,
0101
0000
0000
1001
0000
0000
1010
0000
0000
0000
0001
0010
0001
0010
0001
0000
,
1000
0000
0010
0000
0100
0000
0001
0010
0000
0001
0010
0000
0100
0000
1000
0000
,
0001
0000
0100
0010
0100
0000
0001
1000
0001
0010
0001
0000
1000
0010
1000
0000
,
0001
0000
0010
0000
0100
0000
1000
0010
0000
1000
0010
0000
0100
0000
0001
0000
,
1000
0000
0100
0010
0100
0000
1000
0002
0000
0000
0103
0010
1000
0000
0001
1000
,
0100
0000
0000
1001
0000
0000
1010
0000
0000
0000
0001
0100
0001
0100
0001
0000
,
1100
0000
0000
1001
0000
0000
0011
0000
0000
0000
1000
0010
1000
0010
1000
0000
,
0011
0000
0000
0110
0000
0000
1000
0010
0000
1000
0010
0000
0100
0000
0001
0000
,
1000
0000
0001
0010
0000
0001
0010
0000
0100
0000
1000
0000
0001
0100
0001
0000
,
1000
0100
1000
0100
2000
0000
0000
3002
0000
0000
0103
0000
0010
0000
1000
0000
,
0001
0100
0001
0100
0002
0000
0000
2003
0000
0000
3100
0000
0010
0000
0001
0000
,
1100
0000
0000
0001
0000
0000
0100
0000
0101
0000
0000
1000
0000
0000
0010
0000
,
1010
0000
0000
0001
0000
0000
0010
0000
0011
0000
0000
0000
1000
0000
0010
0100
,
0001
0000
0000
0101
0000
0000
1001
0000
1000
0000
0000
1100
0000
0000
1001
0000
,
0001
0100
0001
0000
1000
0100
1000
0000
0001
1000
0001
1000
0000
0000
0000
0000
;

//---------------dance-single - From Castlevania\: Harmony of Despair----------------
#NOTEDATA:;
#CHARTNAME:;
#STEPSTYPE:dance-single;
#DESCRIPTION:From Castlevania\: Harmony of Despair;
#CHARTSTYLE:;
#DIFFICULTY:Medium;
#METER:10;
#RADARVALUES:0.461747,0.460459,0.059541,0.289199,0.221152,380.000000,373.000000,7.000000,34.000000,0.000000,0.000000,0.000000,0.000000,0.000000,0.461747,0.460459,0.059541,0.289199,0.221152,380.000000,373.000000,7.000000,34.000000,0.000000,0.000000,0.000000,0.000000,0.000000;
#CREDIT:Kingly;
#NOTES:
0000
0000
0000
0000
,
0000
0000
0000
0000
,
0000
0000
0000
0000
,
0000
0000
0000
0000
,
1000
0000
0000
0100
0000
0000
1000
0000
0001
0000
0100
0000
0020
0000
0000
0000
,
1030
0000
0000
0100
0000
0000
2000
0000
0000
0000
0000
0000
0000
0000
0000
0000
,
3001
0000
0000
0100
0000
0000
0001
0000
1000
0000
0100
0000
0020
0000
0000
0000
,
0031
0000
0000
0100
0000
0000
0002
0000
0000
0000
0000
0000
1003
0000
0100
0000
,
1000
0000
0001
0000
0100
0000
0000
0010
0000
0000
0100
0000
0001
0000
1000
0000
,
0100
0000
0010
0000
0001
0000
0000
0100
0000
0000
0001
0000
1000
0000
0000
0000
,
0001
0000
1000
0000
0100
0000
0000
0010
0000
0000
0100
0000
1000
0000
0001
0000
,
0100
0000
0010
0000
1000
0000
0000
0100
0000
0000
1000
0000
0001
0000
0000
0000
,
1000
0100
0002
0000
0000
0000
0103
0010
,
0001
1000
0010
0200
0000
0000
0301
1000
,
0001
0100
2000
0000
0000
0000
3100
0010
,
1000
0001
0010
0200
0000
0000
1300
0001
,
2000
0000
3000
0020
0000
0030
0200
0000
0300
0002
0000
0003
2000
0000
0000
3000
,
0002
0000
0003
0020
0000
0030
0200
0000
0300
2000
0000
3000
0002
0000
0000
0000
,
2003
0000
3000
0020
0000
0030
0200
0000
0300
0002
0000
0003
1000
0000
0100
0000
,
0020
0000
0000
0000
0000
0000
0000
0000
0001
0000
0000
0001
0000
0000
0031
0000
,
1000
0000
0000
0010
0000
0000
1000
0000
0001
0000
0010
0000
0200
0000
0000
0000
,
1300
0000
0000
0010
0000
0000
2000
0000
0000
0000
0000
0000
0000
0000
0000
0000
,
3001
0010
0001
0010
0100
1000
0001
0100
,
0010
0000
0000
1000
0000
0000
0020
0000
0000
0000
0000
0000
0000
0000
0000
0000
,
1030
0000
0000
0100
0000
0000
1000
0000
0001
0000
0100
0000
0020
0000
0000
0000
,
1030
0000
0000
0100
0000
0000
2000
0000
0000
0000
0000
0000
0000
0000
0000
0000
,
3001
0000
0000
0100
0000
0000
0001
0000
1000
0000
0100
0000
0020
0000
0000
0000
,
0031
0000
0000
0100
0000
0000
0002
0000
0000
0000
0000
0000
1003
0000
0100
0000
,
0010
0000
0000
0001
0000
0000
0010
0000
0100
0000
1000
0000
0001
0000
0100
0000
,
0010
0000
0000
1000
0000
0000
0100
0000
0010
0000
0001
0000
0200
0000
0000
0000
,
0310
0000
0000
1000
0000
0000
0010
0000
0100
0000
0001
0000
1000
0000
0100
0000
,
0010
0000
0000
0001
0000
0000
0100
0000
0010
0000
0000
0000
1001
0000
0000
0000
,
0001
0000
0000
1000
0000
0000
0010
0000
0100
0000
0001
0000
1000
0000
0100
0000
,
0010
0000
0000
0001
0000
0000
0100
0000
0010
0000
1000
0000
0200
0000
0000
0000
,
0310
0000
0000
0001
0000
0000
0010
0000
0100
0000
1000
0000
0001
0000
0100
0000
,
0010
0000
0000
1000
0000
0000
0100
0000
0010
0000
0000
0000
0001
0000
0001
0000
,
1000
0010
1000
0010
1000
0001
0100
0010
,
0100
1000
0100
0010
1000
0001
1000
1000
,
0001
0010
0001
0010
0001
1000
0100
0010
,
0100
0001
0100
0010
0001
1000
0001
0001
,
0100
0010
0100
0010
1000
0001
0010
0100
,
0010
1000
0010
0100
1000
0001
0200
0000
,
0310
1000
0010
1000
0001
0010
0001
0010
,
0200
0000
0000
0000
0000
0000
0000
0000
1000
0000
0000
1000
0000
0000
1300
0000
,
0001
0000
0100
0000
0001
0000
0000
1000
0000
0000
0100
0000
0010
0000
0001
0000
,
0010
0000
1000
0000
0010
0000
0000
0100
0000
0000
1000
0000
0001
0000
0001
0000
,
1000
0000
0100
0000
1000
0000
0000
0001
0000
0000
0100
0000
0010
0000
1000
0000
,
0010
0000
0001
0000
0010
0000
0000
0100
0000
0000
0001
0000
1000
0000
1000
0000
,
0001
0000
0000
0010
0000
0000
0011
0000
0000
0000
1000
0000
0001
0000
0100
0000
,
0010
0000
0000
1000
0000
0000
1010
0000
0000
0000
0001
0000
0010
0000
0100
0000
,
1000
0000
0100
0000
1000
0000
0000
0001
0000
0000
0100
0000
0010
0000
1000
0000
,
0010
0000
0001
0000
0010
0000
0000
0100
0000
0000
0001
0000
1000
0000
1000
0000
,
0001
0000
0100
0000
0001
0000
0000
1000
0000
0000
0100
0000
0010
0000
0001
0000
,
0010
0000
1000
0000
0010
0000
0000
0100
0000
0000
1000
0000
0001
0000
0001
0000
,
1000
0000
0000
0010
0000
0000
1010
0000
0000
0000
0001
0000
1000
0000
0100
0000
,
0010
0000
0000
0001
0000
0000
0011
0000
0000
0000
1000
0000
0010
0000
0100
0000
,
0001
1000
0001
1000
0100
0010
0100
0010
,
0001
1000
0010
1000
0100
0010
0001
0001
,
1000
0000
1000
0000
1000
0000
0000
0001
0000
0000
0100
0000
0010
0000
1000
0000
,
0001
0000
0001
0000
0001
0000
0000
1000
0000
0000
0100
0000
0010
0000
0001
0000
,
1000
0000
0000
0010
0000
0000
0100
0000
0001
0000
0000
0010
0000
0000
0100
0000
,
1000
0000
0000
0001
0000
0000
0100
0000
1000
0000
0000
0100
0000
0000
0010
0000
,
1000
0000
0000
1001
0000
0000
0001
0000
0010
0000
0000
0110
0000
0000
0100
0000
,
1000
0000
0001
0000
1000
0000
0001
0000
0100
0000
0010
1000
0000
0000
0000
0000
;

//---------------dance-single - From Castlevania\: Harmony of Despair----------------
#NOTEDATA:;
#CHARTNAME:;
#STEPSTYPE:dance-single;
#DESCRIPTION:From Castlevania\: Harmony of Despair;
#CHARTSTYLE:;
#DIFFICULTY:Easy;
#METER:7;
#RADARVALUES:0.283124,0.297944,0.034023,0.348740,0.000000,233.000000,229.000000,4.000000,41.000000,0.000000,0.000000,0.000000,0.000000,0.000000,0.283124,0.297944,0.034023,0.348740,0.000000,233.000000,229.000000,4.000000,41.000000,0.000000,0.000000,0.000000,0.000000,0.000000;
#CREDIT:Kingly;
#NOTES:
0000
0000
0000
0000
,
0000
0000
0000
0000
,
0000
0000
0000
0000
,
0000
0000
0000
0000
,
2000
3200
0320
0032
,
2003
0000
3001
0200
0000
0000
0000
0000
,
0302
0023
0230
2300
,
3002
0000
1003
0020
0000
0000
0000
0000
,
0130
0000
0001
1000
0001
0000
0010
0000
,
0100
0000
1000
0001
1000
0000
0010
0000
,
0100
0000
0001
0010
0001
0000
0100
0000
,
0010
0000
1000
0100
1000
0000
0001
0000
,
1000
0000
0020
0000
0000
0000
0130
0001
,
1000
0000
0000
1001
0000
0000
0000
0000
,
0001
0000
0020
0000
0000
0000
0130
1000
,
0001
0000
0000
1001
0000
0000
0000
0000
,
1000
0010
1000
0010
,
0100
0001
0100
0001
,
1000
0100
0010
0001
,
2000
0000
3002
0000
,
0103
0010
1000
0001
,
0010
0000
0100
2000
0000
0000
0000
0000
,
3100
0010
0001
1000
,
0010
0000
0100
0002
0000
0000
0000
0000
,
1003
0100
0010
0100
,
1000
0000
0010
0200
0000
0000
0000
0000
,
0301
0100
0010
0100
,
0001
0000
0010
0200
0000
0000
0000
0000
,
2300
0000
3001
0100
,
0002
0000
1003
0100
,
2000
0000
3010
0100
,
0002
0000
0013
0110
,
2001
0000
3010
0100
,
0002
0000
0013
0100
,
2000
0000
3001
0100
,
0002
0000
1003
0100
,
1000
0010
1000
0010
,
0100
0001
0100
0001
,
1000
0100
1000
0100
,
0010
0001
0010
0001
,
0100
0010
0100
0010
,
1000
0001
1000
0001
,
0010
0100
1000
0001
,
0200
0000
0320
0000
,
1030
0100
1000
0001
,
0100
0010
0100
0000
0002
0000
0000
0000
,
1003
0100
1000
0001
,
0100
0010
0100
0000
0002
0000
0000
0000
,
1003
0000
1000
0000
0100
0000
0010
0001
,
0010
0000
0100
0000
1000
0000
0001
0010
,
0001
0100
0001
1000
,
0100
0010
0100
0000
2000
0000
0000
0000
,
3001
0100
0001
1000
,
0100
0010
0100
0000
2000
0000
0000
0000
,
3010
0000
0100
0000
0001
0000
1000
0100
,
1000
0000
0001
0000
0100
0000
0010
1000
,
0001
0001
0010
0010
,
0100
0100
1000
1000
,
0001
0100
0001
0000
0010
0000
0100
0000
,
1000
0100
1000
0000
0010
0000
0100
0000
,
0002
0013
0200
1300
,
0002
0103
0020
1030
,
0001
0000
1000
0100
1000
0000
0001
0100
,
0002
0000
0000
0000
0023
0000
0000
0000
0230
0000
0000
0300
0000
0000
0000
0000
;

//---------------dance-single - From Castlevania\: Harmony of Despair----------------
#NOTEDATA:;
#CHARTNAME:;
#STEPSTYPE:dance-single;
#DESCRIPTION:From Castlevania\: Harmony of Despair;
#CHARTSTYLE:;
#DIFFICULTY:Beginner;
#METER:2;
#RADARVALUES:0.114222,0.135429,0.008506,0.051035,0.000000,94.000000,93.000000,1.000000,6.000000,0.000000,0.000000,0.000000,0.000000,0.000000,0.114222,0.135429,0.008506,0.051035,0.000000,94.000000,93.000000,1.000000,6.000000,0.000000,0.000000,0.000000,0.000000,0.000000;
#CREDIT:Kingly;
#NOTES:
0000
0000
0000
0000
,
0000
0000
0000
0000
,
0000
0000
0000
0000
,
0000
0000
0000
0000
,
1000
0000
0000
0000
,
1000
0000
0000
0000
,
0001
0000
0000
0000
,
0001
0000
0000
0000
,
0100
0000
0010
0000
,
1000
0000
0000
0000
,
0100
0000
0010
0000
,
0001
0000
0000
0000
,
1000
0020
0000
0000
,
0130
0000
0001
0000
,
0001
0020
0000
0000
,
0130
0000
1000
0000
,
0001
0000
0100
0000
,
0001
0000
0100
0000
,
0010
0000
1000
0000
,
0002
0000
0000
0000
,
1003
0000
0000
0000
,
1000
0000
0000
0000
,
0010
0000
0100
0000
,
0100
0000
0000
0000
,
0001
0000
0000
0000
,
0001
0000
0000
0000
,
0010
0000
0100
0000
,
0100
0000
0000
0000
,
1000
0000
0000
0000
,
0001
0000
0000
0100
,
0001
0000
0000
0000
,
1000
0000
0000
0100
,
1000
0000
0000
0000
,
0001
0000
0000
0010
,
0001
0000
0000
0000
,
1000
0000
0000
0010
,
0100
0000
0000
0000
,
0001
0000
1000
0000
,
0100
0000
0000
0000
,
1000
0000
0001
0000
,
0100
0000
0000
0000
,
0001
0000
1000
0000
,
0010
0000
0100
0000
,
0001
0000
0000
0000
,
1000
0000
1000
0000
,
0100
0000
0000
0000
,
0010
0000
0010
0000
,
0001
0000
0000
0000
,
0001
0000
0000
1000
,
0010
0000
0000
0100
,
0001
0000
0001
0000
,
0100
0000
0000
0000
,
0010
0000
0010
0000
,
1000
0000
0000
0000
,
1000
0000
0000
0001
,
0010
0000
0000
0100
,
1000
0000
0001
0000
,
1000
0000
0000
0000
,
0010
0000
0010
0000
,
0100
0000
0100
0000
,
0001
0000
1000
0000
,
0001
0000
1000
0000
,
0200
0000
0000
0000
,
0310
0000
0000
0000
0000
0000
0000
0000
2002
0000
0000
3003
0000
0000
0000
0000
;

//---------------dance-double - From Castlevania\: Harmony of Despair----------------
#NOTEDATA:;
#CHARTNAME:;
#STEPSTYPE:dance-double;
#DESCRIPTION:From Castlevania\: Harmony of Despair;
#CHARTSTYLE:;
#DIFFICULTY:Challenge;
#METER:15;
#RADARVALUES:0.772818,0.758404,0.229658,0.195635,0.901621,636.000000,609.000000,27.000000,23.000000,0.000000,0.000000,0.000000,0.000000,0.000000,0.772818,0.758404,0.229658,0.195635,0.901621,636.000000,609.000000,27.000000,23.000000,0.000000,0.000000,0.000000,0.000000,0.000000;
#CREDIT:Kingly;
#NOTES:
// measure 0
00000000
00000000
00000000
00000000
,  // measure 1
00000000
00000000
00000000
00000000
,  // measure 2
00000000
00000000
00000000
00000000
,  // measure 3
00000000
00000000
00000000
00000000
00000000
00000000
00000000
00000000
00000000
00000000
00000000
00000000
00000000
00000000
00010000
00000100
,  // measure 4
00010000
00000000
00001000
00100000
00000000
00010000
01000000
00000000
00100000
00000000
00010000
00000000
00001000
00000000
00010000
00000100
,  // measure 5
00001000
00000000
00000010
00001000
00000000
00000010
00020000
00000000
00000000
00000000
00000100
00000000
00000000
00000000
00031000
01000000
,  // measure 6
00001000
00000000
00010000
00000010
00000000
00001000
00000100
00000000
00000010
00000000
00001000
00000000
00010000
00000000
00001000
01000000
,  // measure 7
00010000
00000000
00100000
00010000
00000000
00100000
00002000
00000000
00000000
00000000
01003000
00000000
00010000
00100000
00010000
00100000
,  // measure 8
00001000
00000000
00001000
00000000
00010000
00000000
00100000
00020000
00000000
00000000
00031000
00000000
01000000
00000000
00010000
10000000
,  // measure 9
02000000
00000000
00000000
00000000
03100000
00000000
00010000
01000000
00000000
00001000
00010000
00000000
00001000
00100000
00001000
00000000
,  // measure 10
00010000
00000000
00010000
00000000
00001000
00000000
00000010
00002000
00000000
00000000
00013000
00000000
00000100
00000000
00001000
00000001
,  // measure 11
00000200
00000000
00000000
00000000
00000310
00000000
00001000
00000100
00000000
00010000
00001000
00000000
00010000
00000010
00010000
00000000
,  // measure 12
00011000
00000000
01000000
00000000
00200000
00000000
01300000
00010000
00000000
00010000
00000000
10000000
01000000
00100000
00010000
00100000
,  // measure 13
00001000
00000000
00010000
00000000
00000100
00000000
00010100
00000000
00000000
00100000
00000000
00100000
00010000
00000000
01000000
00000000
,  // measure 14
00011000
00000000
00000100
00000000
00000020
00000000
00000130
00001000
00000000
00001000
00000000
00000001
00000100
00001000
00010000
00000010
,  // measure 15
00001000
00000000
00000100
00000000
00010000
00000000
00020100
00000000
00000000
00031000
00000000
00001000
01000000
00000000
00010000
00000000
,  // measure 16
00100000
00000000
00001000
00010000
00001000
00000000
00100000
00010000
00100000
00000000
00001000
00010000
00001000
00000000
01000000
00010000
,  // measure 17
01000000
00000000
00001000
00100000
00001000
00000000
00010000
00000100
00010000
00000000
00000010
00001000
00000010
00000000
00000100
00000001
,  // measure 18
00001000
00000000
00000100
00010000
00001000
00000000
00100000
00010000
01000000
00000000
00100000
10000000
01000000
00000000
00100000
00000000
,  // measure 19
00110000
00000000
00001000
00010000
00100000
00000000
00010000
00001000
00000010
00000000
00000000
00000110
00000000
00000000
00001100
00000000
,  // measure 20
00001001
00000000
00001000
00000010
00000000
00001000
00000100
00000000
00010000
00000000
00001000
00000000
00000010
00000000
00000100
00010000
,  // measure 21
00001000
00000000
00100000
00010000
00000000
01000000
00020000
00000000
00000000
00000000
10030000
00000000
01000000
00000000
00100000
00010000
,  // measure 22
01000000
00001000
01000000
00001000
00010000
00000100
00001000
00000000
00000010
00000000
00000100
00000000
00000001
00000000
00001000
00000100
,  // measure 23
00010000
00000100
00001000
00000100
00000000
00010000
00002000
00000000
00000000
00000000
00103000
00000000
00010000
00000000
10000000
00100000
,  // measure 24
10000000
00000000
00010000
00100000
00000000
00010000
01000000
00000000
00001000
00000000
00010000
00000000
00100000
00000000
01000000
00001000
,  // measure 25
00010000
00000000
00000010
00001000
00000000
00000100
00002000
00000000
00000000
00000000
00003001
00000000
00000100
00000000
00000010
00001000
,  // measure 26
00000100
00000000
00010000
00001000
00100000
00000000
00010000
00000000
01010000
00000000
00001000
00000000
00011000
00000000
00000100
00010000
,  // measure 27
00001000
00000000
00100000
00010000
00000000
01000000
00020000
00000000
10030000
01000000
00100000
00000000
00010000
01000000
00010000
01000000
,  // measure 28
00001000
00000000
00010000
00000010
00000000
00010000
00001000
00000000
01000000
00000000
00010000
00000000
00100000
00000000
01000000
00000000
,  // measure 29
00010000
00000000
00000000
00000000
00000000
00000000
00001000
00000000
00000000
00100000
00000000
00000000
00000000
00000000
00000000
00001000
00000000
00000000
00010000
00000000
00000000
00000000
00000000
00000000
00000100
00000000
00000000
00000000
00000000
00000000
00000010
00000000
00000000
00000000
00000000
00000000
00001000
00000000
00000000
00000000
00010000
00000000
00000000
00000000
00001000
00000000
00000000
00000000
,  // measure 30
00010000
00000000
00100000
10000000
00000000
00010000
10000000
00000000
01000000
00000000
00100000
00000000
00010000
00000000
00001000
00000000
,  // measure 31
00000100
00000000
00000010
00000001
00000000
00001000
00000001
00000100
00000010
00000000
00000000
00000000
00010000
00001000
00000000
00000000
,  // measure 32
00011000
00000000
00010000
00000010
00000000
00010000
00000100
00000000
00001000
00000000
00000010
00000000
00000100
00000000
00001000
00000000
,  // measure 33
00010000
00000000
00000000
00000000
00000000
00000000
00001000
00000000
00000000
00100000
00000000
00000000
00000000
00000000
00000000
00001000
00000000
00000000
01000000
00000000
00000000
00000000
00000000
00000000
00010000
00000000
00000000
00000000
00000000
00000000
00100000
00000000
00000000
00000000
00000000
00000000
00001000
00000000
00000000
00000000
00010000
00000000
00000000
00000000
00001000
00000000
00000000
00000000
,  // measure 34
00010000
00000000
00000010
00001000
00000000
00000001
00001000
00000000
00000100
00000000
00000010
00000000
00001000
00000000
00010000
00000000
,  // measure 35
01000000
00000000
00100000
00010000
00000000
10000000
00010000
00000000
01000000
00000000
00100000
00000000
00010000
00001000
00010000
00001000
,  // measure 36
00100000
00010000
10000000
00000000
00100000
00000000
01000000
00000000
00010000
00100000
00010000
00000000
10000000
00000000
00100000
00010000
,  // measure 37
00001000
00000100
00000010
00000000
00001000
00000000
00000001
00000000
00000010
00000100
00001000
00000000
00000100
00010000
00000100
00010000
,  // measure 38
00000010
00001000
00000001
00000000
00000010
00000000
00000100
00000000
00001000
00000010
00001000
00000000
00000001
00000000
00000010
00001000
,  // measure 39
00010000
00100000
01000000
00000000
00010000
00000000
10000000
00000000
00010000
00100000
00010000
00100000
00001000
00010000
00001000
00010000
,  // measure 40
00000100
00001000
00000010
00000000
00000100
00000000
00000001
00000000
00001000
00000100
00001000
00000000
00000010
00000000
00000100
00001000
,  // measure 41
00010000
01000000
00100000
00000000
00010000
00000000
01000000
00000000
00001000
00010000
00001000
00010000
00000100
00000000
00000010
00000000
,  // measure 42
00000001
00000100
00000010
00001000
00000000
00000000
00010000
01000000
00100000
10000000
00000000
00000000
00010000
00100000
00002000
00000000
,  // measure 43
00010000
00000000
00000000
01000000
00000000
00000000
00023000
00000000
00001000
00000000
00000000
00000100
00000000
00000000
00031000
00000000
,  // measure 44
00011000
00000000
00100000
00000000
00010000
00000000
10000000
00100000
00000000
10000000
01000000
00000000
00100000
00000000
00010000
00000000
,  // measure 45
01000000
00001000
00010000
00001000
00100000
00000000
00010000
02000000
00000000
00000000
03100000
00000000
00010000
00000000
00001000
00000000
,  // measure 46
00011000
00000000
00000010
00000000
00001000
00000000
00000001
00000010
00000000
00000001
00000100
00000000
00000010
00000000
00001000
00000000
,  // measure 47
00000100
00010000
00001000
00010000
00000010
00000000
00001000
00000200
00000000
00000000
00010300
00000000
00001000
00000000
00100000
00010000
,  // measure 48
01000000
00000000
00000000
11000000
00000000
00000000
01010000
00000000
00000000
00000000
00001000
00010000
00000100
00001000
00000001
00001000
,  // measure 49
00000010
00000000
00000000
00000101
00000000
00000000
00001010
00000000
00000000
00000000
00010000
00000100
00001000
00000010
00000100
00001000
,  // measure 50
00010000
00000000
00000010
00000000
00001000
00000000
00000001
00000010
00000000
00000001
00000100
00000000
00000010
00000000
00001000
00000000
,  // measure 51
00000100
00000000
00000000
00010000
00000000
00000000
00001000
00000000
00000000
00010000
00000000
00000000
00000010
00000000
00000000
00000000
00000000
00000000
00001000
00000000
00000000
00000100
00000000
00000000
00010000
00000000
00001000
00000000
00010000
00000000
00001000
00000000
00000000
00000000
00000000
00000000
00010000
00000000
00001000
00000000
00010000
00000000
00001000
00000000
00000000
00000000
00000000
00000000
,  // measure 52
00011000
00000000
00100000
00000000
00010000
00000000
10000000
00100000
00000000
10000000
01000000
00000000
00100000
00000000
00010000
00000000
,  // measure 53
01000000
00001000
00010000
00001000
00100000
00000000
00010000
10000000
00100000
01000000
00010000
00100000
00001000
00000000
00010000
00000100
,  // measure 54
00001000
00000000
00000000
00000101
00000000
00000000
00001100
00000000
00000000
00000000
00010000
00001000
01000000
00010000
10000000
00010000
,  // measure 55
00100000
00000000
00000000
11000000
00000000
00000000
00110000
00000000
00000000
00000000
00001000
01000000
00010000
00100000
01000000
00010000
,  // measure 56
00001000
00000000
00000000
00011000
00000000
00000000
00100000
00010000
00000000
01000000
00001000
00000000
00010000
00000000
00000100
00001000
,  // measure 57
00000010
00000000
00000100
00000001
00000000
00001000
00000100
00001000
00000000
00000010
00010000
00001000
00100000
00010000
00100000
00010000
,  // measure 58
01000000
00100000
01000000
00100000
01000000
00000000
00010000
00200000
00000000
00000000
00301000
00000000
00010000
00000010
00001000
00000000
,  // measure 59
00000100
00000010
00000100
00000010
00000100
00000000
00001000
00000020
00000000
00000000
00010030
00000000
00001000
00100000
00010000
00000000
,  // measure 60
10020000
00000000
00030000
02000000
00000000
03000000
00001000
00000000
00010000
00000100
00000000
00010000
00001000
00010000
00001000
00100000
,  // measure 61
00020000
00000000
00030000
02000000
00000000
03000000
00100000
00000000
00010000
00001000
00010000
00000000
00011000
00000000
00000010
00001000
,  // measure 62
00000001
00000010
00000100
00001000
00000000
00000000
00011000
00000000
10000000
00100000
01000000
00010000
00000000
00000000
00011000
00000000
,  // measure 63
00000010
00001000
00000010
00001000
00000001
00000100
00000001
00000100
00001000
00010000
00100000
01000000
00000000
00000000
00000000
00000000
;
