#TITLE:Head BONK ache;
#SUBTITLE:;
#ARTIST:saaa ft. MC iwata Bros.;
#TITLETRANSLIT:;
#SUBTITLETRANSLIT:;
#ARTISTTRANSLIT:;
#GENRE:Bass to XtraRaw;
#CREDIT:tikal.;
#MUSIC:Head BONK ache.ogg;
#BANNER:Head BONK ache.png;
#BACKGROUND:Head BONK ache-bg.png;
#CDTITLE:cdtitle.png;
#SAMPLESTART:55.660;
#SAMPLELENGTH:23.273;
#SELECTABLE:YES;
#OFFSET:-0.023;
#BPMS:0.000=165.000
,32.000=144.375
,32.875=123.750
,33.625=103.125
,34.250=82.500
,34.750=132.000
,84.000=165.000
,204.000=144.375
,204.875=123.750
,205.625=103.125
,206.250=82.500
,206.750=132.000
,264.000=165.000
,340.000=144.375
,341.750=123.750
,343.250=103.125
,344.500=82.500
;
#STOPS:34.750=2.705
,206.750=2.704
;
#DISPLAYBPM:132.000:165.000;
#ORIGIN:;
#TAGS:;
#PREVIEWVID:;
#JACKET:;
#CDIMAGE:;
#DISCIMAGE:;
#BGCHANGES:-0.062=Head BONK ache.mp4=1.000=1=0=0=StretchNoLoop==CrossFade==,
99999.000=-nosongbg-=1.000=0=0=0=StretchNoLoop====
;
#FGCHANGES:;

//--------------- dance-single - tikal. ----------------
#NOTES:
     dance-single:
     tikal.:
     Medium:
     12:
     0,0,0,0,0,0,0,0,0,0,0,0,0,0,0,0,0,0,0,0,0,0,0,0,0,0,0,0:
0000
0000
0000
0000
,
0000
0000
0000
0000
,
0000
0000
0000
0000
,
1000
0010
1000
0000
0001
0010
0001
0000
,
1000
0100
1000
0000
0001
0100
0001
0000
,
1000
0010
1000
0100
0010
0001
0100
0001
,
0010
0100
2000
3002
,
0203
0000
0000
0000
,
0000
0000
0000
0000
0000
0000
0000
0000
0000
0000
0000
0300
0000
0000
0000
0000
,
0000
0000
0000
0000
,
0001
0010
0100
0000
0010
0010
0100
0000
,
1000
0000
0010
0000
0100
0000
0000
0000
0010
1000
0001
0000
0010
0000
0000
0000
,
0001
0000
0010
0000
1000
0010
0001
0100
,
1000
0000
0100
0000
0010
0010
0110
0000
,
1000
0000
0010
0000
0001
0010
1000
0100
,
0001
0000
0100
0000
0010
0010
0110
0000
,
1000
0000
0000
0001
0000
0000
1000
0000
0001
0000
0100
0000
0110
0000
0000
0000
,
1000
0000
0001
0000
0100
0100
0100
0000
,
0001
0000
0100
0000
1000
0100
0001
0000
,
1001
0000
0000
0110
0000
0000
1000
0001
1000
0001
1000
0001
,
0020
0000
0000
0000
,
0000
0000
0000
0030
,
1001
1001
0011
0011
,
1001
0000
0000
0000
1001
0000
0000
0000
0011
0000
0000
0001
0000
0000
1000
0000
,
1001
1001
1010
1010
,
1001
0000
1010
0000
0010
0100
0000
0000
,
1001
1001
1100
1100
,
1001
0000
0000
0000
1001
0000
0000
0000
1100
0000
0000
1000
0000
0000
0001
0000
,
1001
1001
0101
0101
,
1001
0101
0110
0000
,
2000
0010
3002
0010
,
2003
0100
3002
0100
,
1003
0100
0010
0001
0100
0010
1000
0001
,
0010
1001
0220
0330
,
0011
0011
0101
0101
,
0011
0000
0000
0000
0011
0000
0000
0000
0010
0100
0000
0100
0010
0000
0001
0000
,
0011
0101
0011
0101
,
0001
0010
0100
1000
0010
0000
0000
0000
,
1010
1010
1100
1100
,
1010
0000
0000
0000
1010
0000
0000
0000
0010
0100
0000
0100
0010
0000
1000
0000
,
1010
1100
1010
1100
,
1000
0010
0100
0001
0020
0000
0000
0000
,
2030
3002
2003
3002
,
0203
0000
0000
0000
0000
0000
2300
0000
0000
0000
0000
0000
3010
0000
0100
0000
0010
0000
0100
0000
0000
0010
0000
0000
,
0002
2003
3002
2003
,
3100
0010
1000
0001
0010
0000
0000
0000
,
0001
0010
0001
1000
0001
0010
0001
0000
,
1000
0000
0010
0000
1000
0000
0001
0000
1000
0100
0000
0100
0010
0000
0010
0000
,
0001
0100
0001
1000
0001
0100
0001
0000
,
1000
0000
1000
0000
0001
1000
0000
0001
0100
0000
0000
0000
0010
0000
0010
0000
,
0220
0000
0000
0000
,
0000
0000
0000
0000
0000
0000
0000
0000
0000
0000
0000
0330
0000
0000
0000
0000
,
0000
0000
0000
0000
,
1000
0100
0010
0000
0100
0100
0010
0000
,
0001
0100
0010
0000
0100
0100
0010
0000
,
1000
0010
1000
0001
0010
0001
1000
0100
,
0010
0001
0100
0010
1000
0001
1001
0000
,
1000
0000
0010
0000
0001
0010
1000
0100
,
0001
0000
0100
0000
0010
0010
0110
0000
,
0001
0000
0010
0000
1000
0010
0001
0100
,
1000
0000
0100
0000
0010
0010
0110
0000
,
0001
0000
0000
1000
0000
0000
0001
0000
1000
0000
0100
0000
0110
0000
0000
0000
,
0001
0000
1000
0000
0100
0100
0100
0000
,
1000
0000
0100
0000
0001
0100
1000
0000
,
1001
0000
0000
0110
0000
0000
0001
1000
0001
1000
0001
1000
,
0020
0000
0000
0000
,
0000
0000
0000
0030
,
0100
1001
0220
0330
,
1100
0000
0100
1000
1010
0000
1010
0000
,
1100
0000
0000
0000
1100
0000
0000
0000
0100
0010
0000
0010
0100
0000
1000
0000
,
1100
1010
1100
1010
,
1000
0100
0010
0001
0100
0000
0000
0000
,
0101
0000
0000
0100
0001
0000
0010
0000
0011
0000
0000
0000
0011
0000
0000
0000
,
0101
0000
0000
0000
0101
0000
0000
0000
0100
0010
0000
0010
0100
0000
0001
0000
,
0101
0011
0101
0011
,
0001
0000
0000
0100
0000
0000
0010
0000
0000
1000
0000
0000
0100
0000
0000
0000
0100
0000
0000
0000
0200
0000
0000
0000
,
0302
2003
3002
2003
,
3020
0000
0000
0000
0000
0000
0032
0000
0000
0000
0000
0000
0103
0000
0010
0000
0100
0000
0010
0000
0000
0100
0000
0000
,
2000
3002
2003
3002
,
0013
0100
0001
1000
0100
0000
0000
0000
,
1000
0100
1000
0001
1000
0100
1000
0000
,
0001
0000
0100
0000
0001
0000
1000
0000
0001
0010
0000
0010
0100
0000
0100
0000
,
1000
0010
1000
0001
1000
0010
1000
0000
,
0001
0000
0001
0000
1000
0001
0000
1000
0010
0000
0000
0000
0100
0000
0100
0000
,
0220
0000
0000
0000
,
0000
0000
0000
0000
,
0000
0000
0000
0330
0000
0000
0000
0000
0000
0000
0000
0000
0000
0000
0000
0000
;

//--------------- dance-single - tikal. ----------------
#NOTES:
     dance-single:
     tikal.:
     Hard:
     15:
     0,0,0,0,0,0,0,0,0,0,0,0,0,0,0,0,0,0,0,0,0,0,0,0,0,0,0,0:
0000
0000
0000
0000
,
0000
0000
0000
0000
,
0000
0000
0000
0000
,
1000
0010
0001
0000
0001
0010
1000
0000
,
0001
0100
1000
0000
1000
0100
0001
0000
,
1000
1000
0100
0100
0010
0010
0001
0001
,
0100
0000
0010
0000
0220
0330
2002
3003
,
0220
0000
0000
0000
,
0000
0000
0000
0000
0000
0000
0000
0000
0000
0000
0000
0330
0000
0000
0000
0000
,
0000
0000
0000
0000
,
1000
0000
0100
0000
0110
0000
0000
0100
0000
0000
0010
0000
0110
0000
0000
0000
,
0001
0000
0100
0000
0110
0000
0000
0100
0010
1000
0001
1000
0100
0000
0000
0000
,
0001
0100
0010
0100
0001
0100
0110
0010
,
1000
0010
0100
0010
0001
1001
0101
0100
,
1000
0100
0010
0100
1000
0100
0110
0010
,
0001
0010
0100
0010
1000
1001
1100
0000
,
0110
0000
0000
0011
0000
0000
1010
0000
1000
0000
0100
0000
0210
0000
0000
0000
,
0301
0100
0010
0100
1000
1001
1010
0010
,
0001
0010
0100
0010
0001
0010
0110
0100
,
0101
0000
0000
1100
0000
0000
0001
0010
0100
1000
0001
0200
,
0020
0000
0000
0000
,
0000
0000
0000
0330
,
1010
1010
1100
1100
,
1010
0000
0000
0000
1100
0000
0000
0000
0110
0000
0000
0011
0000
0000
1001
0000
,
0101
0000
0000
0000
0101
0000
0000
0000
0011
0000
0000
0000
0011
0000
0001
0010
,
0100
0000
0110
0000
1001
1000
0000
0000
,
0011
0011
0101
0101
,
0011
0000
0000
0000
0101
0000
0000
0000
0110
0000
0000
1010
0000
0000
1001
0000
,
1100
0000
0000
0000
1100
0000
0000
0000
1010
0000
0000
0000
1010
0000
1000
0010
,
0100
0110
1001
0000
,
0002
0100
0100
0000
0203
0010
0010
0000
,
0320
1000
1000
0000
2030
0001
0001
0000
,
3001
0000
0010
0000
0100
0000
1000
0000
0010
0100
0010
0100
0010
0100
0010
0100
,
0010
0110
2002
3003
,
1000
0000
0000
1000
0010
0000
0000
0010
1000
0000
0000
1000
0001
0000
0000
0001
,
0010
0000
0000
0010
0001
0000
0000
0001
1000
0010
0000
0010
1000
0001
0100
0000
,
0001
0100
0000
0000
0100
0001
0000
0000
1000
0100
0000
0000
0100
1000
0000
0000
,
0001
0010
0100
1000
0010
0000
0000
0000
,
1000
0000
0000
1000
0100
0000
0000
0100
1000
0000
0000
1000
0001
0000
0000
0001
,
0100
0000
0000
0100
0001
0000
0000
0001
1000
0100
0000
0100
1000
0001
0010
0000
,
0001
0010
0000
0000
0010
0001
0000
0000
1000
0010
0000
0000
0010
1000
0000
0000
,
0001
0100
0010
1000
0200
0000
0000
0000
,
0310
0001
0010
0001
0000
1000
0001
0100
0001
0100
0000
0010
,
0100
0000
0000
0000
1000
0000
0000
0000
0100
0000
0000
0000
1000
0000
0000
0000
0000
0000
0000
0000
0001
0000
0000
0000
0010
0000
0000
0000
1000
0000
0000
0000
0001
0000
0000
0000
1000
0000
0000
0100
0000
0000
0010
0000
0000
0001
0000
0000
,
0100
1000
0100
1000
0000
0001
0010
1000
0010
1000
0000
0100
,
0010
0001
1000
0010
0100
0000
0000
0000
,
0002
0013
0020
0130
0200
1300
0001
1000
,
0002
0000
0103
0000
0200
0000
0310
0000
0010
1000
0000
1000
0100
0010
0001
0000
,
2000
3010
0020
0130
0200
0301
1000
0001
,
0010
0100
0010
0000
0001
1000
0000
0010
0100
0000
0000
0000
0010
0100
0010
0000
,
0220
0000
0000
0000
,
0000
0000
0000
0000
0000
0000
0000
0000
0000
0000
0000
0330
0000
0000
0000
0000
,
0000
0000
0000
0000
,
0001
0000
0100
0000
0110
0000
0000
0100
0000
0000
0010
0000
0110
0000
0000
0000
,
1000
0000
0100
0000
0110
0000
0000
0010
0000
0000
0100
0000
0110
0000
0000
0000
,
0001
0001
0100
0100
0010
0010
1000
1000
,
0100
0010
0100
0010
0100
0010
0100
0010
0100
1000
0001
0100
0010
0000
0000
0000
,
0001
0010
1000
0010
0001
0010
0100
0001
,
0010
1000
0010
0001
0100
0101
1200
0000
,
0301
0100
1000
0100
0001
0100
0010
0001
,
0101
0000
1100
0000
0110
0010
1001
0000
,
0110
0000
0000
1010
0000
0000
0011
0000
0001
0000
0100
0000
0210
0000
0000
0000
,
1300
0100
0001
0100
0010
1010
0021
0000
,
1030
0010
0001
0010
1000
0010
0100
1000
,
1001
0000
0000
0110
0000
0000
1000
0010
0100
0001
1000
0200
,
0020
0000
0000
0000
,
0000
0000
0000
0330
,
0010
0110
2002
3003
,
0001
0000
0000
0001
0100
0010
1000
0001
0010
0000
0000
0010
0100
0000
0000
0100
,
1000
0000
0000
1000
0001
0000
0000
0001
1000
0100
0000
0100
1000
0001
0010
0000
,
0001
0010
0000
0000
0010
0001
0000
0000
1000
0010
0000
0000
0010
1000
0000
0000
,
0001
0100
0010
1000
0200
0000
0001
0000
,
1300
0000
0000
1000
0001
0000
0110
0000
1000
0000
0000
1000
0001
0000
0000
0001
,
0010
0000
0000
0010
0001
0000
0000
0001
1000
0010
0000
0010
1000
0001
0100
0000
,
0001
0100
0000
0000
0100
0001
0000
0000
1000
0100
0000
0000
0100
1000
0000
0000
,
0001
0000
0000
0010
0000
0000
0100
0000
0000
1000
0000
0000
0010
0000
0000
0000
0011
0000
0000
0000
1010
0000
0000
0000
,
0010
1000
0010
1000
0000
0001
1000
0100
1000
0100
0000
0010
,
0100
0000
0000
0000
0001
0000
0000
0000
0100
0000
0000
0000
0001
0000
0000
0000
0000
0000
0000
0000
1000
0000
0000
0000
0010
0000
0000
0000
0001
0000
0000
0000
1000
0000
0000
0000
0001
0000
0000
0100
0000
0000
0010
0000
0000
1000
0000
0000
,
0100
0001
0100
0001
0000
1000
0010
0001
0010
0001
0000
0100
,
0010
1000
0001
0010
0100
0000
0000
0000
,
2000
3010
0020
0130
0200
0301
1000
0001
,
2000
0000
3100
0000
0200
0000
0310
0000
0010
0001
0000
0001
0100
0010
1000
0000
,
0002
0013
0020
0130
0200
1300
0001
1000
,
0010
0100
0010
0000
1000
0001
0000
0010
0100
0000
0000
0000
0010
0100
0010
0000
,
0220
0000
0000
0000
,
0000
0000
0000
0000
,
0000
0000
0000
0330
0000
0000
0000
0000
0000
0000
0000
0000
0000
0000
0000
0000
;

//--------------- dance-single - tikal. HOT SAUCE ----------------
#NOTES:
     dance-single:
     tikal. HOT SAUCE:
     Challenge:
     18:
     0.799878,0.828965,0.783193,0.212974,0.807238,815,701,114,31,36,0,0,0,0,0.799878,0.828965,0.783193,0.212974,0.807238,815,701,114,31,36,0,0,0,0:
0000
0000
0000
0000
,
0000
0000
0000
0000
,
0000
0000
0000
0000
,
1000
0000
0010
0000
0100
0001
0000
0001
1000
0000
0100
0000
0010
0001
0000
0010
,
0001
0000
0100
0000
0010
1000
0000
1000
0001
0000
0100
0000
0010
1000
0000
0010
,
1000
1000
0100
0100
0010
0010
0001
0001
,
0100
0000
0010
0000
0220
0330
2002
3003
,
0220
0000
0000
0000
,
0000
0000
0000
0000
0000
0000
0000
0000
0000
0000
0000
0330
0000
0000
0000
0000
,
0000
0000
0000
0000
,
1000
0100
0010
0000
0110
0000
0100
0001
0100
1000
0001
0000
1001
0000
1000
0001
,
0100
0000
0010
0000
0110
0000
0100
0001
1000
001M
M010
0001
0100
0000
0000
0000
,
1010
0000
0001
0010
1000
0000
1010
0000
0010
0100
1000
0010
0100
0000
0001
0000
,
0101
0000
1000
0100
0001
0000
0101
0000
0100
0000
1100
0000
1001
0000
0001
1000
,
0001
0000
1000
0010
0001
0000
0011
0000
0010
0100
0001
0010
0100
0000
1000
0000
,
1100
0000
0001
0100
1000
0000
1100
0000
0100
0000
0101
0000
2001
0000
0000
0000
,
3001
0010
0000
1000
0010
0000
0001
0100
1000
0000
0100
0000
0110
0000
0000
0000
,
1010
0000
0001
0010
1000
0000
1010
0000
0010
0000
0011
0000
1001
0000
1000
0001
,
1000
0000
0001
0100
1000
0000
1100
0000
0100
0010
1000
0100
0010
0000
0001
0000
,
0011
0000
0000
0001
0000
0000
1001
0000
0000
1000
0000
0000
0010
0000
0001
0000
1000
0000
0100
0000
0001
0000
0020
0000
,
0200
0000
0000
0000
,
0000
0000
0000
0330
,
1100
0000
0100
1000
0010
0000
0000
0000
1100
0000
0100
1000
0010
0000
0000
0000
,
0101
0000
0100
0001
0010
0000
0000
0000
0101
0000
0000
1001
0000
0000
0011
0000
,
1010
0000
0000
0000
0000
0000
0010
0000
0000
1000
0000
0000
0100
0000
0000
0000
0000
0000
0000
0000
0000
0000
0000
0000
0011
0000
0000
0000
0000
0000
0010
0000
0000
0001
0000
0000
0100
0000
0000
0000
0000
0000
0010
0000
1000
0000
0001
0000
,
1000
0000
1001
0000
0110
0110
1000
0001
,
0011
0000
0010
0001
0100
0000
0000
0000
0011
0000
0010
0001
0100
0000
0000
0000
,
1010
0000
0010
1000
0100
0000
0000
0000
1010
0000
0000
1001
0000
0000
1100
0000
,
0101
0000
0000
0000
0000
0000
0100
0000
0000
0001
0000
0000
0010
0000
0000
0000
0000
0000
0000
0000
0000
0000
0000
0000
1100
0000
0000
0000
0000
0000
0100
0000
0000
1000
0000
0000
0010
0000
0000
0000
0000
0000
0100
0000
0001
0000
1000
0000
,
0001
1001
0110
0000
,
2000
0000
0100
0000
3200
0000
1300
0001
2000
0000
0001
0000
3001
0100
0010
0100
,
0002
0000
0100
0000
0203
0000
0301
1000
0002
0000
1000
0000
1003
0100
0010
0100
,
1000
0001
1000
0001
0100
0010
0100
0010
1000
0001
0010
0100
1000
0001
0100
0010
,
1000
0110
2002
3003
,
1010
0000
1000
0010
0100
0000
0010
0100
0001
0000
1000
0001
1000
0000
0001
0100
,
0010
0000
0100
0010
1000
0000
0001
1000
0001
1000
0000
1000
0100
0010
0001
0000
,
1000
0100
0010
0000
0100
0010
0001
0000
1000
0001
1000
0000
0001
0010
0100
0000
,
1100
0101
0011
1010
0220
0000
0330
0000
,
0011
0000
0001
0010
0100
0000
0010
0100
1000
0000
0001
1000
0001
0000
1000
0100
,
0010
0000
0100
0010
0001
0000
1000
0001
1000
0001
0000
0001
0100
0010
1000
0000
,
0001
0100
0010
0000
0100
0010
1000
0000
0001
1000
0001
0000
1000
0010
0100
0000
,
0101
1100
1010
0011
2002
0000
3003
0000
,
1000
0010
M010
0001
0010
001M
0100
0010
M010
0001
0010
001M
,
1000
0000
0000
0000
0010
0000
0000
0000
M010
0000
0000
0000
0001
0000
0000
0000
0010
0000
0000
0000
001M
0000
0000
0000
M100
0000
0000
0000
010M
0000
0000
0000
M100
0000
0000
0000
0001
0000
0000
0010
0000
0000
0100
0000
0000
1000
0000
0000
,
0001
0100
010M
1000
0100
M100
0010
0100
010M
1000
0100
M100
,
0001
0101
1100
1010
0011
0000
0000
0000
,
1000
0100
0010
0000
0010
0100
1000
0000
1000
0100
0010
0000
0001
0000
1000
0000
,
0001
0100
0010
0000
0010
0100
0001
0000
0001
0100
000M
0100
1000
0010
1000
0000
,
0001
0010
0100
0000
0100
0010
0001
0000
1000
0010
0100
0000
0100
0010
1000
0000
,
0001
0000
0000
1000
0000
0000
0001
0000
0000
0000
0000
0000
1000
0000
0000
0010
0000
0000
M000
0000
0000
0010
0000
0000
0001
0000
0000
0000
0000
0000
0000
0000
0000
0000
0000
0000
0100
0000
0010
0000
0100
0000
0010
0000
0100
0000
0020
0000
,
0200
0000
0000
0000
,
0000
0000
0000
0000
0000
0000
0000
0000
0000
0000
0000
0330
0000
0000
0000
0000
,
0000
0000
0000
0000
,
0001
0100
0010
0000
0110
0000
0100
1000
0100
0001
1000
0000
1001
0000
0001
1000
,
0100
0000
0010
0000
0110
0000
0100
0001
0100
1000
0001
0000
1001
0000
1000
0001
,
0100
0100
0010
0010
1000
1000
0001
0001
,
0010
0100
0010
0100
1000
0001
1000
0001
1000
001M
M010
0001
0100
0000
0000
0000
,
1010
0000
0010
1000
0100
0000
0110
0000
0010
0000
1001
0000
0101
0000
0000
0000
,
0011
0000
0010
0001
0100
0000
0110
0000
0010
0000
1001
0000
1100
0000
0000
0000
,
0101
0000
0100
0001
0010
0000
0110
0000
0100
0000
1001
0000
1010
0000
0010
0000
,
0110
0000
1001
0000
1100
0101
1002
0000
,
1003
0010
0000
0001
0010
0000
1000
0100
0001
0000
0100
0000
0110
0000
0000
0000
,
1100
0000
0100
1000
0010
0000
0110
0000
0100
0000
1001
0000
0011
0000
0000
0000
,
1010
0000
0010
1000
0100
0000
0010
0000
0011
0000
0010
0001
0100
0000
0010
0000
,
1010
0000
0000
0000
0000
0000
1001
0000
0000
0001
0000
0000
0010
0000
1000
0000
0001
0000
0100
0000
1000
0000
0020
0000
,
0200
0000
0000
0000
,
0000
0000
0000
0330
,
0001
0110
2002
3003
,
1000
0001
0100
0000
001M
M010
0001
1000
0001
0000
0100
0010
1000
0000
0001
1000
,
0001
0000
1000
0010
0100
0000
0010
0100
0001
0010
0000
0001
0100
0010
1000
0000
,
0001
0010
0100
0000
0010
0100
1000
0000
0001
1000
0001
0000
1000
0100
0010
0000
,
0011
0101
1100
1010
0210
0000
1000
0000
,
0301
0000
0100
0010
1000
0000
1010
0000
0011
0000
0001
0010
0100
0000
1000
0001
,
1000
0000
0100
0010
0001
0000
0010
0100
1000
0010
0000
1000
0001
0010
0100
0000
,
1000
0010
0100
0000
0010
0100
0001
0000
1000
0001
1000
0000
0001
0100
0010
0000
,
1010
0000
0000
1100
0000
0000
0101
0000
0000
0011
0000
0000
0110
0000
0000
0000
1100
0000
0000
0000
0101
0000
0000
0000
,
0001
0010
001M
1000
0010
M010
0100
0010
001M
1000
0010
M010
,
0001
0000
0000
0000
0010
0000
0000
0000
001M
0000
0000
0000
1000
0000
0000
0000
0010
0000
0000
0000
M010
0000
0000
0000
010M
0000
0000
0000
M100
0000
0000
0000
010M
0000
0000
0000
1000
0000
0000
0010
0000
0000
0100
0000
0000
0001
0000
0000
,
1000
0100
M100
0001
0100
010M
0010
0100
M100
0001
0100
010M
,
1000
1100
0101
0011
1010
0000
0000
0000
,
0001
0100
0010
0000
0010
0100
0001
0000
0001
0100
0010
0000
1000
0000
0001
0000
,
1000
0100
0010
0000
0010
0100
1000
0000
1000
0100
M000
0100
0001
0010
0001
0000
,
1000
0010
0100
0000
0100
0010
1000
0000
0001
0010
0100
0000
0100
0010
0001
0000
,
1000
0000
0000
0001
0000
0000
1000
0000
0000
0000
0000
0000
0001
0000
0000
0010
0000
0000
000M
0000
0000
0010
0000
0000
1000
0000
0000
0000
0000
0000
0000
0000
0000
0000
0000
0000
0100
0000
0010
0000
0100
0000
0010
0000
0100
0000
0020
0000
,
0200
0000
0000
0000
,
0000
0000
0000
0000
,
0000
0000
0000
0330
0000
0000
0000
0000
0000
0000
0000
0000
0000
0000
0000
0000
;

//--------------- dance-single - tikal. XTRA HOT SAUCE ----------------
#NOTES:
     dance-single:
     tikal. XTRA HOT SAUCE:
     Edit:
     19:
     0,0,0,0,0,0,0,0,0,0,0,0,0,0,0,0,0,0,0,0,0,0,0,0,0,0,0,0:
0000
0000
0000
0000
,
0000
0000
0000
0000
,
0000
0000
0000
0000
,
1000
0000
0010
0000
0100
0001
0000
0001
1000
0000
0100
0000
0010
0001
0000
0010
,
0001
0000
0100
0000
0010
1000
0000
1000
0001
0000
0100
0000
0010
1000
0000
0010
,
1000
1000
0100
0100
0010
0010
0001
0001
,
0100
0000
0010
0000
0220
0330
2002
3003
,
0220
0000
0000
0000
,
0000
0000
0000
0000
0000
0000
0000
0000
0000
0000
0000
0330
0000
0000
0000
0000
,
0000
0000
0000
0000
,
1000
0100
0010
0000
0110
0000
0100
0001
0100
1000
0001
0000
1001
0000
1000
0001
,
0100
0000
0010
0000
0110
0000
0100
0001
1000
001M
M010
0001
0100
0000
0000
0000
,
1010
0000
0001
0010
1000
0000
1010
0000
0010
0100
1000
0010
0100
0000
0001
0000
,
0101
0000
1000
0100
0001
0000
0101
0000
0100
0000
1100
0000
1001
0000
0001
1000
,
0001
0000
1000
0010
0001
0000
0011
0000
0010
0100
0001
0010
0100
0000
1000
0000
,
1100
0000
0001
0100
1000
0000
1100
0000
0100
0000
0101
0000
2001
0000
0000
0000
,
3001
0010
0000
1000
0010
0000
0001
0100
1000
0000
0100
0000
0110
0000
0000
0000
,
1010
0000
0001
0010
1000
0000
1010
0000
0010
0000
0011
0000
1001
0000
1000
0001
,
1000
0000
0001
0100
1000
0000
1100
0000
0100
0010
1000
0100
0010
0000
0001
0000
,
0011
0000
0000
0001
0000
0000
1001
0000
0000
1000
0000
0000
0010
0000
0001
0000
1000
0000
0100
0000
0001
0000
0020
0000
,
0200
0000
0000
0000
,
0000
0000
0000
0330
,
1100
0000
0100
1000
0010
0000
0000
0000
1100
0000
0100
1000
0010
0000
0000
0000
,
0101
0000
0100
0001
0010
0000
0000
0000
0101
0000
0000
1001
0000
0000
0011
0000
,
1010
0000
0000
0000
0000
0000
0010
0000
0000
1000
0000
0000
0100
0000
0000
0000
0000
0000
0000
0000
0000
0000
0000
0000
0011
0000
0000
0000
0000
0000
0010
0000
0000
0001
0000
0000
0100
0000
0000
0000
0000
0000
0010
0000
1000
0000
0001
0000
,
1000
0000
1001
0000
0110
0110
1000
0001
,
0011
0000
0010
0001
0100
0000
0000
0000
0011
0000
0010
0001
0100
0000
0000
0000
,
1010
0000
0010
1000
0100
0000
0000
0000
1010
0000
0000
1001
0000
0000
1100
0000
,
0101
0000
0000
0000
0000
0000
0100
0000
0000
0001
0000
0000
0010
0000
0000
0000
0000
0000
0000
0000
0000
0000
0000
0000
1100
0000
0000
0000
0000
0000
0100
0000
0000
1000
0000
0000
0010
0000
0000
0000
0000
0000
0100
0000
0001
0000
1000
0000
,
0001
1001
0110
0000
,
2000
0000
0100
0000
3200
0000
1300
0001
2000
0000
0001
0000
3001
0100
0010
0100
,
0002
0000
0100
0000
0203
0000
0301
1000
0002
0000
1000
0000
1003
0100
0010
0100
,
1000
0001
1000
0001
0100
0010
0100
0010
1000
0001
0010
0100
1000
0001
0100
0010
,
1000
0110
2002
3000
,
1013
0100
0010
0001
1010
0100
0010
0001
1010
0100
0010
0001
1010
0100
0010
0001
,
1100
0010
0100
0001
1100
0010
0100
0001
1100
0011
0000
1100
0001
1010
0101
1000
,
0011
0100
0010
1000
0011
0100
0010
1000
0101
0010
0100
1000
0101
0010
0100
1000
,
0101
1100
1010
0011
0220
0000
0300
0000
,
0131
0010
0100
1000
0101
0010
0100
1000
0101
0010
0100
1000
0101
0010
0100
1000
,
0011
0100
0010
1000
0011
0100
0010
1000
0011
1100
0000
0001
1010
0101
1000
0001
,
1100
0010
0100
0001
1100
0010
0100
0001
1010
0100
2010
0001
3010
0100
0010
0001
,
1010
0011
0101
1100
2002
0000
3000
0000
,
1013
0001
0010
0101
0010
0001
1010
0001
0010
0101
0010
0001
,
1100
0000
0000
0000
0001
0000
0000
0000
0100
0000
0000
0000
0011
0000
0000
0000
0100
0000
0000
0000
0001
0000
0000
0000
1100
0000
0000
0000
0011
0000
0000
0000
1100
0000
0000
0000
0001
0000
0000
0010
0000
0000
0100
0000
0000
1000
0000
0000
,
0011
1000
0010
1100
0010
1000
0101
1000
0100
1010
0100
1000
,
0101
1100
1010
0011
0110
0000
0000
0000
,
1000
0100
0010
0000
0010
0100
1000
0000
1000
0100
0010
0000
0001
0000
1000
0000
,
0001
0100
0010
0000
0010
0100
0001
0000
0001
0100
000M
0100
1000
0010
1000
0000
,
0001
0010
0100
0000
0100
0010
0001
0000
1000
0010
0100
0000
0100
0010
1000
0000
,
0001
0000
0000
1000
0000
0000
0001
0000
0000
0000
0000
0000
1000
0000
0000
0010
0000
0000
M000
0000
0000
0010
0000
0000
0001
0000
0000
0000
0000
0000
0000
0000
0000
0000
0000
0000
0100
0000
0010
0000
0100
0000
0010
0000
0100
0000
0020
0000
,
0200
0000
0000
0000
,
0000
0000
0000
0000
0000
0000
0000
0000
0000
0000
0000
0330
0000
0000
0000
0000
,
0000
0000
0000
0000
,
0001
0100
0010
0000
0110
0000
0100
1000
0100
0001
1000
0000
1001
0000
0001
1000
,
0100
0000
0010
0000
0110
0000
0100
0001
0100
1000
0001
0000
1001
0000
1000
0001
,
0100
0100
0010
0010
1000
1000
0001
0001
,
0010
0100
0010
0100
1000
0001
1000
0001
1000
001M
M010
0001
0100
0000
0000
0000
,
1010
0000
0010
1000
0100
0000
0110
0000
0010
0000
1001
0000
0101
0000
0000
0000
,
0011
0000
0010
0001
0100
0000
0110
0000
0010
0000
1001
0000
1100
0000
0000
0000
,
0101
0000
0100
0001
0010
0000
0110
0000
0100
0000
1001
0000
1010
0000
0010
0000
,
0110
0000
1001
0000
1100
0101
1002
0000
,
1003
0010
0000
0001
0010
0000
1000
0100
0001
0000
0100
0000
0110
0000
0000
0000
,
1100
0000
0100
1000
0010
0000
0110
0000
0100
0000
1001
0000
0011
0000
0000
0000
,
1010
0000
0010
1000
0100
0000
0010
0000
0011
0000
0010
0001
0100
0000
0010
0000
,
1010
0000
0000
0000
0000
0000
1001
0000
0000
0001
0000
0000
0010
0000
1000
0000
0001
0000
0100
0000
1000
0000
0020
0000
,
0200
0000
0000
0000
,
0000
0000
0000
0330
,
0001
0110
2002
0003
,
3011
0100
0001
0000
M010
001M
1000
0100
1010
0100
1000
0000
0011
0100
0001
0000
,
1010
0100
1000
0000
0011
0100
0001
0000
1010
0101
0000
1010
0001
1100
0011
1000
,
0101
0010
0001
0000
1100
0010
1000
0000
0101
0010
0001
0000
1100
0010
1000
0000
,
0101
0011
1010
1100
0210
0000
0001
0000
,
1310
0000
0100
1010
0101
0000
0110
0000
0101
0000
0010
0001
1100
0000
0010
1000
,
0101
0000
0010
0001
1100
0000
0010
1000
0101
1010
0000
0101
1000
0011
1100
0001
,
1010
0000
0100
1000
0011
0000
0100
0001
1010
0000
0100
1000
0011
0000
0100
0001
,
1010
0000
0000
1100
0000
0000
0101
0000
0000
0011
0000
0000
0110
0000
0000
0000
1100
0000
0000
0000
0101
0000
0000
0000
,
0011
1000
0010
1100
0010
1000
0011
1000
0010
1100
0010
1000
,
0101
0000
0000
0000
1000
0000
0000
0000
0100
0000
0000
0000
1010
0000
0000
0000
0100
0000
0000
0000
1000
0000
0000
0000
0101
0000
0000
0000
1010
0000
0000
0000
0101
0000
0000
0000
1000
0000
0000
0010
0000
0000
0100
0000
0000
0001
0000
0000
,
1010
0001
0010
0101
0010
0001
1100
0001
0100
0011
0100
0001
,
1100
0101
0011
1010
0110
0000
0000
0000
,
0011
0100
0010
0000
1100
0010
1000
0000
0011
0100
0010
0000
1100
0000
0001
0000
,
1010
0100
0010
0000
0101
0010
0001
0000
1010
0100
M000
0100
0001
0010
0001
0000
,
1100
0010
0100
0000
0011
0100
0001
0000
1010
0100
0010
0000
0101
0010
0001
0000
,
1000
0000
0000
0001
0000
0000
1000
0000
0000
0000
0000
0000
0001
0000
0000
0010
0000
0000
000M
0000
0000
0010
0000
0000
1000
0000
0000
0000
0000
0000
0000
0000
0000
0000
0000
0000
0100
0000
0010
0000
0100
0000
0010
0000
0100
0000
0020
0000
,
0200
0000
0000
0000
,
0000
0000
0000
0000
,
0000
0000
0000
0330
0000
0000
0000
0000
0000
0000
0000
0000
0000
0000
0000
0000
;
