#VERSION:0.83;
#TITLE:Hagoromo Nomai;
#SUBTITLE:;
#ARTIST:Tanchiky;
#TITLETRANSLIT:;
#SUBTITLETRANSLIT:;
#ARTISTTRANSLIT:;
#GENRE:;
#ORIGIN:;
#CREDIT:;
#BANNER:Hagoromo Nomai.png;
#BACKGROUND:Hagoromo Nomai-bg.png;
#PREVIEWVID:;
#JACKET:Hagoromo Nomai-jacket.png;
#CDIMAGE:;
#DISCIMAGE:;
#LYRICSPATH:;
#CDTITLE:;
#MUSIC:Hagaromo Nomai.ogg;
#OFFSET:-0.501185;
#SAMPLESTART:43.522507;
#SAMPLELENGTH:13.241379;
#SELECTABLE:YES;
#BPMS:0.000=145.000;
#STOPS:;
#DELAYS:;
#WARPS:;
#TIMESIGNATURES:0.000=4=4;
#TICKCOUNTS:0.000=4;
#COMBOS:0.000=1;
#SPEEDS:0.000=1.000=0.000=0;
#SCROLLS:0.000=1.000;
#FAKES:;
#LABELS:0.000=Song Start;
#BGCHANGES:;
#KEYSOUNDS:;
#ATTACKS:
;

//---------------dance-single - ----------------
#NOTEDATA:;
#CHARTNAME:;
#STEPSTYPE:dance-single;
#DESCRIPTION:;
#CHARTSTYLE:;
#DIFFICULTY:Challenge;
#METER:16;
#RADARVALUES:0.793103,0.911947,0.187328,0.102179,0.906838,652.000000,630.000000,22.000000,12.000000,0.000000,0.000000,0.000000,0.000000,0.000000,0.793103,0.911947,0.187328,0.102179,0.906838,652.000000,630.000000,22.000000,12.000000,0.000000,0.000000,0.000000,0.000000,0.000000;
#CREDIT:Daniel Van Eden;
#NOTES:
// measure 0
0000
0000
0000
0000
,  // measure 1
0000
0000
0000
0000
,  // measure 2
0000
0000
0000
0000
,  // measure 3
0000
0000
0000
0000
,  // measure 4
0000
0000
0000
0000
,  // measure 5
0000
0000
0000
0000
,  // measure 6
0000
0000
0000
0000
,  // measure 7
0000
0000
0000
0000
,  // measure 8
0000
0000
0000
0000
,  // measure 9
0000
0000
0000
0110
,  // measure 10
1001
0000
1000
0000
0001
0000
0001
0100
0001
0000
0001
1000
0010
1000
0001
0100
,  // measure 11
0010
0100
0010
1000
0001
0010
0100
0010
0001
1000
0001
0010
0100
1000
0010
1000
,  // measure 12
0001
0000
1000
0010
1000
0000
1000
0010
0100
0010
1000
0001
0010
0001
1000
0001
,  // measure 13
0100
0010
1000
0001
0010
0100
1000
0001
1000
0100
0010
0001
1000
0010
0100
0001
,  // measure 14
1000
0000
2001
0000
0100
0000
0100
0000
3100
0000
0100
0010
0100
1000
0001
1000
,  // measure 15
0010
0100
0010
1000
0001
1000
0100
0010
0001
1000
0100
1000
0001
0100
0010
1000
,  // measure 16
0001
0000
0001
1000
0001
0000
0001
0010
0001
1000
0100
0010
0001
1000
0010
0100
,  // measure 17
0001
0000
0001
0000
0001
0000
0010
0001
1000
0000
0010
1000
0001
0000
0000
0000
,  // measure 18
0101
0000
0101
0000
0001
0000
0100
0001
1000
0000
0010
1000
0001
0000
0010
0000
,  // measure 19
0110
0000
0110
0000
0100
0010
0100
1000
0001
0000
0100
0001
1000
0000
0010
0000
,  // measure 20
1010
0000
1010
0000
1000
0000
0010
1000
0001
0000
0100
0001
1000
0000
0100
0000
,  // measure 21
0110
0000
0110
0000
0010
0100
0010
0001
1000
0000
0010
1000
0001
0000
1000
0000
,  // measure 22
0100
0000
0100
0000
0001
0000
0100
1000
0001
0000
0100
0010
1000
0000
0001
0000
,  // measure 23
0010
0000
0010
0000
1000
0000
0010
0001
1000
0000
0010
0100
0001
0000
1000
0001
,  // measure 24
1000
0000
1000
0000
0100
0000
0100
0000
0010
0001
0010
0001
1000
0001
1000
0001
,  // measure 25
0100
0000
0000
0000
0000
0000
0000
0000
0010
0000
0100
0000
0010
0000
0000
0000
0000
0000
0010
0000
0000
1000
0000
0000
0001
0000
0000
0000
0000
0000
0000
0000
0000
0010
0000
0000
0001
0000
0000
0000
0000
0000
1000
0000
0000
0000
0000
0000
,  // measure 26
1001
0000
0001
0000
0001
0000
0100
0001
0100
0000
0010
1000
0010
0000
1000
0100
,  // measure 27
1000
0000
0100
0010
0001
1000
0001
0010
0001
0000
0100
0010
1000
0000
0001
0000
,  // measure 28
1000
0000
1000
0000
1000
0000
0100
1000
0100
0000
0010
0001
0010
0100
0010
0001
,  // measure 29
1000
0000
0010
1000
0010
0000
0100
0001
0100
0000
0010
1000
0001
1000
0001
0000
,  // measure 30
1001
0000
1000
0000
1000
0000
0010
1000
0010
0000
0100
0001
0100
0000
0001
0010
,  // measure 31
0001
0000
0010
0100
1000
0001
1000
0100
1000
0000
0010
0100
0001
0000
1000
0000
,  // measure 32
0001
0000
0001
0000
0001
0000
0010
0001
0010
0000
0100
1000
0100
0010
0100
1000
,  // measure 33
0001
0000
0100
0001
0100
0000
0010
1000
0010
0000
1000
0100
0010
0000
0010
0000
,  // measure 34
0110
0000
0100
0000
1000
0000
0001
0100
0010
0000
1000
0001
0010
0000
0100
0000
,  // measure 35
1000
0000
0001
0000
1000
0010
1000
0100
0010
0000
0001
1000
0010
0000
0100
0000
,  // measure 36
0001
0000
0010
0000
1000
0000
0010
0100
1000
0000
0001
1000
0010
0000
0100
0000
,  // measure 37
0010
0000
0001
0000
0010
0100
0010
1000
0001
0000
1000
0100
0010
0000
0100
0010
,  // measure 38
0100
0000
0000
0001
0100
0000
1000
0000
0001
0000
0000
0100
1000
0000
0100
0000
,  // measure 39
0001
0000
0000
1000
0010
0000
0001
0000
0010
0000
0000
1000
0100
0000
0001
0000
,  // measure 40
0100
0000
0100
0000
0010
0000
0010
0000
0001
1000
0001
0010
0100
1000
0010
0100
,  // measure 41
0010
0000
0000
0000
0000
0000
0000
0000
0000
0010
0000
0000
0100
0000
0000
0000
0000
0000
0100
0000
0000
0010
0000
0000
0100
0000
0000
0000
0000
0000
0000
0000
0100
0000
0010
0000
0100
0000
0000
0000
0000
0000
0000
0000
0000
0000
0000
0000
,  // measure 42
1001
0000
0000
0000
1000
1000
0010
0100
0002
0000
0000
0013
1000
0000
0010
0000
,  // measure 43
0200
0000
0000
1300
0010
0000
0001
0010
2000
0000
3001
0010
1000
0010
0100
1000
,  // measure 44
0001
0000
0000
0000
0001
0001
0010
0100
2000
0000
0000
3010
0001
0000
0010
0000
,  // measure 45
0100
0000
0100
0000
1010
0000
0010
1000
0100
0000
0010
0001
0100
0000
0010
1000
,  // measure 46
0001
0000
0000
0000
0010
0010
0001
1000
0200
0000
0000
0310
1000
0000
0010
0000
,  // measure 47
0002
0000
0000
0103
1000
0000
0100
0001
1000
0000
0100
0010
1000
0010
0001
1000
,  // measure 48
0010
0000
0000
0000
0100
0100
0001
1000
0020
0000
0000
1030
0100
0000
0001
0000
,  // measure 49
0100
0000
0100
0000
0011
0000
0001
0100
0010
0000
1000
0100
0010
0000
0100
0000
,  // measure 50
1001
0000
0000
0000
0001
0100
1000
0100
0001
0000
0010
1000
0001
0000
0100
1000
,  // measure 51
0001
0000
0000
0000
0100
0000
0000
0000
1000
0000
0000
0000
0100
0000
0000
0000
0000
0000
0001
0000
0000
0000
0000
0000
1000
0000
0000
0000
0000
0000
0010
0000
0000
0100
0000
0000
1000
0000
0000
0100
0000
0000
0001
0000
0000
1000
0000
0000
,  // measure 52
0100
0000
0000
0000
0010
0100
0010
0001
1000
0000
0010
0001
1000
0000
0100
0000
,  // measure 53
0001
0000
0010
0000
0110
0000
0100
1000
0010
0000
0100
0001
0010
0000
0001
0000
,  // measure 54
1001
0000
0000
0000
0000
0000
0000
0000
0000
0000
0000
0000
1000
0000
0000
0001
0000
0000
1000
0000
0000
0001
0000
0000
0010
0000
0000
0000
1000
0000
0000
0000
0010
0000
0000
0000
0002
0000
0000
0000
0100
0000
0000
0000
0103
0000
0000
0000
,  // measure 55
0010
0001
0010
2000
0100
3100
0010
1000
0010
0002
0000
0000
,  // measure 56
1003
0000
0000
0000
0000
0000
0000
0000
0000
0000
0000
0000
0010
0000
0000
0100
0000
0000
0010
0000
0000
1000
0000
0000
0100
0000
0000
0000
0001
0000
0000
0000
0100
0000
0000
0000
1000
0000
0000
0000
0010
0000
0000
0000
0001
0000
0000
0000
,  // measure 57
0020
0000
0000
0000
,  // measure 58
1030
0000
1000
0000
1000
0000
0100
1000
0001
0000
0100
0010
1000
0000
0001
1000
,  // measure 59
0001
0000
0010
0100
0010
0001
0010
0100
1000
0000
0010
1000
0001
0000
0100
0000
,  // measure 60
0001
0000
0001
0000
0001
0000
0100
0001
1000
0000
0100
0010
0100
1000
0100
0010
,  // measure 61
0001
0000
0010
0001
1000
0000
0010
0100
0001
0000
1000
0001
1000
0001
1000
0000
,  // measure 62
1010
0000
0010
0000
0010
0000
0100
0001
1000
0000
0100
0010
0001
0000
1000
0001
,  // measure 63
1000
0000
0100
1000
0100
0001
0100
1000
0001
0000
0100
0010
1000
0000
0001
0000
,  // measure 64
0100
0000
0100
0000
0100
0000
0010
1000
0001
0000
0010
0001
0010
1000
0010
0001
,  // measure 65
1000
0000
0010
1000
0001
0100
1000
0100
0001
0000
0010
0100
1000
0000
0001
0000
,  // measure 66
1001
0000
1000
0000
0100
0000
0100
0010
0100
0000
0100
0010
0001
1000
0001
0100
;

//---------------dance-single - ----------------
#NOTEDATA:;
#CHARTNAME:;
#STEPSTYPE:dance-single;
#DESCRIPTION:;
#CHARTSTYLE:;
#DIFFICULTY:Hard;
#METER:15;
#RADARVALUES:0.665380,0.882624,0.093664,0.034060,0.651391,547.000000,536.000000,11.000000,4.000000,0.000000,0.000000,0.000000,0.000000,0.000000,0.665380,0.882624,0.093664,0.034060,0.651391,547.000000,536.000000,11.000000,4.000000,0.000000,0.000000,0.000000,0.000000,0.000000;
#CREDIT:Daniel Van Eden;
#NOTES:
0000
0000
0000
0000
,
0000
0000
0000
0000
,
0000
0000
0000
0000
,
0000
0000
0000
0000
,
0000
0000
0000
0000
,
0000
0000
0000
0000
,
0000
0000
0000
0000
,
0000
0000
0000
0000
,
0000
0000
0000
0000
,
0000
0000
0000
0000
,
1001
0000
0001
0000
1000
0000
0001
1000
0001
0000
1000
0001
1000
0001
1000
0000
,
0001
1000
0001
1000
0001
0000
1000
0001
1000
0000
0001
1000
0001
1000
0001
0000
,
0101
0000
0100
0010
0100
0000
0010
0100
0010
0100
0010
0100
0010
0100
0010
0000
,
0100
0010
0100
0010
0100
0010
0100
0010
0100
0010
0100
0010
0100
0010
0100
0010
,
1000
0000
1000
0000
0001
0000
0001
0000
0001
0000
1000
0001
1000
0000
0001
1000
,
0001
1000
0001
1000
0001
0000
1000
0001
1000
0000
0001
1000
0001
1000
0001
0000
,
0010
0000
0100
0010
0100
0000
0010
0100
0010
0000
0100
0010
0100
0010
0100
0010
,
0100
0000
0100
0000
0100
0000
1000
0100
1000
0000
0001
0010
0001
0000
0000
0000
,
0001
0000
0001
0000
1000
0000
0000
1000
0010
0000
0000
0010
0100
0000
0001
0000
,
1000
0000
1000
0000
0001
0000
0010
0001
0010
0000
0000
0010
0100
0000
1000
0000
,
0001
0000
0001
0000
1000
0000
0000
1000
0100
0000
0000
0100
0010
0000
0001
0000
,
1000
0000
1000
0000
0001
0000
0100
0001
0100
0000
0000
0100
0010
0000
1000
0000
,
1001
0001
0010
0000
1010
1000
0010
0000
,
0101
0000
0001
0000
1000
0000
0000
0000
0011
0000
0010
0000
0100
0000
0010
0100
,
0010
0000
0010
0000
0001
0000
0001
0000
1000
0001
1000
0001
1000
0001
1000
0001
,
2000
0000
0000
0000
,
3010
0000
0010
0000
1000
0000
0001
0100
0001
0000
1000
0000
0100
0000
0010
0000
,
0100
0000
0100
0000
0010
0000
0010
0000
0001
0000
1000
0001
1000
0000
0010
0000
,
0100
0000
0100
0000
0001
0000
1000
0010
1000
0000
0001
0000
0010
0000
0100
0000
,
1000
0000
1000
0000
0001
0000
0100
0000
0100
0000
0010
0000
1000
0001
1000
0000
,
0100
0000
0100
0000
1000
0000
0001
0010
0001
0000
1000
0000
0010
0000
0100
0000
,
0010
0000
0010
0000
0100
0000
0001
0000
0001
0000
1000
0001
1000
0000
0100
0000
,
0010
0000
0010
0000
0001
0000
1000
0100
1000
0000
0001
0100
0001
0000
0010
0000
,
0001
0000
1000
0000
0010
0000
1000
0000
0100
0000
1000
0001
1000
0000
0010
0000
,
0100
0000
0000
0000
0101
0000
0000
0001
1000
0000
0000
1000
0010
0000
1000
0000
,
0100
0000
0000
0000
0011
0000
0000
0010
0001
0000
1000
0100
1000
0000
0001
0000
,
0100
0000
0000
0000
1010
0000
0000
1000
0001
0000
0000
0001
0010
0000
0100
0000
,
0010
0000
0000
0000
1100
0000
0000
1000
0001
0000
0010
0001
0010
0000
0010
0100
,
1000
0000
0000
1000
0010
0000
1000
0000
0010
0000
0000
0010
0100
0000
0010
0000
,
0100
0000
0000
0100
0001
0000
0100
0000
0001
0000
0000
0001
0010
0000
0100
0000
,
0010
0000
0001
0000
1000
0000
0010
0000
0100
0010
0100
0010
0100
0010
0100
0010
,
0200
0000
0000
0000
,
0301
0000
0000
0000
0001
1000
0001
0000
1000
0000
0000
1000
0100
0000
0010
0000
,
0001
0000
0000
0001
0100
0000
0010
0000
1000
0000
0001
0010
0100
1000
0001
1000
,
0001
0000
0000
0000
1000
0001
1000
0000
0001
0000
0000
0001
0010
0000
0100
0000
,
1000
0000
1000
0000
0010
0000
0010
0100
0010
0000
0100
0001
0100
0000
0001
0000
,
1000
0000
0000
0000
0001
0100
0001
0000
0010
0000
0000
0010
0100
0000
1000
0000
,
0010
0000
0000
0010
0100
0000
0001
0000
1000
0000
0001
1000
0100
0010
0001
1000
,
0001
0000
0000
0000
1000
0010
1000
0000
0100
0000
0000
0100
0010
0000
0001
0000
,
0100
0000
0100
0000
0010
0000
1000
0001
1000
0000
0100
0010
0001
0000
1000
0000
,
0010
0000
0000
0000
0010
0100
0010
0100
0010
0000
0000
0010
1000
0000
0000
1000
,
0001
0000
0000
0000
0010
0000
0000
0000
0100
0000
0000
0000
1000
0000
0000
0000
0000
0000
0100
0000
0000
0000
0000
0000
0010
0000
0000
0000
0000
0000
0001
0000
0000
0100
0000
0000
0010
0000
0000
1000
0000
0000
0001
0000
0000
1000
0000
0000
,
0001
0000
0000
0000
0010
0001
0010
0000
0100
0000
0000
0100
1000
0000
0001
0000
,
1000
0000
0010
0000
0100
0000
0100
0001
0100
0000
0010
1000
0001
0000
0010
0000
,
0100
0000
0000
0000
0000
0000
0000
0000
0000
0000
0000
0000
1000
0000
0000
0100
0000
0000
0010
0000
0000
0001
0000
0000
1000
0000
0000
0000
0010
0000
0000
0000
0100
0000
0000
0000
0010
0000
0000
0000
1000
0000
0000
0000
0100
0000
0000
0000
,
0010
0001
0100
0010
0100
0001
0010
0100
1000
0002
0000
0000
,
1003
0000
0000
0000
0000
0000
0000
0000
0000
0000
0000
0000
0010
0000
0000
0100
0000
0000
0010
0000
0000
0100
0000
0000
0010
0000
0000
0000
1000
0000
0000
0000
0001
0000
0000
0000
1000
0000
0000
0000
0100
0000
0000
0000
0010
0000
0000
0000
,
0002
0000
0000
0000
,
1003
0000
1000
0000
1000
0000
0001
1000
0001
0000
1000
0001
1000
0000
0001
0000
,
0010
0000
0001
0010
0001
0000
0010
0001
0010
0000
0100
0010
0100
0000
1000
0000
,
0001
0000
0001
0000
0001
0000
1000
0001
1000
0000
0001
1000
0001
0000
1000
0000
,
0010
0000
1000
0010
1000
0000
0010
1000
0010
0000
0100
0010
0100
0000
0001
0000
,
1001
0000
0000
0000
1000
0000
0010
1000
0001
0000
0010
0100
0010
0000
0001
1000
,
0100
0000
1000
0001
1000
0010
1000
0001
1000
0000
0001
0100
0001
0000
1000
0000
,
0001
0000
0000
0000
0001
0000
0010
0001
1000
0000
0010
1000
0010
0100
0010
1000
,
0001
0000
1000
0001
1000
0100
1000
0001
0100
0000
0010
1000
0001
0000
0010
0000
,
0100
0000
0100
0000
1000
0000
1000
0001
1000
0000
1000
0010
0100
0001
0010
0000
;

//---------------dance-single - ----------------
#NOTEDATA:;
#CHARTNAME:;
#STEPSTYPE:dance-single;
#DESCRIPTION:;
#CHARTSTYLE:;
#DIFFICULTY:Medium;
#METER:11;
#RADARVALUES:0.461022,0.478591,0.093664,0.025545,0.127724,379.000000,368.000000,11.000000,3.000000,0.000000,0.000000,0.000000,0.000000,0.000000,0.461022,0.478591,0.093664,0.025545,0.127724,379.000000,368.000000,11.000000,3.000000,0.000000,0.000000,0.000000,0.000000,0.000000;
#CREDIT:Daniel Van Eden;
#NOTES:
0000
0000
0000
0000
,
0000
0000
0000
0000
,
0000
0000
0000
0000
,
0000
0000
0000
0000
,
0000
0000
0000
0000
,
0000
0000
0000
0000
,
0000
0000
0000
0000
,
0000
0000
0000
0000
,
0000
0000
0000
0000
,
0000
0000
0000
0000
,
0001
0001
1000
0010
1000
0001
0010
0100
,
1000
0001
1000
0100
0010
0001
1000
0010
,
1000
0100
0100
0010
0001
0100
1000
0100
,
0001
0010
0100
1000
0010
1000
0100
0010
,
0001
0001
0010
0010
0010
0100
1000
0001
,
1000
0010
0100
0001
1000
0100
0001
0100
,
1000
0010
0010
1000
0001
0010
0100
1000
,
0100
0100
0010
0001
0001
1000
1000
0000
,
1001
0001
1000
0000
0010
1000
0010
0000
,
1000
1000
0001
0010
1000
0010
0001
0000
,
1001
1000
0001
0000
0100
0001
0100
0000
,
0001
0001
1000
0100
0001
0100
1000
0000
,
0010
0010
1000
0000
0001
0001
1000
0000
,
0100
0100
1000
0000
0100
0100
0010
0000
,
0001
0010
0100
1000
0001
1000
0001
1000
,
0002
0000
0000
0000
,
1003
0000
0010
0100
0010
0000
1000
0001
,
0100
0010
0100
0000
0001
1000
0001
0010
,
0001
0000
0010
0100
0010
0000
0001
1000
,
0100
0010
0100
0000
1000
0010
1000
0001
,
1000
0000
0001
0100
0001
1000
0001
0000
,
1000
0100
0010
0001
1000
0001
0100
0000
,
0001
0000
1000
0100
1000
0001
1000
0000
,
0001
0100
0010
1000
0001
0010
0100
0100
,
0010
0000
0000
0000
0100
0000
0000
0100
0010
0000
0000
0010
0001
0000
1000
0000
,
0001
0000
0000
0000
0100
0000
0000
0100
0010
0000
0000
0010
1000
0000
0001
0000
,
1000
0000
0000
0000
0001
0000
0000
0001
0010
0000
0000
0010
0001
0000
1000
0000
,
0001
0000
0000
0000
1000
0000
0000
1000
0100
0000
0000
0100
1000
0000
0010
0000
,
1000
1000
0001
0001
,
0010
0100
0010
0010
,
0100
1000
0100
0001
0100
0010
0001
1000
,
0002
0000
0000
0000
,
1003
0000
0000
0000
0010
0000
1000
0000
0001
0000
0000
0001
0000
0000
0010
0000
,
1000
0000
0000
1000
0000
0000
0010
0000
0001
0000
0100
0000
0010
0000
1000
0000
,
0001
0000
0000
0000
0010
0000
0001
0000
1000
0000
0000
1000
0000
0000
0010
0000
,
0100
0000
0110
0000
1010
0000
1001
0001
,
1000
0000
0000
0000
0100
0000
1000
0000
0001
0000
0000
0001
0000
0000
0100
0000
,
1000
0000
0000
1000
0000
0000
0100
0000
0001
0000
0010
0000
0100
0000
1000
0000
,
0001
0000
0000
0000
0100
0000
0001
0000
1000
0000
0000
1000
0000
0000
0010
0000
,
0100
0100
0010
0100
1000
0100
0001
1000
,
0001
0000
0000
0000
0000
0000
0000
0000
0010
0000
0000
0010
0001
0000
0000
0001
,
1000
0000
0000
0000
0010
0000
0000
0000
1000
0000
0000
0000
0010
0000
0000
0000
0000
0000
0000
0000
0000
0010
0000
0000
0100
0000
0000
0000
0000
0000
0000
0000
0000
0100
0000
0000
0001
0000
0000
0000
0000
0000
1000
0000
0000
0000
0000
0000
,
0001
0000
0000
0000
1001
0000
0000
0000
1000
0000
0000
1000
0100
0000
0000
0100
,
0010
0000
0000
0010
0001
0000
1000
0000
0010
0000
0001
0000
0010
0000
1000
0000
,
0001
0000
0000
0110
0000
0000
1000
0000
1000
0001
0000
0001
,
0010
0000
0010
1000
0000
1000
0010
0000
0010
0001
0000
0000
,
0101
0000
0000
1010
0000
0000
0010
0000
0010
0100
0000
0100
,
0002
0000
0000
0000
,
1003
1000
1000
0010
1000
0010
0100
0000
,
0001
0001
0001
0010
0001
1000
0100
0010
,
0001
0000
1000
1000
1000
0001
0001
1000
,
0010
0010
0010
0100
0001
1000
0100
0010
,
0011
0000
0001
0010
1000
0010
0100
0000
,
1000
1000
1000
0010
0001
0010
0100
0001
,
1000
0000
0010
0010
0010
1000
1000
0001
,
0010
1000
0010
0100
1000
0001
1000
0010
,
0110
0100
0000
0000
0000
0000
0000
0000
;

//---------------dance-single - ----------------
#NOTEDATA:;
#CHARTNAME:;
#STEPSTYPE:dance-single;
#DESCRIPTION:;
#CHARTSTYLE:;
#DIFFICULTY:Easy;
#METER:6;
#RADARVALUES:0.263962,0.394134,0.170298,0.068119,0.000000,217.000000,197.000000,20.000000,8.000000,0.000000,0.000000,0.000000,0.000000,0.000000,0.263962,0.394134,0.170298,0.068119,0.000000,217.000000,197.000000,20.000000,8.000000,0.000000,0.000000,0.000000,0.000000,0.000000;
#CREDIT:Daniel Van Eden;
#NOTES:
0000
0000
0000
0000
,
0000
0000
0000
0000
,
0000
0000
0000
0000
,
0000
0000
0000
0000
,
0000
0000
0000
0000
,
0000
0000
0000
0000
,
0000
0000
0000
0000
,
0000
0000
0000
0000
,
0000
0000
0000
0000
,
0000
0000
0000
0000
,
1000
1000
0000
0000
0000
0000
0000
0000
,
0000
0000
0000
0000
,
0001
0000
0000
0000
,
0000
0000
0000
0000
,
1000
1000
0000
0000
0000
0000
0000
0000
,
0000
0000
0000
0000
,
0001
0000
0000
0000
,
0001
0000
0001
1000
,
0010
0010
0000
0000
0000
0000
0000
0000
,
0100
0100
0000
0000
0000
0000
0000
0000
,
0010
0010
0000
0000
0000
0000
0000
0000
,
0100
0100
0000
0000
0000
0000
0000
0000
,
0001
0001
0000
0000
0010
0010
0000
0000
,
0100
0100
0000
0000
1000
1000
0000
0000
,
0001
1000
0010
0100
,
0020
0000
0000
0000
,
1030
1000
0001
0010
,
0001
1000
0100
0100
,
0010
0100
0010
0010
,
0001
1000
0010
0100
,
0110
0100
0001
1000
,
0001
0001
0010
0100
,
1000
0001
1000
1000
,
0010
0000
0100
0000
0001
0000
0001
1000
,
0001
0011
0001
0101
,
0100
0000
0110
0000
0010
0000
1000
0010
,
1000
1100
1000
1001
,
0001
0000
0101
0000
0100
0000
0010
0100
,
0010
0010
1000
1000
,
0001
0001
0010
0010
,
0100
0010
0100
0010
0100
0010
0100
0010
,
0200
0000
0000
0000
,
1300
0000
0001
0000
1001
0000
0000
0001
,
1000
0000
0000
1000
0001
0000
0010
0000
,
0110
0000
0100
0000
1000
0000
0000
1000
,
0001
0001
0010
0000
0110
0000
1100
0000
,
1001
0000
0001
0000
1000
0000
0000
1000
,
0001
0000
0000
0001
1000
0000
0010
0000
,
0110
0000
0100
0000
0001
0000
0000
0001
,
1000
1000
0010
0000
0110
0000
0101
0000
,
1001
0000
0001
0010
,
0001
1000
0010
0100
,
0010
0110
0100
0001
,
1000
0001
0010
0100
,
1000
1001
0002
0013
,
0020
0130
0200
1300
,
1000
1001
0002
0103
,
0220
0000
0000
0330
,
0001
0010
0001
0001
,
1000
0000
0010
0000
1000
0001
1000
0000
,
0100
0010
0100
0100
,
1000
0000
0001
0000
0100
0000
0010
0100
,
0010
1000
0001
0001
,
1000
0000
0010
0000
1000
0100
1000
0000
,
0001
0010
0100
0100
,
0010
0001
1000
0010
,
0100
0100
0000
0000
0000
0000
0000
0000
;

//---------------dance-single - ----------------
#NOTEDATA:;
#CHARTNAME:;
#STEPSTYPE:dance-single;
#DESCRIPTION:;
#CHARTSTYLE:;
#DIFFICULTY:Beginner;
#METER:2;
#RADARVALUES:0.141104,0.196695,0.034060,0.000000,0.000000,116.000000,112.000000,4.000000,0.000000,0.000000,0.000000,0.000000,0.000000,0.000000,0.141104,0.196695,0.034060,0.000000,0.000000,116.000000,112.000000,4.000000,0.000000,0.000000,0.000000,0.000000,0.000000,0.000000;
#CREDIT:Daniel Van Eden;
#NOTES:
0000
0000
0000
0000
,
0000
0000
0000
0000
,
0000
0000
0000
0000
,
0000
0000
0000
0000
,
0000
0000
0000
0000
,
0000
0000
0000
0000
,
0000
0000
0000
0000
,
0000
0000
0000
0000
,
0000
0000
0000
0000
,
0000
0000
0000
0000
,
1000
0000
0000
0000
,
0000
0000
0000
0000
,
0001
0000
0000
0000
,
0000
0000
0000
0000
,
1000
0000
0000
0000
,
0000
0000
0000
0000
,
0001
0000
0000
0000
,
1000
0000
0001
0001
,
0001
0000
0000
0000
,
0010
0000
0000
0000
,
0100
0000
0000
0000
,
1000
0000
0000
0000
,
0010
0000
1000
0000
,
0001
0000
0010
0000
,
0100
0100
0100
0100
,
0100
0000
0000
0000
,
1001
0000
1000
0000
,
0010
0000
0100
0100
,
0100
0000
0001
0000
,
1000
0000
0001
0001
,
0001
0000
0010
0000
,
0100
0000
0010
0010
,
0010
0000
1000
0000
,
0001
0000
1000
1000
,
1000
0000
0010
0000
,
0010
0000
0100
0000
,
0100
0000
0001
0000
,
0001
0000
0010
0000
,
0010
0010
0010
0000
,
0100
0100
0100
0000
,
1000
0000
0001
0000
,
1000
0000
0000
0000
,
1001
0000
0001
0000
,
0001
0000
0001
0001
,
0001
0000
1000
0000
,
1000
0000
0010
0010
,
0010
0000
0100
0000
,
0001
0000
0100
0100
,
0100
0000
0001
0000
,
1000
0000
0100
0100
,
0100
0000
0010
0000
,
0001
0000
1000
0000
,
0010
0000
0001
0000
,
0010
0000
1000
0000
,
0001
0000
0100
0000
,
1000
0000
0100
0000
,
0001
0000
0010
0000
,
0100
0000
0000
0000
,
1001
0000
0001
0000
,
0010
0000
0100
0100
,
0100
0000
1000
0000
,
0010
0000
1000
1000
,
1000
0000
0001
0000
,
0010
0000
0001
0001
,
0001
0000
1000
0000
,
0010
0000
0100
0000
,
1001
0000
0000
0000
;
