#TITLE:HAVOX;
#SUBTITLE:;
#ARTIST:BlackY vs. Yooh;
#TITLETRANSLIT:;
#SUBTITLETRANSLIT:;
#ARTISTTRANSLIT:;
#GENRE:;
#CREDIT:;
#MUSIC:HAVOX.ogg;
#BANNER:HAVOX-bn.png;
#BACKGROUND:HAVOX-bg.png;
#CDTITLE:;
#SAMPLESTART:69.769;
#SAMPLELENGTH:18.286;
#SELECTABLE:YES;
#OFFSET:-0.056;
#BPMS:0.000=210.000
,240.000=840.000
,242.000=420.000
,243.000=210.000
,432.000=26.250
;
#STOPS:240.000=0.571;
#DISPLAYBPM:210.000;
#BGCHANGES:;
#FGCHANGES:;

//--------------- dance-single - ----------------
#NOTES:
     dance-single:
     :
     Beginner:
     7:
     0,0,0,0,0:
0000
0000
0000
0000
,
0000
0000
0000
0000
,
0000
0000
0000
0000
,
0000
0000
0000
0000
,
0000
0000
0000
0000
,
0000
0000
0000
0000
,
0000
0000
0000
0000
,
0000
0000
0000
0000
,
0000
0000
0000
0000
,
1000
1000
0100
0100
,
0010
0010
0001
0001
,
1000
1000
0010
0010
,
0100
0100
0001
0001
,
1000
1000
0100
0100
,
0001
0001
0100
0100
,
1000
1000
0001
0001
,
1000
0010
1000
0010
,
0100
0001
0100
0001
,
1000
0100
1000
0100
,
0010
0001
0010
0001
,
0100
0010
0100
0010
,
1000
0001
1000
0001
,
1000
0100
0010
0001
,
1000
0010
0100
0001
,
2000
0000
0000
0000
,
0000
0000
3020
0000
,
0130
0000
0001
0000
,
0010
0000
0100
1000
,
0002
0000
0000
0000
,
0000
0000
0203
0000
,
0310
0000
1000
0000
,
0100
0000
0010
0001
,
1000
0010
0100
0010
,
1000
0001
0020
0000
,
0031
1000
0010
0001
,
0010
1000
0002
0000
,
1003
0100
0010
0100
,
1000
0001
0200
0000
,
0301
0010
0001
0100
,
0010
1000
0100
1000
,
0001
0000
0200
0000
,
0000
0000
0000
0000
0000
0000
0000
0320
,
0000
1030
0100
0001
,
0100
1000
0001
0100
,
1000
0100
0001
1000
,
0200
0320
0031
1000
,
0010
0100
0010
0001
,
0010
0100
0010
1000
,
1001
0000
0001
0000
,
0100
0100
0010
0010
,
1000
0000
0100
0000
,
0010
0000
0000
0001
0000
0000
1000
0000
,
1001
0000
0001
0010
,
0001
0010
0001
0000
,
1000
0010
1000
0010
,
0100
0001
0100
0001
,
1000
0100
1000
0100
,
0010
0001
0010
0001
,
0100
0010
0100
0010
,
1000
0001
1000
0001
,
0000
0000
0000
0000
,
1000
0000
0100
0000
,
1000
0000
0001
0000
,
0100
0000
1000
0000
,
0100
0000
0001
0000
,
1000
0000
0010
0000
,
0100
0000
0010
0000
,
0001
0000
0010
0000
,
0100
0000
0010
1000
,
0001
0000
0010
0000
,
1000
0000
0010
0000
,
0001
0000
0100
0000
,
0010
0000
1000
0000
,
0001
0010
0100
0010
,
0001
1000
0010
1000
,
0001
0100
0010
0100
,
0001
1000
0100
1000
,
0001
0000
0100
0010
,
0001
0000
0010
1000
,
0001
0000
0010
1000
,
0010
0000
0100
1000
,
0001
0000
0100
1000
,
0100
0000
0010
1000
,
0001
0000
0010
0100
,
0001
0100
1000
0001
,
1000
0000
0010
0100
,
1000
0000
0100
0001
,
1000
0000
0100
0001
,
0100
0000
0010
0001
,
1000
0010
0001
0010
,
1000
0001
0010
1000
,
0010
0001
0100
0010
,
1000
0001
1000
0000
,
1001
0000
1100
0000
,
0011
0000
0110
0000
,
1010
0000
0101
0000
,
1001
0000
0011
0000
,
1100
0000
0110
0000
,
0101
0000
1010
0000
,
1001
0000
0000
0000
,
0000
0000
1001
0000
,
0000
0000
0000
0000
,
1001
0000
0000
0000
,
0000
0000
0000
0000
,
2002
0000
0000
0000
,
0000
0000
0000
0000
,
0000
0000
0000
0000
,
0000
0000
0000
0000
,
3003
0000
0000
0000
;

//--------------- dance-single - ----------------
#NOTES:
     dance-single:
     :
     Easy:
     13:
     0,0,0,0,0:
0000
0000
0000
0000
,
0000
0000
0000
0000
,
0000
0000
0000
0000
,
0000
0000
0000
0000
,
0000
0000
0000
0000
,
0000
0000
0000
0000
,
0000
0000
0000
0000
,
0000
0000
0000
0000
,
0000
0000
0000
0000
,
1000
0100
1000
0001
,
0100
0000
0010
0000
0001
0000
0010
1000
,
0001
0010
0001
0100
,
0010
0000
0001
0000
0010
0000
1000
0001
,
1000
0100
0010
1000
,
0010
0000
0001
0000
0100
0000
0010
1000
,
0001
0010
0001
1000
0010
0100
0001
1000
,
0001
0001
0001
0000
1000
0000
0010
0000
,
0001
1000
0100
0001
,
1000
1000
1000
0000
0001
0000
0010
0000
,
1000
0000
0010
0000
0001
1000
0010
0100
,
0001
0001
0001
0000
1000
0000
0100
0000
,
0001
1000
0010
0001
,
1000
1000
0100
0100
0010
0010
0001
0001
,
2000
3002
0023
0230
,
1300
0010
0000
0000
0011
0000
0000
1010
,
0000
0000
0100
0000
0001
1000
0001
1000
,
0001
0100
1000
0000
,
0100
0000
0000
0010
0000
0000
1000
0000
,
0001
0010
0000
0000
1010
0000
0000
0011
,
0000
0000
0100
0000
1000
0001
1000
0001
,
1000
0100
0001
0000
,
0100
0000
0010
0001
,
1000
0010
0100
0010
,
1000
0000
0001
0000
0010
0100
0010
0100
,
1000
0001
0100
1000
,
0100
0010
2000
0000
,
3001
0010
0100
0010
,
0001
0000
1000
0000
0010
0100
0010
0100
,
0001
0010
0001
0100
0010
1000
0100
1000
,
0010
0100
0001
0010
0001
0000
0000
0000
,
1000
0000
0020
0000
,
0000
0000
0000
0000
0000
0000
0000
0230
,
0000
0301
0010
0001
1000
0010
0001
0010
,
1000
0001
0010
0100
0010
0001
1000
0010
,
0100
0001
0100
0001
0100
0001
0100
0001
,
1000
0000
0100
0000
0010
0001
0010
0100
,
1000
0010
0100
0100
0001
0010
1000
0010
,
0100
1000
0010
0010
0100
0001
1000
0100
,
0010
0001
1000
0010
,
0100
0010
1000
0001
,
0020
0000
0230
0000
,
2300
0000
0000
3001
0000
1000
0000
1000
,
0000
0000
0000
0000
0001
0001
0001
0001
,
0001
0001
1000
0000
0010
0000
0100
0000
,
0001
0010
0001
0010
,
0100
1000
0100
1000
,
0001
0100
0001
0100
,
0010
1000
0010
1000
,
0001
0010
0100
0010
0001
1000
0010
0100
,
0010
1000
0001
0010
0100
1000
0010
0100
,
0000
0000
0000
0000
,
0001
0010
0100
0010
,
1010
0100
0001
0010
,
0001
1000
0010
0100
,
0010
1000
0002
0000
,
1003
0100
0010
0100
,
0101
0010
1000
0002
,
0013
0002
0103
0002
,
1003
0100
0020
0000
,
0031
0100
0010
0100
,
1100
0010
0001
2000
,
3010
2000
3100
2000
,
3001
1000
0010
0100
,
0002
0023
2030
3020
,
0032
0203
0320
0000
,
2030
3200
0302
0203
,
2300
3020
0230
0302
,
1003
0000
0000
0100
0000
0000
1000
0000
0000
0010
0000
0100
,
0001
0000
0010
0000
0100
0000
0001
0100
,
1000
0001
0100
0010
,
0100
0001
2000
3002
,
1003
0000
0000
0010
0000
0000
1000
0000
0000
0100
0000
0010
,
0001
0000
0000
0100
0000
0000
0010
0000
0000
0001
0000
0010
,
1000
0100
0010
0100
,
1000
0010
0100
0001
2000
0000
0000
0000
,
3001
0000
0000
0010
0000
0000
1000
0000
0000
0010
0000
0001
,
1000
0000
0010
0000
0100
0000
0010
1000
,
0001
0010
1000
0001
,
0100
1000
0010
0100
,
0001
0010
0001
0010
,
0100
1000
0100
1000
,
0001
0100
0001
0100
0010
1000
0010
1000
,
0001
0000
1000
0000
0002
0000
0000
0003
,
1001
1000
1010
0100
,
0001
0000
0001
0000
0001
0000
1001
0000
0000
0001
0000
0000
,
0011
0000
0000
0100
0000
0000
1000
0000
1000
0000
1000
0000
,
1001
1000
1100
0010
,
0001
0000
0001
0000
0001
0000
1001
0000
0000
0001
0000
0000
,
0101
0000
0000
0010
0000
0000
1000
0000
1000
0000
1000
0000
,
1001
0020
0000
0000
,
0000
0000
0000
0030
1001
0000
0200
0000
,
0000
0000
0000
0000
0000
0000
0000
0300
,
1001
0020
2030
3200
,
0320
0000
0032
0000
2003
3002
2003
3000
,
2002
0000
0000
0000
,
0000
0000
0000
0000
,
0000
0000
0000
0000
,
0000
0000
0000
0000
,
3003
0000
0000
0000
;

//--------------- dance-single - ----------------
#NOTES:
     dance-single:
     :
     Medium:
     14:
     0,0,0,0,0:
0000
0000
0000
0000
,
0000
0000
0000
0000
,
0000
0000
0000
0000
,
0000
0000
0000
0000
,
0000
0000
0000
0000
,
0000
0000
0000
0000
,
0000
0000
0000
0000
,
0000
0000
0000
0000
,
0000
0000
0000
0000
2000
3002
2003
3002
,
1003
0100
1000
0010
,
0100
1000
0100
0001
,
1000
0010
1000
0001
,
0010
1000
0010
0100
,
1000
0001
0100
0010
,
0001
0010
1000
0001
,
1000
0100
1000
0010
0100
0001
0010
0001
,
1000
1010
1000
0001
,
0010
1000
0010
0001
,
1000
1100
1000
0001
,
0100
1000
0100
0001
,
1000
1001
1000
0010
,
0001
0010
1000
0001
,
1000
0010
0100
0001
,
0001
0001
0010
0010
0100
0100
1000
1000
,
0001
0000
0101
1000
,
0000
1000
0000
0000
0001
0001
0001
0001
,
1000
0010
0001
0010
,
0000
1000
0000
0000
0001
0000
0000
0000
,
1000
0000
1100
0001
,
0000
0001
0000
0000
1000
1000
1000
1000
,
0001
0010
1000
0000
,
0010
0000
0001
1000
,
0001
0100
0010
0100
0001
1000
0100
0100
,
0000
1000
0010
0100
0001
0001
0001
0001
,
1000
0000
0010
0100
0010
0000
0001
0010
,
1000
0000
0100
0010
0002
0000
0000
0000
,
1003
0100
0010
0100
1000
0010
0100
0001
,
0010
0100
0010
0001
1000
1000
1000
1000
,
0001
0100
0001
0100
0010
1000
0010
1000
,
0100
0010
0100
0010
0001
0000
0000
0000
,
1000
0010
0100
0010
,
1000
0001
0010
0100
,
0010
0000
0001
1000
0010
0100
0010
1000
,
0001
0010
0100
1000
0100
0010
0100
1000
,
0001
0100
0001
0100
0001
0100
0001
0100
,
0002
2003
3200
0320
,
0031
1000
0010
1000
0001
0010
0100
0010
,
0001
1000
0100
1000
0010
0100
0001
0010
,
0001
1000
0010
0100
,
0001
0010
1000
0010
,
0002
0000
0203
0000
,
0320
0000
0000
1030
0000
0001
1000
0001
,
0000
0000
0000
0000
1000
0100
1000
0100
,
1000
0100
1000
0000
0010
0000
0100
0000
,
0001
0010
0100
1000
,
0001
0100
0010
1000
,
0001
0001
0010
0000
0100
0100
1000
0000
,
0001
0001
0100
0000
0010
0010
1000
0000
,
0001
0001
0010
0010
0100
0100
1000
1000
,
0001
0001
0100
0100
0010
0010
1000
1000
,
0000
0000
0000
0000
,
0001
0010
1000
0010
,
0100
0010
0001
1000
,
0010
0001
0010
1000
,
0001
0100
0020
0000
,
1030
0100
0001
0100
,
0010
0100
1000
0002
,
0103
0020
1030
0200
,
0310
0001
2000
0000
,
3001
0100
0010
0100
,
1000
0100
0001
2000
,
3100
0020
0031
0100
,
0010
0001
0010
1000
,
0001
0000
0001
0100
0000
0100
0010
0000
0010
0100
0000
0100
,
1000
0000
1000
0100
0000
0100
0002
0000
0000
0000
0000
0000
,
1003
0100
0010
0001
,
1000
0000
0000
0001
0000
0000
1000
0001
1000
0001
1000
0001
,
1000
0000
1000
0100
0000
0000
0010
0000
0010
0100
0000
0000
,
1000
0000
1000
0001
0000
0000
0100
0000
0100
0001
0000
0000
,
0010
0000
0010
0100
0000
0000
1000
0000
1000
0010
0000
0000
,
1000
0000
1000
0001
0000
0000
2000
0000
0000
3002
0000
0000
,
1003
0000
0000
0010
0000
0010
0100
0000
0000
0010
0000
0010
,
1000
0000
0000
0001
0000
0001
0010
0000
0000
0001
0000
0001
,
0100
0000
0000
0010
0000
0010
1000
0000
0000
0100
0000
0100
,
1000
0010
0100
0001
0010
0100
0010
0001
,
0100
0000
0000
0010
0000
0010
1000
0000
0000
0001
0000
0000
,
0010
0000
0010
0001
0000
0000
0100
0000
0100
0010
0000
0000
,
1000
0000
0000
0100
0000
0100
1000
0000
0000
0010
0000
0010
,
0100
0001
2000
3002
,
1003
0000
1000
0100
0000
0100
0010
0000
0010
0001
0000
0001
,
1000
0010
0100
0001
,
1000
0100
1000
0001
0100
0010
1000
0001
,
0010
0100
0010
0001
2000
0000
0000
3000
,
1001
0101
1010
1001
,
0001
0000
0001
0000
0001
0000
1001
0000
0000
1100
0000
0000
,
0011
0000
0000
1001
0000
0000
1000
0000
1000
0000
1000
0000
,
1001
0101
1100
1001
,
0001
0000
0001
0000
0001
0000
1001
0000
0000
1010
0000
0000
,
0011
0000
0000
1001
0000
0000
1000
0000
1000
0000
1000
0000
,
1001
0001
0010
0001
,
0100
0010
1001
1000
,
0100
1000
0010
0100
,
1001
0001
0010
0100
,
1000
0000
0000
0000
0010
0000
0000
0000
0200
0000
0000
0000
0302
0003
0002
0003
,
2002
0000
0000
0000
,
0000
0000
0000
0000
,
0000
0000
0000
0000
,
0000
0000
0000
0000
,
3003
0000
0000
0000
;

//--------------- dance-single - ----------------
#NOTES:
     dance-single:
     :
     Hard:
     16:
     0,0,0,0,0:
0000
0000
0000
0000
,
0000
0000
0000
0000
,
0000
0000
0000
0000
,
0000
0000
0000
0000
,
0000
0000
0000
0000
,
0000
0000
0000
0000
,
0000
0000
0000
0000
,
0000
0000
0000
0000
,
0000
0000
0000
0000
,
1000
0100
1000
0001
,
0100
0000
1000
0000
0100
0000
0001
1000
,
0001
0100
0001
1000
,
0100
0000
0001
0000
0100
1000
0001
1000
,
0001
0010
0001
1000
,
0010
0000
0001
0000
0010
0000
1000
0001
,
1000
0000
0100
1000
0100
0000
0000
0000
0010
0000
0001
0000
0010
0001
0010
0001
,
1000
1010
0010
0110
,
0100
0000
0101
0000
0001
0000
1001
1000
,
0001
0011
0010
0110
,
0100
0000
1100
0000
1000
0001
1001
1000
,
0001
0101
0100
0110
,
0010
1010
1000
1001
,
1100
0101
0011
1010
,
0001
0010
0100
1000
0001
0100
0010
1000
,
0001
0010
1000
0010
0100
0000
0010
0001
,
1000
0000
0010
1000
0010
0000
1000
0000
0002
0000
0000
0000
0000
0000
0000
0000
,
1003
0000
0100
1000
0100
0000
1000
0000
0100
0000
0000
0000
0010
0000
0001
0000
,
1000
0000
0100
1000
0000
0100
1000
0001
,
1000
0010
0100
0010
0001
0000
0010
1000
,
0001
0000
0010
0001
0010
0000
0001
0000
2000
0000
0000
0000
0000
0000
0000
0000
,
3001
0000
0100
0001
0100
0000
0001
0000
0100
0000
0000
0000
0010
0000
1000
0000
,
0001
0000
0100
0001
0000
0000
0000
0000
,
1000
0100
1000
0001
0100
0010
0001
0010
,
1000
0100
0010
0001
2000
0100
0100
0100
,
3001
0000
0100
0001
0100
0000
0010
1000
0010
0000
1000
0000
0001
0000
0010
0000
,
1000
0000
0000
0000
0000
0000
0001
0000
0000
0100
0000
0000
1000
0000
0000
0000
1000
0000
0000
0000
1000
0000
0000
0000
,
0001
0100
0001
0010
0100
0001
0100
1000
,
0010
0100
0001
1000
0002
0010
0010
0010
,
1003
0001
1000
0000
0001
0010
0001
0000
1000
0010
1000
0000
0001
0100
0001
0000
,
1000
0100
1000
0000
0010
0100
0010
0000
1000
0000
0000
0000
0001
0000
0000
0000
,
1000
1100
0100
0101
,
0001
0011
0010
1010
,
1000
0100
1000
0010
0100
0001
0010
0010
,
0001
0100
0010
1000
0010
0100
0010
1000
,
0100
0010
0100
0001
0100
0010
0100
1000
,
0002
0000
2003
0000
3001
0100
0010
1000
,
0001
0000
0010
0001
0010
0000
0100
0010
0100
0000
1000
0100
1000
0000
0001
1000
,
0001
0000
0100
0001
0100
0000
0010
0100
0010
0000
1000
0010
1000
0000
0000
0000
,
1001
0011
0110
1100
,
1001
1010
0110
0101
,
1100
0000
0000
1000
1010
0000
0000
0010
,
0011
0000
0000
0001
0000
1000
0001
1000
,
1001
0000
0000
0000
0001
0000
0000
0000
0100
0000
0000
0000
0010
0000
1000
0010
,
1000
0000
0000
0000
0100
0000
0000
0000
0010
0000
0000
0000
0001
1000
0001
0000
,
1000
0000
1000
0000
0100
0000
0100
0000
0010
0000
0010
0000
0001
0000
0001
1000
,
0001
0000
0001
0000
0100
0000
0100
0000
0010
0000
0010
0000
1000
0001
1000
0001
,
1000
0000
1000
0000
0010
0000
0010
0000
0100
0000
0100
0000
0001
0000
0001
1000
,
0001
0001
0010
0010
0100
0100
1000
1000
,
0001
0100
0010
0100
0001
0100
0010
0000
1000
0100
0010
0100
1000
0100
0010
0000
,
0001
0100
0001
0100
0010
1000
0010
1000
0001
0010
0001
0010
0100
1000
0100
1000
,
0000
0000
0000
0000
,
0001
1000
0010
0001
,
0010
0000
0000
1000
0000
0000
0001
0000
0000
0010
0001
0010
,
0001
1000
0010
0001
,
0010
0100
0002
2003
,
3001
0100
1000
0100
,
0001
0000
0000
1000
0000
0000
0001
0000
0000
1000
0010
1000
,
0010
0000
0000
0100
0001
0100
0001
0000
0000
1000
0100
1000
,
0100
0000
0000
0000
0000
0000
0010
0001
0010
0001
0010
0001
,
1000
0010
0100
0010
,
0001
0000
0000
0010
0000
0000
0100
0000
0000
0001
0010
0001
,
0010
1000
0010
0100
,
1000
0010
2000
0000
,
3001
0000
0001
0100
0000
0100
1000
0000
1000
0010
0000
0010
,
0001
1000
0001
0100
0010
0100
0002
0000
0000
0000
0000
0000
,
1003
0100
0010
0001
,
1000
0010
1000
0001
0010
0001
0100
0010
0100
0001
1000
0001
,
1000
1100
0100
0110
,
0010
0011
0001
0101
,
0100
1100
1000
1010
,
0010
0011
0001
1001
,
1000
1010
0010
0110
,
0100
0101
0001
0011
,
0010
0110
0010
1010
,
1000
0100
1000
0001
0200
0000
0000
0000
,
0301
0011
0010
0110
,
0100
1100
1000
1010
,
0010
0011
0001
0101
,
0100
1100
0100
0110
,
0001
1000
0010
0100
,
0001
0010
0100
1000
0001
0100
1000
0100
,
0001
0000
0100
0001
1000
0000
0100
1000
0001
0000
0010
0001
1000
0000
0010
1000
,
0001
0010
0100
1000
0001
1000
0001
1000
,
1001
1100
0011
0110
,
1000
0000
1000
0000
1000
0000
1001
0000
0000
0101
0000
0000
,
1010
0000
0000
0110
0000
0000
0001
0000
0001
0000
0001
0000
,
1001
1100
0101
0110
,
1000
0000
1000
0000
1000
0000
1001
0000
0000
0011
0000
0000
,
1010
0000
0000
0110
0000
0000
0001
0000
0001
0000
0001
0000
,
1001
0000
2000
0000
3001
0100
0010
1000
,
0001
0010
0100
0000
1001
0000
0002
0000
,
1003
0010
0100
0001
1000
0100
0010
0000
,
1001
0000
2000
0000
3001
0010
0100
0010
,
1000
0000
0010
0000
0100
0000
1000
0000
0002
0000
2003
0000
3002
2003
3002
2003
,
0002
0000
0000
0000
,
0000
0000
0000
0000
,
0000
0000
0000
0000
,
0000
0000
0000
0000
,
3003
0000
0000
0000
;

//--------------- dance-single - ----------------
#NOTES:
     dance-single:
     :
     Challenge:
     18:
     0,0,0,0,0:
0000
0000
0000
0000
,
0000
0000
0000
0000
,
0000
0000
0000
0000
,
0000
0000
0000
0000
,
0000
0000
0000
0000
,
0000
0000
0000
0000
,
0000
0000
0000
0000
,
0000
0000
0000
0000
,
1000
0100
1000
0100
0010
0001
0010
0001
0200
0000
0320
0000
2030
0000
3002
0000
,
1003
0000
0100
0000
1000
0001
0100
0010
,
1000
0000
0010
0100
1000
0000
0100
0001
,
1000
0000
0100
1000
0001
0000
0000
0000
0100
0000
1000
0000
0100
0000
0001
0000
,
1000
0000
0100
1000
0100
0000
1000
0000
0001
0000
0100
0001
0100
0000
0001
0000
,
1000
0000
0010
0000
0100
0000
0001
1000
0100
0000
0010
0100
1000
0000
0001
1000
,
0001
0000
0100
0010
0100
0000
0010
0000
1000
0000
0001
0010
0001
0000
0100
0010
,
1000
0000
0100
1000
0100
0000
1000
0000
0001
1000
0001
1000
0001
1000
0001
1000
,
0001
0001
0011
0000
1000
0100
0001
0100
,
0010
0000
0001
0100
0010
0000
0001
0010
,
1000
1000
1010
0000
0001
0100
1000
0100
,
0010
0000
0000
0000
1000
0000
0100
0000
0010
0000
0001
0100
0010
0000
1000
0001
,
1000
0000
0100
1000
0001
0000
0000
0000
0100
0000
0010
0100
0001
0000
1000
0000
,
0100
0000
0000
0000
0001
0000
0100
0000
1000
0000
0001
0100
0001
0000
1000
0100
,
1000
0000
0001
0100
0010
0000
1000
0001
0010
0000
0100
1000
0001
0000
1000
0001
,
1000
0000
0100
0000
0010
0000
0001
0000
1000
0000
0010
1000
0100
0000
0010
0001
,
2000
0010
3001
0000
1010
0000
0001
0100
,
0000
0000
0010
1000
0010
0000
1000
0000
0200
0000
0320
0000
0230
0000
0320
0000
,
0031
0000
1000
0100
1000
0000
0100
0000
1100
0000
0000
0000
0010
0000
0001
0000
,
1000
0000
0010
0100
0001
0000
0100
0000
0000
0000
0010
0000
1000
0000
1000
0000
,
0002
0010
2003
3000
0011
0000
1000
0100
,
0000
0000
0010
0001
0010
0000
0001
0000
0200
0000
0320
0000
0230
0000
0320
0000
,
1030
0000
0001
0100
0001
0000
0100
0000
0101
0000
0000
0000
0010
0000
1000
0000
,
0001
0000
0010
0100
0010
0000
0001
0000
1000
0000
0000
0000
0001
0000
0000
0000
,
1000
0000
0100
0000
1000
0001
0100
0010
0100
0000
0100
0000
0001
0000
0001
0000
,
0000
0000
0010
0100
1000
0000
0001
0000
0200
0320
0230
0320
0230
0320
0230
0320
,
1030
0000
0100
0010
0100
0000
1000
0001
0100
0000
0001
0000
0010
0100
1000
0010
,
1000
0000
0000
0000
0000
0000
0100
0000
0000
0010
0000
0000
0001
0000
0100
0000
0010
0000
1000
0000
0010
0000
0100
0000
,
0001
0000
1000
0100
1000
0000
0001
0000
0100
0000
0010
0100
0010
0000
1000
0000
,
1010
0000
0001
0000
0101
0000
1000
0000
0020
0230
0320
0230
0320
0230
0320
0230
,
0301
1000
0100
0010
0100
1000
0001
0100
0001
0010
0100
1000
0001
0100
0010
1000
,
0001
1000
0001
1000
0001
1000
0001
1000
0000
0000
0000
0000
0000
0000
0000
0000
,
0001
0000
0020
0000
,
0000
0000
0000
0000
0000
0000
0000
0032
,
0000
0000
0103
0010
1000
0001
0010
0100
0010
0001
1000
0010
0100
0001
0100
0001
,
1000
0100
0010
0100
1000
0100
0010
0001
0100
0010
0100
0001
0010
0100
1000
0100
,
1000
0001
0100
0001
1000
0100
0010
0001
0100
0010
0100
0010
0100
0001
0010
0100
,
1000
0000
0000
0000
0010
0000
0000
0000
1000
0000
0000
0000
0001
0000
0000
0000
0100
0000
0000
0000
0001
0000
0000
0000
1000
0000
0000
0100
0000
0000
0010
0000
0000
0000
0000
0000
0001
0000
0000
0010
0000
0000
0100
0000
0000
1000
0000
0000
,
0010
0000
0100
0001
1000
0000
0100
0010
0100
1000
0001
0100
0010
1000
0100
1000
,
0001
0010
0100
0010
0001
0010
0100
1000
0001
0100
0010
1000
0001
1000
0001
1000
,
0010
0000
0000
0000
0100
0000
0001
1000
0100
0010
0100
1000
0001
0000
0100
0000
,
0101
0011
1010
1100
,
1000
0000
0000
0010
0000
0000
1000
0000
0001
0000
0000
0010
0000
0000
0001
0000
,
0100
0000
0000
0001
0000
0000
1000
0000
0000
0000
0010
0000
0100
0000
0001
0000
,
1000
0000
0000
0000
0000
0000
0001
0000
1000
0100
1000
0100
1000
0100
1000
0100
,
1000
0100
1000
0100
1000
0000
0000
0000
0110
0000
0000
0000
1000
0001
1000
0001
,
1000
0000
0100
0000
1100
0000
0010
0000
0001
0000
0100
0000
0101
0000
0010
1000
,
0001
0000
0010
0000
0011
0000
0100
0000
1000
0000
0010
0000
1000
0001
1000
0001
,
1000
0000
0010
0000
1010
0000
0100
0000
0001
0000
0010
0000
0001
0000
1000
0001
,
1000
0000
0000
0000
0110
0000
0100
0000
1001
0000
0001
0000
1000
0001
1000
0001
,
0100
0010
1000
0001
0010
0100
0010
0001
1000
0010
1000
0010
0100
0001
0100
0001
,
0010
0001
1000
0010
0100
0001
0010
0001
1000
0100
1000
0100
0010
0001
0010
0001
,
2000
0000
0000
0000
,
3010
0100
0001
0000
1100
0000
0110
0000
,
0011
0000
0000
1010
0000
0000
1001
0000
0000
1000
0010
0100
,
0001
0101
0110
1010
,
1100
0000
0000
1001
0000
0000
0110
0000
0110
0000
0110
0000
,
1001
1100
0101
0110
,
1010
0000
0000
0011
0000
0000
1001
0000
0000
0001
0010
0100
,
1000
0000
0000
0010
0001
0010
1000
0000
0000
0100
1000
0100
,
1000
0001
0100
0001
1000
0100
1000
0001
1000
0001
1000
0001
,
1000
1010
1100
0110
,
0011
0000
0000
0101
0000
0000
1001
0000
0000
0001
0100
0010
,
1000
0000
0000
0100
1000
0100
1000
0000
0000
0100
0000
0000
,
0011
0000
0000
1100
0000
0000
1000
0010
1000
0001
0100
0001
,
1000
0100
0001
0100
0010
0001
1000
0010
0100
1000
0100
0001
,
1000
0001
0100
0010
1000
0100
1000
0000
1000
0000
2000
0000
,
3001
0000
0000
0100
0000
0010
1000
0000
0100
0000
0010
0000
,
0001
0100
0010
1000
0100
0010
0001
1000
0001
1000
0001
1000
,
0001
0000
0000
1000
0000
1000
0100
0000
0100
0010
0000
0010
,
0100
0000
0000
0000
0100
0000
1000
0000
0000
0000
1000
0000
0001
0000
0000
0000
0001
0000
0100
0000
0000
0100
0000
0000
,
0001
0000
0010
0001
0000
0100
0010
0100
0001
1000
0000
0100
,
0010
0000
0001
1000
0000
0000
0010
0100
0010
1000
0001
1000
,
0001
0000
0000
1000
0000
1000
0010
0000
0010
0100
0000
0100
,
0010
0000
0010
1000
0000
1000
0001
0000
0001
0010
0100
1000
,
0001
0000
0100
0001
0010
0100
1000
0010
1000
0001
0100
0001
,
1000
0000
0100
1000
0001
0000
0000
0000
0100
0010
1000
0001
0010
0100
1000
0001
,
1000
0000
0000
0100
0001
0100
1000
0000
0000
0010
1000
0010
,
0100
0000
0000
0000
0100
0000
0001
0000
0000
0000
0001
0000
0010
0000
0000
0000
0010
0000
0100
0000
0000
0100
0000
0000
,
1000
0000
0000
0001
0100
0001
0100
0000
0000
0010
1000
0010
,
1000
0000
1000
0100
0000
0000
0010
0001
0100
0010
1000
0100
,
1000
0000
0010
0100
0000
0001
1000
0000
0100
0010
0000
0100
,
1000
0000
0010
0000
0100
0000
0001
0000
0010
0001
0100
0010
1000
0100
1000
0001
,
0100
0001
1000
0100
0010
0100
1000
0001
0100
0010
0100
0001
0100
0010
1000
0001
,
1000
0000
0000
0100
0000
0000
1000
0000
0000
0100
0000
0000
0010
0000
0000
0001
0000
0000
0010
0000
0000
0001
0000
0000
1000
0000
0000
0000
0001
0000
0000
0000
1000
0000
0000
0000
0001
0000
0000
0000
1000
0000
0000
0000
0001
0000
0000
0000
,
1000
0000
0000
1100
0000
0000
0011
0000
0000
0100
0010
1000
,
0001
0000
0001
0000
0001
0000
1001
0000
0000
0101
0000
0000
,
1010
0000
0000
0100
0010
0001
1000
0000
1000
0000
1000
0000
,
1001
0000
0000
1100
0000
0000
0101
0000
0000
0010
1000
0001
,
0010
0000
0010
0000
0010
0000
0001
0100
0010
1000
0100
0010
,
0001
0010
0100
2000
3010
0100
0002
0003
0002
0003
0002
0003
,
2002
0000
3003
0000
1000
0100
1000
0010
0100
0000
0001
0000
0010
0000
0001
0000
,
0100
0000
0010
0000
1000
0000
0001
0000
2002
0000
3003
0000
0001
0010
0001
0100
,
0010
1000
0100
1000
0010
0100
0001
1000
,
2002
0000
3003
0000
1000
0100
0001
0100
1000
0000
0001
0000
0100
0000
0010
0000
,
1000
0000
0001
0000
0010
0000
0100
0000
2000
0000
3002
0000
2003
3002
2003
3002
,
2000
0000
0000
0000
,
0000
0000
0000
0000
,
0000
0000
0000
0000
,
0000
0000
0000
0000
,
0003
0000
0000
3000
0000
0000
0000
0000
0000
0000
0000
0000
0000
0000
0000
0000
0000
0000
0000
0000
0000
0000
0000
0000
0000
0000
0000
0000
0000
0000
0000
0000
;
