#TITLE:Guilty;
#SUBTITLE:;
#ARTIST:Ben Nicky x AVAO ft. Kye Sones;
#TITLETRANSLIT:;
#SUBTITLETRANSLIT:;
#ARTISTTRANSLIT:;
#GENRE:;
#CREDIT:darkanine;
#BANNER:Guilty.png;
#BACKGROUND:Guilty-bg.png;
#LYRICSPATH:;
#CDTITLE:;
#MUSIC:Guilty.ogg;
#OFFSET:0.000000;
#SAMPLESTART:19.139000;
#SAMPLELENGTH:20.870001;
#SELECTABLE:YES;
#BPMS:0.000000=138.000000,121.000000=104.000000,161.000000=138.000000;
#STOPS:94.000000=0.435000,107.000000=1.304000,120.000000=1.304000,169.000000=1.304000,182.000000=1.304000,211.000000=1.196000;
#BGCHANGES:0.000=Guilty.mp4=1.000=0=0=0=StretchNoLoop====,
99999=-nosongbg-=1.000=0=0=0 // don't automatically add -songbackground-
;
#KEYSOUNDS:;
#ATTACKS:;

//---------------dance-single - ----------------
#NOTES:
     dance-single:
     :
     Beginner:
     4:
     0.145519,0.198120,0.028036,0.046726,0.000000,109.000000,106.000000,3.000000,5.000000,0.000000,0.000000,0.145519,0.198120,0.028036,0.046726,0.000000,109.000000,106.000000,3.000000,5.000000,0.000000,0.000000:
// measure 0
0000
0000
0000
0000
,  // measure 1
0000
0000
0000
0000
,  // measure 2
0000
0000
0000
0000
,  // measure 3
0000
0000
0000
0000
,  // measure 4
1000
0000
1000
0000
,  // measure 5
0001
0000
0010
0000
,  // measure 6
0100
0000
0100
0000
,  // measure 7
0010
0000
0001
0000
,  // measure 8
1000
1000
1000
0000
,  // measure 9
0001
0001
0001
0000
,  // measure 10
0100
0100
0100
0100
,  // measure 11
0100
0000
0000
0000
,  // measure 12
1000
1000
1000
0000
,  // measure 13
0001
0000
0010
0000
,  // measure 14
0100
0100
0100
0000
,  // measure 15
1000
0000
0001
0000
,  // measure 16
0100
0100
0100
0000
,  // measure 17
0001
0000
0010
0000
,  // measure 18
0001
0001
0001
0000
,  // measure 19
1000
0000
1001
0000
,  // measure 20
0001
0000
0010
0000
,  // measure 21
0100
0000
1000
0000
,  // measure 22
0020
0000
0000
0000
,  // measure 23
0030
0000
0000
0001
,  // measure 24
0100
1000
0000
1000
,  // measure 25
0100
0001
0000
0001
,  // measure 26
0010
1000
0000
0000
,  // measure 27
1000
1000
0001
0000
,  // measure 28
0001
0001
1000
0000
,  // measure 29
0010
0010
0010
0000
,  // measure 30
2002
3003
0000
0000
,  // measure 31
0000
0000
0000
0000
,  // measure 32
0000
1000
0000
0010
,  // measure 33
0000
0000
0000
0100
,  // measure 34
0000
0000
0000
0001
,  // measure 35
0000
0001
0000
0001
,  // measure 36
0000
0000
0000
0010
,  // measure 37
0000
0100
0000
0000
,  // measure 38
0000
1000
1000
1000
,  // measure 39
0000
0001
0001
0001
,  // measure 40
0000
0100
0000
0000
,  // measure 41
0000
0000
0000
0000
,  // measure 42
0000
0000
1000
0000
,  // measure 43
0100
0000
0001
0000
,  // measure 44
0100
0000
1000
0000
,  // measure 45
0010
0000
0001
0001
,  // measure 46
0010
1000
0000
1000
,  // measure 47
0010
0001
0000
0001
,  // measure 48
0010
1000
0000
0001
,  // measure 49
0000
1000
0000
1000
,  // measure 50
0100
0001
0000
0001
,  // measure 51
0100
1000
0000
1000
,  // measure 52
0100
0001
0000
2002
,  // measure 53
3003
0000
0000
0000
;

//---------------dance-single - ----------------
#NOTES:
     dance-single:
     :
     Easy:
     9:
     0.257662,0.369722,0.224286,0.299049,0.028036,193.000000,169.000000,24.000000,32.000000,4.000000,0.000000,0.257662,0.369722,0.224286,0.299049,0.028036,193.000000,169.000000,24.000000,32.000000,4.000000,0.000000:
0000
0000
0000
0000
,
0000
0000
0000
0000
,
0000
0000
0000
0000
,
0000
0000
0000
0000
,
1000
1000
1000
0000
,
0001
0001
0010
0000
,
0100
0100
0100
0000
,
0010
0001
1000
0000
,
0010
0010
1000
1000
,
0001
0001
0010
0010
,
0200
0001
0010
1000
,
0300
0000
0000
0000
,
1010
1001
1010
0001
,
1100
0010
0101
1000
,
0011
1001
0011
1000
,
0101
1000
0110
0000
,
1001
0110
1001
0100
,
1100
0001
1010
0100
,
0011
1010
0011
0100
,
1001
0010
0110
0000
,
0002
0100
0100
0103
,
2000
0001
0001
3001
,
0020
0001
0100
1030
,
0000
0000
0000
1200
,
1300
0200
0001
0000
0010
0000
0001
0000
,
0301
0200
1000
0000
0010
0000
1000
0000
,
1300
0200
0001
0000
0010
0000
0300
0000
,
0001
0001
0001
2000
0100
0000
0010
0000
,
0100
0000
3100
0002
0100
0000
0010
0000
,
0100
0000
0103
2000
0100
0000
0010
0000
,
3000
MMMM
0000
0000
,
0000
0000
0000
0000
,
0000
0002
0000
1000
,
0103
0020
0000
0031
,
0010
2000
0000
0001
,
3001
0020
0001
1000
,
0130
2000
0000
0010
,
0100
0000
3002
0000
0000
0003
0000
0000
,
0200
1000
0010
0310
,
0100
0020
0001
0100
,
0130
1001
0000
0000
,
0000
0000
0000
0000
,
0000
0000
2000
3100
,
0002
0010
1000
0103
,
2000
0010
0001
3100
,
0002
1000
0000
0100
,
0103
0000
2000
0010
0000
0000
0001
0000
0000
0100
0000
0000
,
3100
0000
0002
0010
0000
0000
1000
0000
0000
0100
0000
0000
,
0103
0000
2000
0010
0000
0000
0001
0000
0000
3100
0000
0000
,
0110
2002
3000
0203
,
0301
0000
0200
1000
0000
0000
0010
0000
0000
1000
0000
0000
,
1300
0000
0200
0001
0000
0000
0010
0000
0000
0001
0000
0000
,
0301
0000
0200
1000
0000
0000
0010
0000
0000
0300
0000
0000
;

//---------------dance-single - ----------------
#NOTES:
     dance-single:
     :
     Medium:
     12:
     0.359125,0.468870,0.252322,0.280358,0.219614,269.000000,242.000000,27.000000,30.000000,3.000000,0.000000,0.359125,0.468870,0.252322,0.280358,0.219614,269.000000,242.000000,27.000000,30.000000,3.000000,0.000000:
0000
0000
0000
0000
,
0000
0000
0000
0000
,
0000
0000
0000
0000
,
0000
0000
0000
0000
,
1000
1000
1000
0100
,
0010
0010
0001
0100
,
0010
0010
0010
1000
,
0100
0010
0001
1001
,
1000
0010
1000
0010
0100
0001
0100
0001
,
0010
0001
0010
0001
1000
0100
1000
0100
,
2000
3020
0230
0302
,
0003
0000
0000
0000
,
1010
0000
1100
0000
1001
1000
0001
0100
,
0010
0000
0110
0000
1001
0000
1000
0100
,
1100
0000
0101
0000
1100
0001
0010
0100
,
1000
0000
0001
0100
1000
0000
0110
0000
,
2100
0000
3001
0000
0102
0100
0103
0000
,
2010
3001
0012
0103
,
0110
0000
1001
0000
0110
0100
0100
0000
,
1010
0011
0201
1300
,
0100
0001
1000
0100
1000
0001
0100
0001
,
1000
0010
1000
0001
0010
0001
1000
0010
,
0200
0320
2030
3002
,
0010
0000
0000
0000
0103
0000
0000
0000
0000
0000
0000
0000
0001
0000
0000
0001
,
0100
0000
0000
0100
1000
0000
0000
1000
0010
0000
0000
0010
1000
0000
0000
1000
,
0100
0000
0000
0100
0001
0000
0000
0001
1000
0000
0000
1000
0100
0000
0000
0100
,
0010
0000
0000
0010
1000
0000
0000
1000
0001
0000
0000
0001
0020
0030
0000
0000
,
0100
0100
0100
0100
0001
0000
1000
0000
,
1001
0000
0101
0000
1100
0000
0110
0010
,
0110
0000
0000
0000
0011
0000
0000
0000
1010
0000
0000
0100
0001
0000
0000
0100
,
2000
3MMM
0000
0000
,
0000
0000
0000
0000
,
0000
0000
0000
0000
0001
0000
0000
0000
0000
0000
0000
0000
0010
0000
0000
0010
,
0200
1300
0000
0010
,
0200
0000
0000
0301
0000
0000
0000
0000
0000
0001
0000
0100
,
1000
0000
0100
0001
0000
0100
1000
0000
0100
0001
0000
0000
,
2000
3100
0000
0010
,
0020
0000
0000
0000
0000
0000
0130
0000
2000
0000
0000
0000
0000
0000
0000
3000
0000
0000
0000
0000
0000
0000
0000
0000
,
2000
3010
0100
0001
,
0002
0013
0100
2000
,
0001
3100
0000
0000
,
0000
0000
0000
0000
,
0000
0000
0000
0000
0000
0000
2000
0000
0000
3100
0000
0200
,
0001
0000
0000
0010
0000
0000
1000
0000
0000
0310
0000
0200
,
1000
0000
0000
0010
0000
0000
0001
0000
0000
0310
0000
0200
,
0001
0000
0000
0010
0000
0000
0300
0000
0000
1000
0000
1000
,
0010
0000
0010
0001
0000
0001
1000
0000
1000
0001
0000
0001
,
0100
0000
0100
1000
0000
1000
0010
0000
0010
0100
0000
0100
,
0010
0000
0010
0001
0000
0001
1000
0000
1000
0100
0000
0100
,
0020
0100
0032
0103
,
0100
0000
0100
1000
0000
1000
0010
0000
0010
0100
0000
0100
,
0010
0000
0010
0001
0000
0001
0100
0000
0100
0001
0000
0001
,
0010
0000
0000
0000
0000
0000
0000
0000
0010
0000
0000
0000
1000
0000
0000
0000
0000
0000
0000
0000
1000
0000
0000
0000
0001
0000
0000
0000
0000
0000
0000
0000
0001
0000
0000
0000
0200
0000
0000
0300
0000
0000
0000
0000
0000
0000
0000
0000
;

//---------------dance-single - ----------------
#NOTES:
     dance-single:
     :
     Hard:
     14:
     0.505980,0.616934,0.252322,0.093453,0.537353,379.000000,352.000000,27.000000,10.000000,4.000000,0.000000,0.505980,0.616934,0.252322,0.093453,0.537353,379.000000,352.000000,27.000000,10.000000,4.000000,0.000000:
0000
0000
0000
0000
,
0000
0000
0000
0000
,
0000
0000
0000
0000
,
0000
0000
0000
0000
,
0001
0000
0001
0000
0001
0010
0001
0100
,
0010
0000
0010
0000
1000
0000
1000
0010
,
0100
0000
0100
0000
0100
0010
0100
0001
,
1000
1000
0100
0110
,
0001
0100
0010
0100
1000
0100
0010
0100
,
0001
0010
0100
0010
1000
0010
0100
0010
,
0100
1000
0100
1000
0001
0100
0001
0100
0010
1000
0010
1000
0001
0010
0001
0010
,
0000
0000
0000
0000
,
1001
0000
0110
0000
1001
0100
0110
0001
,
1000
0010
0000
0100
0001
0010
0000
0110
0000
0000
0100
0000
1000
0000
0001
0000
,
0101
0000
1100
0000
0101
1000
0100
0001
,
0100
0010
0000
0001
0100
0010
0000
0001
0000
0000
0010
0000
1001
0000
0000
0000
,
1010
0000
1100
0000
1010
0001
0010
0100
,
1000
0100
0000
0010
0001
0100
0000
0110
0000
0000
1000
0000
0010
0000
0100
0000
,
0101
0000
0011
0000
0101
0001
1000
0010
,
0100
0010
0000
0001
0010
1000
0000
1001
0000
0000
0002
0000
0100
0000
0000
0000
,
1003
0100
0010
0100
1000
0010
0100
0010
,
1000
0100
0001
0100
1000
0010
0001
0010
,
0100
0010
1000
0000
0100
0010
0001
0000
0100
0010
1000
0000
0100
0010
0001
0000
,
0100
0000
0000
0000
1001
0000
0000
0000
0000
0000
0000
0000
1000
0000
1000
0001
,
0010
0000
0010
1000
0001
0000
0001
0100
0010
0000
0010
1000
0001
0000
0001
1000
,
0100
0000
0100
0001
1000
0000
1000
0010
0100
0000
0100
0001
1000
0000
1000
0100
,
0010
0000
0010
1000
0001
0000
0001
0100
0010
0000
0010
1000
0100
0000
0000
0000
,
1010
0110
1010
0010
0001
0100
0010
1000
,
0001
1000
0100
0100
0001
0010
0001
0001
,
1000
0000
0100
0000
0010
0000
0010
0000
2000
0000
0100
0010
3002
0000
0100
0010
,
2003
3000
0000
0000
MMMM
0000
0000
0000
0000
0000
0000
0000
0000
0000
0000
0000
,
0000
0000
0000
0000
,
0000
0000
0000
0000
0001
0000
0000
0000
0000
0000
0100
0000
0010
0000
0000
0010
,
1000
0000
0000
0000
0100
0000
0000
0000
0000
0000
1000
0100
0010
0000
0010
0000
,
0001
0000
0000
0000
0000
0000
0001
0000
0000
1000
0000
0000
0000
0000
0000
0000
0000
0000
0000
0000
0000
0000
0000
0000
0000
0000
0000
0000
0001
0000
0000
0000
1000
0000
0000
0000
0010
0000
0000
0000
0100
0000
0000
0000
0001
0000
0000
0000
,
0010
0000
0100
0010
0001
0100
0010
1000
0100
0020
0000
0000
,
0130
0000
0000
1000
0000
0000
0000
0000
1000
0010
0100
0001
,
0010
0000
0100
0000
1000
0000
0001
0000
0200
0000
0000
0000
0000
0000
0000
1300
0000
0000
0000
0000
0000
0000
0000
0000
,
0000
0100
0001
0000
1000
0000
0000
0000
0011
0000
0000
0000
0110
0000
0000
0000
,
0000
0100
1000
0000
0001
0000
0100
0000
1010
0000
0000
0000
0110
0000
0000
0000
,
1000
0001
1001
0000
0000
0000
0000
0000
,
0000
0000
0000
0000
,
0000
0000
0000
0000
0000
0000
0001
0000
0000
0100
0000
0100
,
1000
0000
0000
0010
0000
0000
1000
0000
0000
0100
0000
0100
,
0001
0000
0000
0010
0000
0000
0001
0000
0000
0100
0000
0100
,
1000
0000
0000
0001
0000
0000
0000
0000
0000
1000
0010
0100
,
0001
0010
0010
1000
0100
0010
0001
0100
0010
1000
0100
0010
,
0001
0100
0100
1000
0001
0010
0001
1000
0010
1000
0001
0010
,
0001
0010
0010
1000
0100
1000
0001
0100
0001
1000
0010
0100
,
0002
0000
0000
0023
0000
0001
0230
0000
0010
1300
0000
0000
,
1000
0010
0010
0001
1000
0100
0010
0001
0100
0010
1000
0100
,
0010
0001
0001
0100
1000
0010
0100
0001
0010
0100
1000
0001
,
0100
0000
0000
0000
1000
0000
0000
0000
1000
0000
0000
0000
0001
0000
0000
0000
0010
0000
0000
0000
0100
0000
0000
0000
1000
0000
0000
0000
0010
0000
0000
0000
0100
0000
0000
0000
0002
0000
0000
0003
0000
0000
0000
0000
0000
0000
0000
0000
;
