#TITLE:Gourmet Race Fusion Collab;
#SUBTITLE:;
#ARTIST:SiIvaGunner;
#TITLETRANSLIT:;
#SUBTITLETRANSLIT:;
#ARTISTTRANSLIT:;
#GENRE:;
#CREDIT:;
#BANNER:Gourmet Race Fusion Collab.png;
#BACKGROUND:Gourmet Race Fusion Collab-bg.png;
#LYRICSPATH:;
#CDTITLE:;
#MUSIC:Gourmet Race Fusion Collab.ogg;
#OFFSET:-0.073639;
#SAMPLESTART:12.682326;
#SAMPLELENGTH:12.000000;
#SELECTABLE:YES;
#DISPLAYBPM:95.000000:190.000000;
#BPMS:0.000000=190.000000
,104.000000=95.000000
,112.000000=190.000000
,335.000000=380.001007
,336.000000=190.000000
,356.000000=380.000000
,358.000000=190.000000
,360.000000=240.000000
,390.000000=237.000000
,392.000000=1999.999878
,410.000000=198.000000
,420.000000=190.000000
;
#STOPS:335.000000=0.039000,
335.250000=0.039000,
335.500000=0.039000,
335.750000=0.039000,
356.000000=0.039000,
356.250000=0.039000,
356.500000=0.039000,
356.750000=0.039000,
357.000000=0.039000,
357.250000=0.039000,
357.500000=0.039000,
357.750000=0.039000
;
#BGCHANGES:391.667=Gourmet Race Fusion Collab.mp4=1.000=0=0=1=====,
99999=-nosongbg-=1.000=0=0=0 // don't automatically add -songbackground-
;
#KEYSOUNDS:;
#ATTACKS:;

//---------------dance-single - ----------------
#NOTES:
     dance-single:
     :
     Hard:
     17:
     0.855964,0.926533,0.352456,0.944882,0.674916,799.000000,752.000000,47.000000,126.000000,76.000000,0.000000,0.855964,0.926533,0.352456,0.944882,0.674916,799.000000,752.000000,47.000000,126.000000,76.000000,0.000000:
0000
0000
0000
0000
,
0000
0000
0000
1001
,
0002
0103
0001
1000
0200
1300
0001
0100
,
0002
0013
2000
3010
0002
1000
1003
0000
,
0002
0103
2000
3100
0020
1030
0001
0011
,
0000
1100
0000
0012
0000
1003
1001
0000
,
2000
3010
1000
0001
0020
0031
0010
0001
,
2000
3100
0002
0103
2000
0000
3001
0100
,
1000
0100
0001
1000
0100
0001
0100
1000
,
0001
0100
0010
1000
0001
0000
1001
0000
,
0001
0000
1000
0000
0010
1000
0100
M000
0100
0000
0001
0010
,
0100
0000
1000
0000
0001
0000
2002
0000
0000
3003
0000
0000
,
1000
0000
0001
0000
0010
0001
0100
000M
0100
0000
1000
0010
,
0100
0000
0001
0000
1000
0000
1001
0000
0001
1000
0001
1000
,
0001
0000
1000
0100
1000
0000
0001
0000
1000
0010
1000
0000
,
0001
0000
0010
0000
1000
0000
0001
0000
0200
0000
2300
0000
,
3001
0000
0100
0010
0100
0000
0001
0000
0010
0100
0010
0000
,
0001
0000
1000
0010
1000
0010
0100
0001
0100
0001
1000
0001
,
2000
0000
0000
3100
0000
0010
0100
0000
1000
0000
0000
1100
,
0000
0000
1000
0100
0000
0100
0001
0000
0001
0010
0000
0010
,
2000
0000
0000
3001
0000
0100
0001
0000
0010
0000
0000
0011
,
0000
0000
0001
0010
0001
1000
0010
1000
0001
0100
0001
1000
,
0010
0000
0100
0000
0000
0001
0010
0000
0100
0000
0000
1000
,
0001
0000
0100
0000
0000
1010
0000
0000
0101
0000
0000
0001
,
0010
1000
0000
0001
0100
1000
0000
1010
,
0000
0101
0000
0011
0000
2200
0000
3300
,
1002
0203
0320
2030
3002
0023
2030
3020
,
0031
0000
0000
0000
0000
0000
0000
0000
0000
0000
0000
0000
0000
0000
0000
0000
0000
0000
1000
0010
0100
0001
0100
0010
,
2000
0000
0000
0000
3100
0000
1000
0001
0200
0000
0000
0000
0310
0000
0100
0000
,
0001
0011
1100
1001
,
1000
0000
0100
1000
0100
0000
1000
0000
0001
0000
0100
0001
0100
0000
0001
0000
,
0100
0000
0010
1000
0001
0000
1000
0000
0020
0000
0000
0000
1030
0001
1000
0001
,
1000
0000
0010
1000
0100
0000
M100
0000
0001
0000
0010
0100
1000
0000
0001
0000
,
1000
0000
MM00
0000
0010
0001
0100
0000
0100
0001
0010
0000
0001
0000
1000
0000
,
0001
0000
1000
0100
1000
0000
0100
0000
0010
0000
0001
0010
0001
0000
1000
0000
,
0202
0000
0303
0000
2020
0000
3030
0000
2200
0000
3300
0000
0012
0000
1003
0001
,
0100
0000
0001
0100
0001
0000
0100
0000
0001
0000
1000
0100
1000
0000
0100
0000
,
0010
0000
0001
1000
0010
0000
0100
0000
0020
0000
0030
0000
2002
0000
3003
0000
,
0001
0000
0100
0010
0100
0000
0001
0000
1000
0000
0010
0100
0010
0000
1000
0000
,
0001
0000
0010
0100
1000
0000
0001
0000
1000
0000
0010
0100
0001
0000
1000
0000
,
0001
0001
0001
0001
0200
0000
0310
0100
,
0001
0000
1000
0000
0100
1000
0100
0000
2000
0000
0000
0000
3010
0000
1000
0000
,
0001
0100
0010
0001
0000
0010
1000
0001
,
1000
0100
1000
0000
0001
0000
0100
0000
0020
0000
0000
0000
1030
0001
1000
0001
,
1000
0100
1000
0000
0001
0100
0001
0000
1000
0000
0010
0000
0100
0001
1000
0000
,
0000
0000
0001
0000
0010
0000
0100
0000
1000
0000
0001
0100
0001
0100
0010
0000
,
1000
0010
0100
0000
0010
0000
1000
0000
0002
0000
0013
0000
2000
0000
3010
0000
,
0002
0100
0103
0001
2001
0000
3100
0000
,
1001
0000
0000
0000
0001
0000
0100
000M
0100
0000
1000
0000
0010
0000
0000
0000
,
1000
0000
0100
M000
0100
0000
0001
0000
0020
0000
0000
0000
0030
0000
0000
0000
,
2001
0000
0000
0000
3001
0100
0001
0000
0020
0000
0000
0000
0130
1000
0100
0000
,
2000
0000
0000
0000
3020
0000
0000
0000
0032
0000
0000
0000
0013
0100
0010
0000
,
2000
3100
0002
1003
0020
0031
2000
3010
,
0200
0000
0000
0000
0310
1000
0010
1000
0002
0000
0000
0000
0013
0100
0010
0100
,
2000
0000
0000
0000
3001
0010
0001
0000
0200
0000
0000
0000
0310
1000
0010
0000
,
2000
0000
3200
0000
0302
0000
0103
1000
,
0001
0000
0100
0000
0010
1000
0010
1000
0001
0000
0010
0000
0100
1000
0100
1000
,
0001
0000
0100
0010
0000
0010
0100
0000
0002
0000
0000
0000
1003
0100
1000
0100
,
2000
3010
0002
0013
,
0100
0000
0100
0002
0000
0000
2003
0000
0000
3100
0000
0000
,
0010
0001
0100
0010
1000
0100
0010
0000
0001
1000
0000
0000
,
0020
0000
0000
1030
0000
0001
0200
0000
0000
0310
0000
0010
,
2000
3100
0002
0103
,
0020
0000
0000
0031
0000
0001
2000
0000
0000
3010
1000
0010
,
0100
0000
0000
0000
0000
0000
0000
0000
0000
0000
0000
0000
0000
0000
0000
0000
0000
0000
0000
0000
0000
0000
0000
0000
0000
0000
0000
0000
0000
0000
0001
0000
0000
0000
0000
0000
0000
0000
0000
0000
0000
0000
0000
0000
0000
0000
0000
0000
0000
0000
0000
0000
0000
0000
0000
0000
0000
0000
0000
0000
1000
0000
0000
0000
0000
0000
0000
0000
0000
0000
0000
0000
0000
0000
0000
0000
0000
0000
0000
0000
0000
0000
0000
0000
0000
0000
0000
0000
0001
0000
0000
0000
0000
0000
0000
0000
1000
0000
0000
0000
0000
0000
0000
0000
0000
0000
0000
0000
0000
0000
0000
0000
0100
0000
0000
0000
0000
0000
0000
0000
0000
0000
0000
0000
0000
0000
0000
0000
0010
0000
0000
0000
0000
0000
0000
0000
0000
0000
0000
0000
0000
0000
0000
0000
0001
0000
0000
0000
0000
0000
0000
0000
0000
0000
0000
0000
0000
0000
0000
0000
0010
0000
0000
0000
0000
0000
0000
0000
0000
0000
0000
0000
0000
0000
0000
0000
0100
0000
0000
0000
0000
0000
0000
0000
0000
0000
0000
0000
0000
0000
0000
0000
,
1000
0010
0100
0001
0100
0010
2000
0000
0000
3001
0000
0000
,
1001
MMMM
0101
MMMM
0110
MMMM
1010
1000
,
1002
M000
01M3
100M
0100
0010
2010
0M00
,
30M2
M000
01M3
100M
0100
001M
1000
0100
,
120M
0000
M302
0000
20M3
0000
3010
M001
,
0011
MM00
1100
00MM
1000
0010
0100
M0MM
,
0201
0000
1300
0100
001M
001M
1000
0MMM
,
0100
0000
0010
0000
MM12
0000
0000
0000
0103
0000
0010
0000
1M1M
0000
0010
1000
,
0002
1MM3
2001
31MM
,
1000
0000
0010
0000
0200
0000
0310
1000
0001
0000
0010
0000
0200
0000
0310
0001
,
1000
0000
0001
0000
0020
0000
0031
1000
0100
0000
1000
0000
0020
0000
0130
0001
,
1000
0000
0100
0000
0002
0000
0103
0010
0100
0000
0010
0000
0002
0000
1003
0001
,
2000
3020
0032
0023
2030
3002
2003
3000
,
0001
0000
0100
0000
010M
0000
1000
0000
0001
0000
0100
0010
0100
0000
0001
0000
,
1000
0000
0100
0000
0001
0000
0100
0000
1000
0000
0010
0100
0010
0000
1000
0000
,
0001
0010
001M
1000
0001
0010
0100
1000
,
0001
0100
0010
0000
1000
0000
0001
0000
1000
0000
0000
0000
2100
0000
0000
0000
,
3001
0000
0100
0010
1000
0000
0010
0000
0100
0000
0001
0000
1000
0000
0100
0000
,
1100
0000
0000
0010
0001
0000
0101
0000
0000
1010
0000
0000
1000
0001
1000
0001
,
1000
0000
0001
0010
0100
0000
1000
0000
0100
0000
0010
0000
0001
0000
1000
0000
,
0001
0000
0100
0010
1000
0000
0010
0000
0200
0000
0001
0000
0301
0000
1000
0001
,
0010
0000
0001
0100
000M
0100
1000
0000
0001
0000
1000
0000
0100
0000
0010
0000
,
0100
0000
1000
0010
M000
0010
0001
0000
0100
0000
0010
0000
0100
0000
0001
0000
,
0010
0000
0001
0100
000M
0100
1000
0000
0001
0000
0100
0000
1000
0000
0100
0000
,
0001
0100
0010
1000
0010
0100
0001
0100
0010
1000
0002
0000
1003
0000
0000
0000
,
0001
0100
0010
2000
0000
0001
3001
1000
,
0001
0010
1000
0010
0002
0000
0103
0100
,
0010
1000
0001
0100
0002
0023
0230
2300
,
3001
0000
0100
0000
1000
0000
0100
0000
0001
0000
0010
0000
0100
1000
0100
1000
,
0001
0000
1000
0000
0010
0000
1000
0000
0100
1000
0001
0000
0200
0000
0301
0000
,
1000
0000
0010
0000
1000
0000
0001
0000
0010
0001
1000
0000
0001
0000
1000
0001
,
1000
0000
0000
0000
0000
0000
0000
0000
0001
0000
0000
0000
0000
0000
0000
0000
1000
0000
0000
0000
0000
0000
0000
0000
0010
0000
0000
0000
0000
0000
0100
0000
0000
0000
0000
0000
0001
0000
0000
1000
0000
0000
0001
0000
0000
1000
0000
0000
,
0001
0010
0100
1000
0002
0000
0003
0000
,
2002
0000
0000
0000
,
0000
0000
0000
0000
,
0000
0000
3M03
00M0
0M00
00M0
0M00
00M0
,
0M00
00M0
0M00
00M0
0M00
00M0
0M00
00M0
,
0M00
00M0
0M00
0000
0000
0000
0000
0000
,
0000
0000
0000
0000
,
0000
0000
0000
0000
,
1002
0000
0203
2300
3200
0302
2003
0000
,
3200
0302
0203
2300
0002
0000
3003
0000
,
0000
0000
0000
0000
0000
000M
0000
M000
0000
0000
0000
0000
0000
0000
0000
0000
;

//---------------dance-single - ----------------
#NOTES:
     dance-single:
     :
     Medium:
     12:
     0.663131,0.720472,0.517435,0.517435,0.266217,619.000000,550.000000,69.000000,69.000000,0.000000,0.000000,0.663131,0.720472,0.517435,0.517435,0.266217,619.000000,550.000000,69.000000,69.000000,0.000000,0.000000:
0000
0000
0000
0000
,
0000
0000
0000
1001
,
0102
0013
2100
3010
,
1010
0101
2001
3100
,
1020
0000
0032
0000
2003
0000
3100
0200
,
0000
0320
0000
2030
0000
3001
1001
0000
,
0012
0103
2010
3100
,
1100
0000
0011
0000
1002
0000
0103
1000
,
0100
0001
1000
0100
0001
0100
1000
0001
,
1000
0010
0100
0001
1000
0000
1001
0000
,
0010
0000
0001
0000
0100
0010
0100
0000
0001
0000
0010
0100
,
0010
0000
0001
0000
1000
0000
2002
0000
0000
3003
0000
0000
,
1000
0000
0010
0000
0100
0010
0100
0000
0010
0000
1000
0100
,
0010
0000
0100
0000
1000
0000
1001
0000
0001
1000
0001
0000
,
1000
0000
0010
0000
0010
0000
0001
0000
0100
0000
0100
0000
,
1000
0000
0001
0000
0001
0000
0100
0000
0010
0000
1000
0100
,
0010
0000
0001
0000
0100
0000
1000
0000
0010
0000
1000
0000
,
0100
0000
0001
0000
0010
0000
0200
0000
0000
0310
0000
0000
,
1002
0000
0000
0103
0000
0001
1000
0000
0001
0000
0000
1001
,
0000
0000
0001
0100
0000
0100
0010
0000
0010
1000
0000
1000
,
0002
0000
0000
1003
0000
0001
0010
0000
0100
0000
0000
1100
,
0000
0000
0100
1000
0000
1000
0010
0000
0010
0100
0000
0100
,
0001
0000
0100
0000
0000
0001
1000
0000
0100
0000
0000
1000
,
0010
0000
1000
0000
0000
0001
0000
0000
0010
0000
0000
0100
,
1000
0010
0000
0100
0001
1000
0000
1100
,
0000
0011
0000
0101
0000
2020
0000
3030
,
1002
0203
0320
2030
3020
0230
0302
2003
,
3001
0000
0000
0000
0000
0000
0000
0000
0000
0000
0000
0000
1000
0100
0010
0001
,
1000
1010
0001
0011
,
1000
1100
0101
1001
,
0001
0100
0010
1000
0010
0100
0001
1000
,
0001
0010
1000
0010
0002
0000
1003
0000
,
1001
0000
0001
0100
0010
0010
0100
0001
,
1000
0000
0100
0010
0100
0100
1000
0001
,
0100
0100
0010
0010
1000
1000
0001
0010
,
0011
1100
0101
1010
,
0010
0010
1000
0100
0001
0001
0100
1000
,
0010
0100
0001
1000
0001
0000
1001
0000
,
0001
0001
0010
0100
0010
0010
0001
0100
,
1000
0100
0010
1000
0002
0000
1003
0000
,
0001
0100
0001
0100
0010
0100
0001
0000
,
2000
3100
0002
0103
,
1000
0010
0100
0000
0101
0000
0001
0100
,
1000
0000
1000
0100
0002
0000
1003
0000
,
2001
0000
3100
0000
1000
0100
0010
0001
,
0000
0001
1000
0000
1010
0000
0001
0000
,
0010
0001
0100
0001
0010
0001
0100
0001
,
0010
0100
0000
0100
2000
0000
3001
0000
,
0000
0000
0000
0000
,
0000
0000
0000
0000
,
2000
0000
3010
0100
0002
0000
0103
0010
,
2000
3200
0302
0103
,
1000
0010
0100
0010
0001
0010
0100
0001
,
0101
1010
2001
3010
,
1002
0000
0013
0100
2000
0000
3100
0010
,
0002
0000
0203
0000
2300
0000
3100
0001
,
1000
0100
0010
0001
0001
0010
0100
1000
,
0001
0000
0000
0100
0000
0000
0010
0000
2000
0000
0000
0000
3001
0000
0000
0000
,
1000
1100
0001
0101
,
1000
1010
0001
0011
,
1000
0000
1000
0010
0000
0010
0100
0000
0100
0001
0000
0001
,
0020
0130
2000
3001
,
1000
1100
0001
0101
,
1000
1010
0001
0011
,
1000
0000
0010
0000
0100
0000
0001
0000
0010
0000
0100
0000
,
1000
0000
0100
0000
0001
0000
0200
0000
0000
0310
0000
0000
,
0011
0011
1100
1100
,
1002
0000
0103
0000
0010
1000
0100
0000
,
0012
0000
0103
0000
0001
0100
1000
0100
,
0020
2030
3002
1003
,
1010
0000
0101
0000
1000
0100
0001
0000
,
0200
0000
0310
0000
0001
1000
0001
0000
,
1000
0010
0100
0000
1000
0100
0001
1000
,
0002
0013
0200
1300
,
0010
0010
0010
0000
0100
0100
0100
0000
,
0001
0001
0001
0000
1000
1000
1000
0000
,
0100
0100
0100
0000
0010
0010
0010
0000
,
0001
0100
1000
0100
0001
1000
0001
0000
,
0011
0000
1100
0000
1000
0010
0100
0000
,
0101
0000
0001
0100
1000
0100
0010
0000
,
1010
0000
0101
0000
1000
0100
0001
0000
,
0100
0010
0100
0010
0002
0000
1003
0000
,
0001
0100
0001
0100
1000
0100
1000
0100
,
0010
0000
0000
0010
0000
0000
1000
0000
0000
1000
0000
0000
0001
0000
0001
0000
,
1000
0100
1000
0100
0001
0100
0001
0100
,
0010
0100
0010
0100
1000
0010
0100
0001
,
2000
0000
3010
0001
0010
0100
0001
1000
,
0200
0000
0301
0100
1000
0010
0100
0001
,
2000
0000
3010
0001
0010
0100
0001
1000
,
0010
0100
0010
0100
0001
1000
0001
0000
,
1000
0000
0100
0000
0001
0100
1000
0000
,
0010
0100
0001
1001
,
1000
0000
0010
0000
0001
0010
1000
0000
,
0001
0010
0100
1001
,
1000
0100
0001
0000
0100
0000
0010
0000
,
0001
0100
1000
0000
0100
0000
0010
0000
,
1000
0000
0000
0010
0000
0000
0100
0000
0002
0000
0000
0000
1003
0000
0000
0000
,
0011
1100
2002
3003
,
0220
0000
0000
0000
,
0000
0000
0000
0000
,
0000
0330
0000
0000
,
0000
0000
0000
0000
,
0000
0000
0000
0000
,
0000
0000
0000
0000
,
0000
0000
0000
0000
,
2000
0000
3001
0100
0010
1000
0002
0000
,
1003
0100
0010
0001
2000
0000
3000
0000
;

//---------------dance-single - ----------------
#NOTES:
     dance-single:
     :
     Easy:
     9:
     0.507794,0.600394,0.344957,0.232471,0.082490,474.000000,428.000000,46.000000,31.000000,0.000000,0.000000,0.507794,0.600394,0.344957,0.232471,0.082490,474.000000,428.000000,46.000000,31.000000,0.000000,0.000000:
0000
0000
0000
0000
,
0000
0000
0000
1001
,
0002
0103
0020
0130
,
0002
2003
3002
0013
,
0002
0023
0230
2300
,
3020
0230
0302
1003
,
0002
0103
2000
3100
,
0020
0000
2030
0000
3002
0000
1003
0100
,
0010
0000
0001
0000
1000
0010
0100
0000
,
0001
1000
0001
1000
0001
0000
1001
0000
,
1000
0000
0000
0000
1000
0000
0010
0000
0000
0000
0010
0000
,
0100
0000
0000
0000
0001
0000
1001
0000
0000
0000
0000
0000
,
0001
0000
0000
0000
0001
0000
0010
0000
0000
0000
0010
0000
,
0100
0000
0000
0000
1000
0000
1001
0000
0000
0000
1000
0000
,
0010
0000
0000
0000
0010
0000
0100
0000
0000
0000
0100
0000
,
0001
0000
0000
0000
0001
0000
1000
0000
0000
0000
1000
0000
,
0100
0000
0000
0000
0010
0000
0001
0000
0000
0000
1000
0000
,
0010
0000
0000
0000
0100
0000
0001
0000
0000
0000
1000
0000
,
0001
0101
0001
1001
,
0001
0010
1000
0010
,
0100
1100
1000
1001
,
1000
0010
0001
0010
,
0100
0101
0100
0101
,
0010
1010
0010
1010
,
0100
0000
1001
0000
0100
0000
1001
1000
,
0000
0010
0000
0100
0000
0001
0000
0000
,
1000
0100
0010
0001
0010
0100
1000
0001
,
1000
0000
0000
0000
0000
0000
0001
0100
,
0010
0010
0100
0100
,
0001
0010
1000
0010
,
0100
0100
1000
1000
,
0001
0100
0010
1001
,
1000
0000
0100
0000
0010
0000
0100
1000
,
0001
0000
0100
0000
0010
0000
0100
0001
,
1000
0100
0001
0100
,
1000
1010
0001
0011
,
1000
0010
0100
0000
0001
0100
0010
0000
,
1000
0001
0010
0100
,
1000
0100
0010
0000
0001
0010
0100
0000
,
1000
0010
0100
0001
,
1000
0100
0001
0100
,
0010
0000
0100
1000
0001
0000
1001
0000
,
1000
0010
0001
0010
,
0100
0000
0001
1000
0100
0000
1001
0000
,
1000
0100
0001
0010
,
0001
0000
0100
1000
0010
0000
0100
0000
,
0001
0010
1000
0100
,
1000
0000
0010
0001
0100
0000
1001
0000
,
0000
0000
0000
0000
,
0000
0000
0000
0000
,
2010
3100
0012
0103
,
0201
2300
3002
0013
,
0100
0001
0010
0000
0100
1000
0010
0000
,
0100
1001
0010
1001
,
2010
3100
0012
0103
,
1200
0302
2003
3010
,
0001
0100
0010
0000
1000
0010
0100
0000
,
0001
0010
2100
3001
,
1000
0010
0001
0010
,
0100
0001
1000
1001
,
1000
0100
0001
0100
,
0010
0000
0000
0001
0000
0001
1000
0000
0000
1000
0000
1000
,
0001
0100
1000
0100
,
0010
1000
0001
1001
,
1000
0100
0001
0100
,
0010
0000
0010
0100
0000
0000
1000
0000
1000
0001
0000
0000
,
1000
0010
0101
0001
,
1000
0000
0000
0000
0001
0010
0100
0000
,
1001
0000
0000
0000
1000
0010
0100
0010
,
1000
0001
1001
0000
,
0001
0000
0010
0000
0100
1000
0000
0000
,
0001
0000
0100
0000
0010
1000
0001
0000
,
0010
0100
0010
0000
0001
1000
0001
0000
,
0100
0010
1001
0000
,
1000
1100
0001
0101
,
1000
1010
0001
0011
,
0010
1001
0100
1001
,
1000
0100
0010
0001
0010
0100
1000
0000
,
0001
0000
0100
0000
1000
0100
0001
0000
,
1000
0100
0010
1001
,
0001
0000
0010
0000
1000
0010
0001
0000
,
0100
0010
1000
1001
,
1000
0100
0001
0100
,
1000
0000
0001
0000
1000
0000
0010
0010
,
1000
0000
0100
0000
0010
0001
0100
0000
,
0010
1000
0001
1001
,
0001
0000
0000
0001
0000
0000
0001
0000
0000
0000
0100
0000
0010
0000
0000
0000
,
1000
0000
0000
1000
0000
0000
1000
0000
0000
0000
0100
0000
0010
0000
0000
0000
,
0001
0000
0000
0001
0000
0000
0001
0000
0000
0000
0100
0000
0010
0000
1000
0000
,
0001
0010
0100
1000
0100
0010
0001
0000
,
1000
0010
0001
0010
,
0100
0001
1000
1000
,
0001
0010
1000
0010
,
0100
1000
0001
0001
,
0100
1000
0100
0010
,
1000
0100
0001
0100
,
0010
0001
0100
0010
,
1000
0001
1001
0000
,
0220
0000
0000
0000
,
0000
0000
0000
0000
,
0000
0330
0000
0000
,
0000
0000
0000
0000
,
0000
0000
0000
0000
,
0000
0000
0000
0000
,
0000
0000
0000
0000
,
1000
0000
0100
0010
0100
0010
0001
0000
,
0100
0010
0100
0010
2000
0000
3000
0000
;

//---------------dance-single - ----------------
#NOTES:
     dance-single:
     :
     Beginner:
     5:
     0.294606,0.360236,0.029996,0.037495,0.000000,275.000000,271.000000,4.000000,5.000000,0.000000,0.000000,0.294606,0.360236,0.029996,0.037495,0.000000,275.000000,271.000000,4.000000,5.000000,0.000000,0.000000:
// measure 0
0000
0000
0000
0000
,  // measure 1
0000
0000
0000
0000
,  // measure 2
0001
0000
0100
0000
,  // measure 3
0010
0010
0010
0000
,  // measure 4
1000
1000
1000
0000
,  // measure 5
0001
0001
0001
0000
,  // measure 6
0010
0000
0100
0000
,  // measure 7
1000
1000
1000
0000
,  // measure 8
0010
0010
0010
0000
,  // measure 9
0100
0100
0100
0100
,  // measure 10
0100
0000
0001
0000
,  // measure 11
1000
0000
1000
0000
,  // measure 12
0100
0000
0100
0000
,  // measure 13
0010
0000
0010
0000
,  // measure 14
0001
0000
0100
0000
,  // measure 15
1000
0000
0100
0000
,  // measure 16
0010
0000
1000
0000
,  // measure 17
0001
0000
0100
0000
,  // measure 18
0001
0000
0010
0000
,  // measure 19
0100
0100
0100
0100
,  // measure 20
0100
0000
0010
0000
,  // measure 21
0001
0001
0001
0001
,  // measure 22
0001
0000
0100
0000
,  // measure 23
0010
0010
0010
0000
,  // measure 24
1000
0000
0100
0000
,  // measure 25
0010
0010
0010
0010
,  // measure 26
0010
0000
0001
0000
,  // measure 27
1001
0000
0000
1000
,  // measure 28
1000
0000
0010
0000
,  // measure 29
0100
0100
0100
0100
,  // measure 30
0100
0000
0001
0001
,  // measure 31
0001
0000
1000
1000
,  // measure 32
1000
1000
1000
0000
,  // measure 33
0100
0100
0100
0000
,  // measure 34
0010
0010
0010
0000
,  // measure 35
0001
0001
0001
0000
,  // measure 36
1000
1000
1000
0000
,  // measure 37
0010
0010
0010
0000
,  // measure 38
0100
0100
0100
0000
,  // measure 39
0001
0001
0001
0000
,  // measure 40
1000
0000
0100
0000
,  // measure 41
0010
0010
0010
0000
,  // measure 42
0100
0000
1000
0000
,  // measure 43
0001
0001
0001
0000
,  // measure 44
0100
0100
0100
0000
,  // measure 45
0010
0010
0010
0000
,  // measure 46
1000
1000
1000
1000
,  // measure 47
1000
1000
1000
0000
,  // measure 48
2002
0000
0000
0000
,  // measure 49
3003
0000
0000
0000
,  // measure 50
1000
0000
0010
0000
,  // measure 51
0100
0100
0100
0000
,  // measure 52
0001
0001
0001
0001
,  // measure 53
0001
0001
0001
0000
,  // measure 54
0010
0000
0100
0000
,  // measure 55
1000
1000
1000
0000
,  // measure 56
0010
0010
0010
0010
,  // measure 57
0010
0010
0010
0000
,  // measure 58
0100
0000
0001
0000
,  // measure 59
1000
1000
1000
0000
,  // measure 60
0100
0100
0100
0000
,  // measure 61
0010
0010
0010
0000
,  // measure 62
0001
0000
1000
0000
,  // measure 63
0010
0010
0010
0000
,  // measure 64
0100
0100
0100
0000
,  // measure 65
0001
0001
0001
0000
,  // measure 66
1000
0000
0100
0100
,  // measure 67
0100
0000
0010
0010
,  // measure 68
0010
0000
0100
0100
,  // measure 69
0100
0100
0100
0000
,  // measure 70
1000
1000
1000
0000
,  // measure 71
0001
0001
0001
0001
,  // measure 72
0000
0100
0000
0010
,  // measure 73
0010
0000
0100
0000
,  // measure 74
0001
0001
0000
0010
,  // measure 75
0000
0100
0000
1000
,  // measure 76
1000
1000
0000
0010
,  // measure 77
0010
0010
0010
0010
,  // measure 78
0010
0000
0100
0000
,  // measure 79
0001
0001
0001
0000
,  // measure 80
1000
0000
0100
0000
,  // measure 81
0010
0010
0010
0000
,  // measure 82
0100
0000
1000
0000
,  // measure 83
0001
0001
0001
0001
,  // measure 84
0001
0000
0100
0000
,  // measure 85
0010
0010
0010
0010
,  // measure 86
0010
0000
1000
1000
,  // measure 87
1000
0000
0100
0100
,  // measure 88
0100
0000
0010
0010
,  // measure 89
0010
0010
0010
0010
,  // measure 90
0010
0000
0001
0000
,  // measure 91
0100
0000
0010
0010
,  // measure 92
0010
0000
1000
0000
,  // measure 93
0001
0000
0100
0100
,  // measure 94
0100
0000
0001
0001
,  // measure 95
0001
0000
1000
1000
,  // measure 96
1000
0000
0010
0010
,  // measure 97
0010
0000
1001
0000
,  // measure 98
2002
0000
0000
0000
,  // measure 99
0000
0000
0000
0000
,  // measure 100
0000
3003
0000
0000
,  // measure 101
0000
0000
0000
0000
,  // measure 102
0000
0000
0000
0000
,  // measure 103
0000
0000
0000
0000
,  // measure 104
0000
0000
0000
0000
,  // measure 105
1000
1000
1000
1000
,  // measure 106
1000
1000
2000
3000
;
