#TITLE:Got hive of Ra;
#SUBTITLE:;
#ARTIST:E.G.G.;
#TITLETRANSLIT:;
#SUBTITLETRANSLIT:;
#ARTISTTRANSLIT:;
#GENRE:;
#CREDIT:;
#BANNER:Got hive of Ra banner.png;
#BACKGROUND:Got hive of Ra bg.png;
#LYRICSPATH:;
#CDTITLE:;
#MUSIC:Got hive of Ra.ogg;
#OFFSET:-0.025000;
#SAMPLESTART:8.988224;
#SAMPLELENGTH:16.119402;
#SELECTABLE:YES;
#BPMS:0.000000=268.000000
,250.000000=536.000000
,251.000000=268.000000
,261.000000=335.000000
,291.000000=268.000000
,419.000000=335.000000
,429.000000=268.000000
,525.000000=335.000000
,530.000000=268.000000
,532.000000=335.000000
,537.000000=268.000000
,539.000000=335.000000
,544.000000=268.000000
;
#STOPS:
;
#BGCHANGES:;
#KEYSOUNDS:;
#ATTACKS:;

//---------------dance-single - XO DS- JA- RH BU- JU+----------------
#NOTES:
     dance-single:
     :
     Challenge:
     18:
     0.876828,1.064048,0.383124,0.226747,0.046913,785.000000,736.000000,49.000000,29.000000,0.000000,0.000000,0.876828,1.064048,0.383124,0.226747,0.046913,785.000000,736.000000,49.000000,29.000000,0.000000,0.000000:
// measure 0
0000
0000
0000
0000
,  // measure 1
0000
0000
0000
0000
,  // measure 2
0000
0000
0000
0000
,  // measure 3
0000
0000
0000
0000
,  // measure 4
0000
0000
0000
0000
,  // measure 5
0000
0000
0000
0000
,  // measure 6
0000
0000
0000
0000
,  // measure 7
0000
0000
0000
0000
,  // measure 8
0000
0000
0000
0000
,  // measure 9
0000
0000
0000
0000
,  // measure 10
1002
0000
0000
0103
0010
0100
0001
0100
,  // measure 11
0010
1000
0100
0010
0000
0100
1000
0100
,  // measure 12
0010
0100
1000
0100
0020
0000
0130
0000
,  // measure 13
0120
0000
0000
0031
0010
0100
1000
0100
,  // measure 14
0010
0001
0100
0010
0000
0100
0001
0100
,  // measure 15
0010
0100
0001
0100
0020
0000
0130
0000
,  // measure 16
0110
0000
0001
0000
0001
0100
0001
0001
,  // measure 17
0000
0010
0000
0001
0000
1000
0001
1000
,  // measure 18
0010
0000
1000
0000
0100
0010
0001
0000
,  // measure 19
0001
1000
0001
0000
0010
0000
0100
1000
,  // measure 20
0000
0100
0000
0100
1000
0001
0000
0010
,  // measure 21
0000
0020
0000
0130
0001
0000
0001
0000
,  // measure 22
0200
0000
0000
1300
0001
0100
0010
0100
,  // measure 23
0001
0010
0100
0010
0000
0100
1000
0100
,  // measure 24
0010
0001
1000
0100
0020
0000
0130
0000
,  // measure 25
1001
0000
0000
0001
1000
0100
0010
0100
,  // measure 26
1000
0010
0100
0010
0000
0100
0001
0100
,  // measure 27
0010
1000
0001
0100
0020
0000
0230
0000
,  // measure 28
0301
1000
0010
1000
,  // measure 29
0001
0001
0000
0010
0000
0001
0010
0000
,  // measure 30
0010
1000
0000
0001
0000
0100
0020
0000
,  // measure 31
0031
0000
0100
0000
0010
0000
0001
1000
,  // measure 32
0000
0100
0010
0000
0100
1000
0100
0010
,  // measure 33
0000
1000
0000
0001
0010
1000
0010
0000
,  // measure 34
0220
0000
0000
0000
,  // measure 35
0000
0000
0330
0000
1000
0010
0100
0001
,  // measure 36
1000
0000
1001
0000
1000
0100
1000
0010
,  // measure 37
1000
0001
0010
0001
0100
0000
0001
0010
,  // measure 38
0001
1000
0100
0000
0010
0100
0000
1000
,  // measure 39
0001
1000
0010
0000
0010
0100
0001
0100
,  // measure 40
0010
0100
0001
1000
0100
1000
0010
1000
,  // measure 41
0100
0010
0100
0000
0010
1000
0010
0100
,  // measure 42
0000
0100
1000
0000
0010
0000
1000
0100
,  // measure 43
0000
1000
0001
0100
0010
1000
0001
1000
,  // measure 44
0100
0000
0010
0001
0100
0010
0000
1000
,  // measure 45
0000
1000
0000
0001
0010
0001
0010
0001
,  // measure 46
1000
0100
1000
0100
0010
1000
0010
0100
,  // measure 47
1000
0010
1000
0001
1000
0001
0100
0000
,  // measure 48
0010
1000
0100
0010
0001
0000
0100
0010
,  // measure 49
0000
1000
0010
0100
0010
0000
0010
1000
,  // measure 50
0001
1000
0010
0100
0001
1000
0100
1000
,  // measure 51
0010
1000
0100
0010
0001
0000
0100
1000
,  // measure 52
0100
0010
0000
1000
0010
0000
1000
0000
,  // measure 53
0010
0100
0001
0010
0100
1000
0001
0100
,  // measure 54
0001
1000
0100
0000
0010
0100
1000
0001
,  // measure 55
0000
0100
0000
0001
0000
1000
0010
0100
,  // measure 56
0010
1000
0001
0100
0010
1000
0100
0000
,  // measure 57
1100
0000
1000
0100
0000
0110
0000
1001
,  // measure 58
0000
0011
0000
0110
0000
1001
0000
0101
,  // measure 59
0000
0001
0100
0000
0110
0000
1001
0000
,  // measure 60
1010
0110
1001
0110
,  // measure 61
0010
0100
0000
1001
0000
0011
0000
0110
,  // measure 62
0000
1010
0000
0110
0000
0000
0100
0010
,  // measure 63
0100
0010
0000
0010
0000
0010
0001
0100
,  // measure 64
0001
0000
0100
0000
0010
0000
0100
0000
0010
0000
0000
0000
1000
0001
1000
0000
,  // measure 65
0001
1001
1000
0100
,  // measure 66
0001
1000
0010
0001
,  // measure 67
0100
0101
0001
1001
,  // measure 68
0001
0100
1000
0001
,  // measure 69
0010
1000
0100
1100
,  // measure 70
1000
1001
0001
1000
,  // measure 71
0100
1000
0010
0001
,  // measure 72
1000
0000
1100
0000
0100
0000
0010
1000
,  // measure 73
0000
0000
0001
0000
0010
0001
0010
0000
0100
1000
0100
0000
0010
0000
0100
0000
,  // measure 74
0100
0000
0010
0000
0001
0000
1000
0000
0001
0000
0100
0000
0001
1000
0001
0000
,  // measure 75
1000
2000
0100
0010
,  // measure 76
3200
0000
0302
0000
0203
0000
1300
0010
,  // measure 77
0100
0000
0001
0100
0010
0100
0010
0000
,  // measure 78
2000
0000
0000
3200
1000
0000
0000
1300
,  // measure 79
0000
0010
0010
0000
1000
0001
0100
0000
,  // measure 80
0010
0000
1000
0001
0100
0000
2001
0000
,  // measure 81
0010
0000
3010
0200
0010
0000
0302
0000
,  // measure 82
1003
0100
0010
0001
0000
0001
1000
0100
,  // measure 83
0010
0100
0010
0001
1000
0000
0001
0010
,  // measure 84
0100
0001
0100
0010
0001
0000
0010
0001
,  // measure 85
0100
0010
1000
0001
0010
0001
0100
1000
,  // measure 86
0100
0000
0110
0000
1000
0000
1000
0100
,  // measure 87
1000
1000
0000
0010
0000
1000
0000
0001
,  // measure 88
1000
0001
0010
0000
0001
0000
0100
0010
,  // measure 89
1000
0000
1000
0001
1000
0000
0010
0000
,  // measure 90
0100
0001
0000
0100
0000
0100
0001
1000
,  // measure 91
0000
0010
0000
0020
0000
0130
1000
0000
,  // measure 92
1000
0000
0200
0000
0000
0301
1000
0100
,  // measure 93
0010
0100
1000
0010
0100
0010
0000
0100
,  // measure 94
0001
0100
0010
1000
0001
0100
0020
0000
,  // measure 95
0130
0000
1001
0000
0000
1000
0001
0100
,  // measure 96
0010
0100
0001
0010
0100
0010
0000
0100
,  // measure 97
1000
0100
0010
0001
1000
0100
0020
0000
,  // measure 98
0230
1300
0001
0010
,  // measure 99
0001
0000
1000
1000
0000
0010
0000
1000
,  // measure 100
0010
0000
0010
0001
0000
1000
0000
0100
,  // measure 101
0020
1030
0100
0010
,  // measure 102
1000
0001
0000
0100
0010
0000
0100
0001
,  // measure 103
0100
0010
0000
0001
0000
1000
0010
0001
,  // measure 104
0010
0000
0100
0010
1000
0000
0110
0000
,  // measure 105
0100
0001
0010
0100
,  // measure 106
1000
0000
0000
0010
0000
0000
0110
0000
0000
0000
0000
0010
,  // measure 107
0000
0000
0100
0000
0000
0000
0001
0000
0000
0000
0000
0000
0001
0000
0000
0100
0000
0000
0001
0000
0000
0010
0000
0000
,  // measure 108
0001
1000
0010
1000
0100
0000
1000
0010
,  // measure 109
1000
0001
0100
0000
0010
0100
0000
0001
,  // measure 110
1000
0001
0010
0000
0010
0100
1000
0100
,  // measure 111
0010
0100
1000
0001
0100
0001
0010
0001
,  // measure 112
0100
0010
0100
0000
0010
0001
0010
0100
,  // measure 113
0000
0100
0001
0000
0010
0000
0001
0100
,  // measure 114
0000
0001
1000
0100
0010
0001
1000
0001
,  // measure 115
0100
0000
0010
1000
0100
0010
0000
0001
,  // measure 116
0000
0001
0000
1000
0010
1000
0010
1000
,  // measure 117
0001
0100
0001
0100
0010
0001
0010
0100
,  // measure 118
0001
0010
0001
1000
0001
1000
0100
0000
,  // measure 119
0010
0001
0100
0010
1000
0000
0100
0010
,  // measure 120
0000
0001
0010
0100
0010
0000
0010
0001
,  // measure 121
1000
0001
0010
0100
1000
0001
0100
0001
,  // measure 122
0010
0001
0100
0010
1000
0000
0100
0001
,  // measure 123
0100
0010
0000
0001
0010
0000
0001
0000
,  // measure 124
0010
0100
1000
0010
0100
0001
1000
0100
,  // measure 125
1000
0001
0100
0000
0010
0100
0001
1000
,  // measure 126
0000
0100
0000
1000
0000
0001
0010
0100
,  // measure 127
0010
0001
1000
0100
0010
0001
0100
0000
,  // measure 128
0101
0000
0001
0100
0000
0110
0000
1001
,  // measure 129
0000
1010
0000
0110
0000
1001
0000
1000
,  // measure 130
0100
0110
1001
0011
,  // measure 131
0110
1001
0000
1000
,  // measure 132
0010
0000
0000
0001
0000
0000
1000
0000
0100
0000
0001
0000
,  // measure 133
1001
0000
0001
0010
,  // measure 134
1000
0000
0000
0001
0000
0100
0000
1000
0000
1001
0000
0000
,  // measure 135
0000
1000
0100
0001
,  // measure 136
1000
0000
0000
0000
0010
0000
0000
0000
0001
0000
0000
0000
0100
0000
0000
1000
0000
0000
0000
0000
0000
0100
0000
0000
,  // measure 137
0000
0010
0100
0010
0100
1000
0001
0010
,  // measure 138
1000
0001
2002
0000
,  // measure 139
0000
0000
0000
0000
,  // measure 140
0000
0000
0000
0000
,  // measure 141
0000
0000
0000
0000
,  // measure 142
0000
0000
0000
0000
,  // measure 143
0000
3003
0000
0000
;

//---------------dance-single - XO JA- RH JU-----------------
#NOTES:
     dance-single:
     :
     Hard:
     16:
     0.745025,0.840038,0.109464,0.258022,0.027366,667.000000,653.000000,14.000000,33.000000,0.000000,0.000000,0.745025,0.840038,0.109464,0.258022,0.027366,667.000000,653.000000,14.000000,33.000000,0.000000,0.000000:
0000
0000
0000
0000
,
0000
0000
0000
0000
,
0000
0000
0000
0000
,
0000
0000
0000
0000
,
0000
0000
0000
0000
,
0000
0000
0000
0000
,
0000
0000
0000
0000
,
0000
0000
0000
0000
,
0000
0000
0000
0000
,
0000
0000
0000
0000
,
1002
0000
0000
0103
0010
0100
0010
0000
,
1000
0010
2000
0000
0000
3100
0010
0100
,
0010
0000
0001
0100
0010
0000
0100
0000
,
0002
0000
0000
0013
0100
0010
0100
0000
,
1000
0100
2000
0000
0000
3010
0100
0010
,
0100
0000
0001
0010
0100
0000
0010
0000
,
0001
0000
0100
0000
0001
0000
1000
0001
,
0000
0010
0000
0001
0000
1000
0100
0010
,
0001
0000
1000
0000
0010
1000
0010
0000
,
1000
0100
1000
0000
0001
0000
0100
1000
,
0000
0100
0000
0001
0010
1000
0010
0100
,
0000
2000
0000
0000
3001
1000
0010
0000
,
1002
0000
0000
1003
0010
1000
0010
0000
,
0100
0001
2000
0000
0000
3100
0010
0001
,
0010
0000
0001
0010
0200
0000
2300
0000
,
3002
0000
0000
1003
0100
1000
0100
0000
,
0010
0001
2000
0000
0000
3010
0100
0001
,
0100
0000
0001
0100
0020
0000
0230
0000
,
1300
0100
0001
1000
,
0001
0100
0000
0010
0000
1000
0010
0000
,
1000
0001
0000
0010
0000
0100
0010
0000
,
0010
0000
0001
0000
0010
0000
0001
1000
,
0000
0100
0001
0000
0100
0010
0100
0010
,
0000
0002
0000
0000
0013
0001
0100
0000
,
0220
0000
0000
0000
,
0000
0030
1000
1300
,
0100
0000
0110
0000
1000
0100
0010
0001
,
1000
0000
1000
0001
0100
0000
0010
1000
,
0001
0000
1000
0000
0100
0010
0000
0001
,
0010
0100
0010
0000
0001
0100
0010
0000
,
1000
0100
0010
0000
0001
1000
0001
0000
,
0100
0010
0100
0000
0100
1000
0100
0001
,
0000
1000
0001
0000
0010
0000
0100
1000
,
0000
0010
1000
0001
0010
0000
0001
1000
,
0100
0000
0010
0100
1000
0001
0000
0100
,
0000
0010
0000
1000
0001
1000
0010
0000
,
1000
0010
0100
0000
0010
0001
0000
0010
,
0100
0001
1000
0000
1000
0001
0010
0000
,
0100
1000
0001
0000
1000
0000
0010
0100
,
0000
0001
0100
0010
0100
0000
0001
0010
,
0100
0000
1000
0010
0100
0000
0001
1000
,
0001
0000
0010
0100
0010
0000
0010
1000
,
0010
0001
0000
1000
0001
0000
0100
0000
,
0010
1000
0000
0100
1000
0001
0100
0000
,
0001
1000
0010
0000
0100
0010
1000
0001
,
0000
0010
0000
0100
0000
1000
0001
1000
,
0100
0000
1000
0010
0100
0001
1000
0000
,
1001
0000
1000
0001
0000
0010
0000
0100
,
0000
1000
0000
0010
0000
0100
0000
0110
,
0000
0100
0001
0000
0010
0000
0100
0000
,
1000
0010
0100
0110
,
0010
1000
0000
0100
0000
0010
0000
0001
,
0000
0100
0000
0010
0000
0000
1000
0001
,
1000
0001
0000
0001
0000
0001
0010
0001
,
0100
0010
1010
0001
,
0011
1000
0001
1000
,
0100
0010
0100
0001
,
0100
1000
0001
0001
,
1000
0001
0100
0010
,
0100
1000
0100
0001
,
1000
1000
0001
1000
,
0010
0100
0010
0001
,
0010
0000
1000
0000
0001
0000
0100
0010
,
0000
0010
0100
0001
0100
0001
0010
0100
,
1000
0001
0100
0001
1000
0000
1000
0000
,
1001
0000
0002
0000
0000
1000
0000
0000
,
1003
0000
0010
0000
1000
0000
0100
0010
,
0100
0000
0010
0000
0001
0100
0010
0000
,
2000
0000
0000
0001
0000
0000
0000
3001
,
0000
0010
0001
0000
0000
0001
0100
0000
,
0010
1000
0001
0002
,
0000
1000
0000
2003
0000
0000
3100
0000
,
1000
0000
0010
0100
0010
0100
0000
0001
,
0010
0100
1000
0000
2000
0000
0001
0000
,
0000
0001
0000
0000
3001
0000
0010
0100
,
0000
0010
0100
0000
0010
0001
1000
0000
,
0001
1000
0100
1000
,
0001
1000
0000
0010
0000
1000
0000
0001
,
0100
0010
1000
0000
0001
0000
0010
0001
,
0010
0000
0001
0100
0001
0000
1000
0000
,
0100
0001
0000
0100
0000
1000
0010
0001
,
0010
0100
0000
0002
0000
0000
1003
0001
,
0010
0000
2001
0000
0000
3001
0010
0001
,
0010
0000
0100
1000
0002
0000
0000
0103
,
0010
1000
0010
0000
1000
0010
0200
0000
,
0302
0000
2003
0000
0000
3001
0100
0001
,
0100
0000
0010
1000
0002
0000
0000
0013
,
0100
1000
0100
0000
1000
0100
0020
0000
,
0230
0301
0100
1000
,
0001
0000
1000
0100
0000
0010
0000
0001
,
0010
0000
0001
1000
0000
0010
0000
0100
,
0010
0010
1000
0010
,
1000
0001
0000
0100
1000
0000
0100
0010
,
0100
0010
0000
2000
0000
0000
3010
1000
,
0100
0000
0010
1000
0010
0000
0001
0000
,
1000
0001
0010
0100
,
0010
0000
0000
1000
0000
0000
0010
0000
0000
0000
0000
0001
,
0000
0000
0100
0000
0001
0100
0010
1000
,
0001
0000
0001
1000
0100
0000
0010
0001
,
1000
0000
0001
0000
0100
0010
0000
1000
,
0010
0100
0010
0000
1000
0100
0010
0000
,
0001
0100
0010
0000
1000
0001
1000
0000
,
0100
0010
0100
0000
0100
0001
0100
1000
,
0000
0001
1000
0000
0010
0000
0100
0001
,
0000
0010
0001
1000
0010
0000
1000
0001
,
0100
0000
0010
0100
0001
1000
0000
0100
,
0000
0010
0000
0001
1000
0001
0010
0000
,
0001
0010
0100
0000
0010
1000
0000
0010
,
0100
1000
0001
0000
0001
1000
0010
0000
,
0100
0001
1000
0000
0001
0000
0010
0100
,
0000
1000
0100
0010
0100
0000
1000
0010
,
0100
0000
0001
0010
0100
0000
1000
0001
,
1000
0000
0010
0100
0010
0000
0010
0001
,
0010
1000
0000
0001
1000
0000
0100
0000
,
0010
0001
0000
0100
0001
1000
0100
0000
,
1000
0001
0010
0000
0100
0010
0001
1000
,
0000
0010
0000
0100
0000
0001
1000
0001
,
0100
0000
0001
0010
0100
1000
0001
0000
,
1001
0000
0001
1000
0000
0010
0000
0100
,
0000
0001
0000
0010
0000
0110
0000
0100
,
1000
0010
0100
0001
,
0010
0001
0000
0010
,
0100
0000
0000
1000
0000
0000
0001
0000
0010
0000
0001
0000
,
1000
0000
0010
0100
,
0001
0000
0000
1000
0000
0010
0000
1000
0000
0001
0000
0000
,
0000
0010
1000
0010
,
0001
0000
0000
0000
1000
0000
0000
0000
0010
0000
0000
0000
0001
0000
0000
0010
0000
0000
0000
0000
0000
0010
0000
0000
,
0000
0010
0000
0010
0100
0010
0100
0010
,
1000
0001
2002
0000
,
0000
0000
0000
0000
,
0000
0000
0000
0000
,
0000
0000
0000
0000
,
0000
0000
0000
0000
,
0000
3003
0000
0000
;

//---------------dance-single - ----------------
#NOTES:
     dance-single:
     :
     Beginner:
     8:
     0.360784,0.672030,0.367486,0.164196,0.000000,323.000000,276.000000,47.000000,21.000000,0.000000,0.000000,0.360784,0.672030,0.367486,0.164196,0.000000,323.000000,276.000000,47.000000,21.000000,0.000000,0.000000:
0000
0000
0000
0000
,
0000
0000
0000
0000
,
0000
0000
0000
0000
,
0000
0000
0000
0000
,
0000
0000
0000
0000
,
0000
0000
0000
0000
,
0000
0000
0000
0000
,
0000
0000
0000
0000
,
0000
0000
0000
0000
,
0000
0000
0000
0000
,
2000
0000
0000
0000
,
0000
0000
0000
0000
,
0000
0000
0000
3000
,
0002
0000
0000
0000
,
0000
0000
0000
0000
,
0000
0000
0000
0003
,
1000
1000
1000
0000
,
0000
0000
0000
0001
0000
0001
0000
0001
,
0000
0000
0000
0000
,
1000
1000
1000
0000
,
0000
0001
0000
0001
0000
0000
0000
0001
,
0000
0001
0000
0000
0010
0000
0010
0000
,
0020
0000
0000
0000
,
0030
0000
0000
0002
0000
0000
0000
0000
,
0000
0000
0003
2000
,
0000
0000
0000
0000
,
0000
0000
0000
0000
,
0000
0000
0000
3000
,
0001
0001
0001
0000
,
0000
0000
0000
1000
0000
1000
0000
1000
,
0000
0000
0000
0000
,
0001
0001
0001
0000
,
0000
1000
1000
1000
,
1000
0000
0010
0010
,
0220
0000
0000
0000
,
0000
0000
0000
0000
,
0000
0330
0010
0010
,
0010
0010
0000
0100
,
0100
0100
0100
0000
,
0100
0000
0001
0001
,
0001
0000
0001
0000
,
0001
0000
0000
0000
1000
0000
0000
1000
,
0000
1000
1000
0000
,
0001
0001
0001
0001
,
0000
0000
0010
0000
0010
0000
0000
0010
,
0000
0000
0100
0100
,
0100
0100
0100
0010
,
0010
0010
0010
0000
,
0100
0100
0100
0100
,
0000
0100
0000
0000
0000
0000
1000
0000
,
1000
1000
1000
1000
,
1000
1000
0000
0001
,
0000
0001
0000
0000
0001
0000
0001
0000
,
0000
1000
1000
1000
,
1000
0000
0010
0010
,
0000
0010
0000
0000
0000
0000
0100
0000
,
0100
0100
0100
0000
,
1001
0000
0000
1001
0000
0000
0000
1001
,
0000
0000
0000
1001
0000
0000
0000
0110
,
0000
0110
0000
0110
,
0000
0110
0000
1001
,
0000
1001
0000
0000
0000
1001
0000
0000
,
0000
1001
0000
0000
0000
0000
1000
0000
,
1000
0000
0000
0001
0000
0001
0000
0000
,
0000
0100
0010
0100
,
0010
0110
0000
0110
,
0000
0110
0000
0110
,
0000
0000
0000
1001
,
0000
1001
0000
1001
,
0000
1001
0000
0000
,
0000
0110
0000
0110
,
0000
0110
0000
0110
,
0000
0000
0000
1000
,
0000
0001
0000
0010
,
0000
0100
0000
1000
,
0000
0020
0000
0030
,
0010
0000
2000
0000
,
3000
1000
1000
0000
,
0002
0000
0000
0000
0003
0000
0000
0001
,
0000
0020
0000
0030
,
0010
0010
0000
0020
,
0030
0000
0000
0010
0000
0000
0000
0000
,
0002
0000
0000
0003
,
0001
0000
1000
2000
,
0000
3000
0000
0020
,
0000
0030
0010
0010
,
0000
1000
1000
1000
,
0000
0000
0000
0000
0000
0010
0000
0010
,
0000
0010
0000
0000
0000
0000
0000
0000
,
0000
1000
1000
1000
,
0000
0000
0000
0001
0000
0001
0000
0000
,
0000
0001
0000
0001
0000
0000
0010
0000
,
0010
0020
0000
0000
,
0000
0000
0030
0000
0000
2000
0000
0000
,
0000
0000
0000
3000
,
0001
0002
0000
0000
,
0000
0003
0200
0000
,
0000
0000
0000
0000
,
0300
1000
1000
1000
,
0000
0000
0000
0000
0000
0001
0000
0001
,
0000
0001
0000
0000
0000
0000
0000
0000
,
0000
1000
1000
1000
,
0000
0000
0001
0001
,
0001
0001
0000
0010
,
0010
0100
0000
1001
,
0000
0110
0000
1001
,
0000
0110
0000
0000
,
0000
0000
0001
0001
,
0001
0001
0000
1000
,
1000
1000
1000
0000
,
1000
0000
0100
0100
,
0100
0000
0100
0000
,
0100
0000
0000
0000
0010
0000
0000
0010
,
0000
0010
0010
0000
,
0100
0100
0100
0100
,
0000
0000
1000
0000
1000
0000
0000
1000
,
0000
0000
0001
0001
,
0001
0001
0001
1000
,
1000
1000
1000
0000
,
0001
0001
0001
0001
,
0000
0001
0000
0000
0000
0000
0010
0000
,
0010
0010
0010
0010
,
0010
0010
0000
0100
,
0000
0100
0000
0000
0100
0000
0100
0000
,
0000
0010
0010
0010
,
0010
0000
0001
0001
,
0000
0001
0000
0000
0000
0000
1000
0000
,
1000
1000
1000
0000
,
0110
0000
0000
0110
0000
0000
0000
0110
,
0000
0000
0000
1001
0000
1001
0000
0000
,
1001
0000
1001
0000
,
1001
1001
0000
1001
,
0000
0000
1001
0000
,
0110
0000
0110
0000
,
0000
0110
0000
1001
,
0000
1001
0000
0000
,
1001
0000
0001
0000
,
1000
0000
0010
0000
,
0100
0000
2002
0000
,
0000
0000
0000
0000
,
0000
0000
0000
0000
,
0000
0000
0000
0000
,
0000
0000
0000
0000
,
0000
3003
0000
0000
;

//---------------dance-single - XO- JA- RH JU-----------------
#NOTES:
     dance-single:
     :
     Medium:
     13:
     0.551788,0.616028,0.054732,0.187652,0.003909,494.000000,487.000000,7.000000,24.000000,0.000000,0.000000,0.551788,0.616028,0.054732,0.187652,0.003909,494.000000,487.000000,7.000000,24.000000,0.000000,0.000000:
0000
0000
0000
0000
,
0000
0000
0000
0000
,
0000
0000
0000
0000
,
0000
0000
0000
0000
,
0000
0000
0000
0000
,
0000
0000
0000
0000
,
0000
0000
0000
0000
,
0000
0000
0000
0000
,
0000
0000
0000
0000
,
0000
0000
0000
0000
,
1001
0000
0000
1000
0100
0000
0010
0000
,
0001
0000
1000
0000
0000
0001
0100
0000
,
0010
1000
0010
0100
,
0001
0000
0000
0001
0010
0000
0100
0000
,
1000
0000
0001
0000
0000
1000
0010
0000
,
0100
0001
0100
0010
,
1000
0000
1000
0000
1000
0000
1000
0001
,
0000
0010
0000
0001
0000
0001
0010
0001
,
0010
0000
0001
0000
0000
0010
0001
0000
,
1000
0010
1000
0000
0010
0000
1000
0000
,
0000
1000
0000
1000
0001
0000
0000
0010
,
0000
0010
0000
0000
0001
0000
0011
0000
,
2000
0000
0000
3100
0010
0000
0010
0000
,
0001
0000
0002
0000
0000
0103
0010
0000
,
0010
1000
0010
0100
,
0002
0000
0000
0103
0010
0000
0010
0000
,
1000
0000
2000
0000
0000
3100
0010
0000
,
0010
0001
0010
0100
,
1000
0001
0010
0001
,
0001
0000
0000
1000
0000
0000
1000
0000
,
0000
0010
0000
1000
0000
0001
0010
0000
,
0001
0000
0100
0000
0001
0000
1000
0001
,
0000
1000
0000
0000
0100
1000
0000
0001
,
0000
0010
0000
0000
0001
0000
1000
0000
,
2002
0000
0000
0000
,
0000
3003
1000
0001
,
1000
0001
1000
0100
,
0010
0001
0100
0010
,
0100
0000
0001
0000
1000
0000
0000
0001
,
0010
1000
0010
0100
,
0010
0001
0100
0010
,
0100
0000
0001
0000
1000
0000
0000
1000
,
0000
0010
0001
0010
,
1000
0001
0010
0001
,
0100
0000
0010
0000
0000
0100
0000
0010
,
0000
1000
0000
0000
0001
0000
0010
0000
,
0001
0010
0100
1000
,
0010
0100
0001
0010
,
0100
0010
0001
1000
,
0000
0001
0100
0000
1000
0000
0100
0000
,
0010
0100
0001
0010
,
0100
0010
0001
1000
,
0000
1000
0000
0000
0100
0000
0001
0000
,
0100
1000
0001
0100
,
0001
0000
0010
0000
0100
0000
0000
0010
,
0000
0100
0000
1000
0000
0000
0001
0000
,
0100
0001
0100
0010
,
1000
0000
1000
0001
0000
0010
0000
0001
,
0000
1000
0000
0010
0000
1000
0000
1000
,
0000
0001
1000
0000
0010
0000
1000
0000
,
0001
0010
0001
0010
,
0100
0010
0000
0001
0000
0100
0000
0010
,
0000
1000
0000
0001
0000
0000
1000
0000
,
1000
0010
0000
1000
0000
0010
0100
0000
,
0001
0000
0010
0000
0001
0000
0010
0001
,
0010
0001
0100
0001
,
1000
0001
1000
0010
,
0000
1000
0000
1000
,
0100
1000
0001
1000
,
0001
0010
0000
0001
,
0000
0001
0100
0001
,
0010
0001
0010
1000
,
0000
0000
0010
0000
0000
0000
0001
1000
,
0000
1000
0100
0000
0100
0000
0010
0100
,
0000
0010
0100
0000
0100
0000
0100
0000
,
0110
2000
0000
0000
,
3002
0023
0032
1003
,
0100
0010
0001
1000
,
0002
0000
0000
2003
0000
0000
0000
3010
,
0000
1000
0001
0000
0000
0001
0100
0000
,
0010
1000
0100
2000
,
0000
0000
0000
3002
0000
0000
0203
0000
,
0302
1003
0010
0100
,
0001
1000
0001
0002
,
0000
2003
0000
0000
3100
0000
1000
0000
,
0000
0001
0010
0000
0010
0000
0001
0000
,
0100
0001
1000
1000
,
1000
0001
0000
0100
0000
0001
0000
0001
,
0100
0001
0100
0000
0001
0000
0000
0100
,
0001
0000
1000
0100
1000
0000
0100
0000
,
1000
0000
0000
1000
0000
1000
0001
0000
,
0000
0100
0000
0100
0000
0000
0001
0000
,
0101
0000
2000
0000
0000
3010
0100
0000
,
0100
0000
0001
0000
0002
0000
0000
0013
,
0100
0100
1000
0100
,
0010
0000
0002
0000
0000
0013
0100
0000
,
0100
0000
1000
0000
2000
0000
0000
3010
,
0100
0100
0001
0100
,
0010
1000
0001
0100
,
0001
0000
0001
0000
0000
1000
0000
0000
,
1000
0000
0000
0100
0000
1000
0000
0001
,
0100
0001
0010
0001
,
1000
0001
0000
1000
0000
0000
0010
1000
,
0000
0001
0000
0100
0000
0000
0001
0000
,
1001
0000
0001
1000
0001
0000
1000
0000
,
0100
1000
0010
1000
,
0010
0000
0000
0001
0000
0000
0000
0000
0000
0000
0000
0010
,
0000
0100
0001
0100
,
0010
1000
0100
0010
,
0100
0000
1000
0000
0001
0000
0000
1000
,
0010
0001
0010
0100
,
0010
1000
0100
0010
,
0100
0000
1000
0000
0001
0000
0000
0001
,
0000
0010
1000
0010
,
0001
1000
0010
1000
,
0100
0000
0010
0000
0000
0100
0000
0010
,
0000
0001
0000
0000
1000
0000
0010
0000
,
1000
0010
0100
0001
,
0010
0100
1000
0010
,
0100
0010
1000
0001
,
0000
1000
0100
0000
0001
0000
0100
0000
,
0010
0100
1000
0010
,
0100
0010
1000
0001
,
0000
0001
0000
0000
0100
0000
1000
0000
,
0100
0001
1000
0100
,
1000
0000
0010
0000
0100
0000
0000
0010
,
0000
0100
0000
0001
0000
0000
1000
0000
,
0100
1000
0100
0010
,
0001
0000
0001
1000
0000
0010
0000
1000
,
0000
0001
0000
0010
0000
0001
0000
1000
,
0001
0010
0001
1000
,
0010
1000
0000
0000
,
1000
0010
1000
0000
,
0001
0000
0000
0001
,
0010
0001
0000
0010
,
0000
0000
0010
1000
,
0010
0000
0000
0000
0001
0100
0000
0100
,
0000
0100
0000
0000
1000
0000
0100
0000
,
0010
0000
0220
0000
,
0000
0000
0000
0000
,
0000
0000
0000
0000
,
0000
0000
0000
0000
,
0000
0000
0000
0000
,
0000
0330
0000
0000
;

//---------------dance-single - ----------------
#NOTES:
     dance-single:
     :
     Easy:
     11:
     0.466897,0.560025,0.031275,0.156377,0.000000,418.000000,414.000000,4.000000,20.000000,0.000000,0.000000,0.466897,0.560025,0.031275,0.156377,0.000000,418.000000,414.000000,4.000000,20.000000,0.000000,0.000000:
0000
0000
0000
0000
,
0000
0000
0000
0000
,
0000
0000
0000
0000
,
0000
0000
0000
0000
,
0000
0000
0000
0000
,
0000
0000
0000
0000
,
0000
0000
0000
0000
,
0000
0000
0000
0000
,
0000
0000
0000
0000
,
0000
0000
0000
0000
,
0002
0000
1003
0010
,
1000
2000
0000
3001
,
0010
0100
0010
0001
,
0002
0000
1003
0100
,
1000
2000
0000
3001
,
0100
0010
0100
0001
,
1000
0000
0001
0000
1000
0000
0000
0001
,
0000
0010
0000
0001
0000
0000
1000
0000
,
0010
0000
1000
0000
0000
1000
0000
0000
,
1000
0000
0001
0000
0010
0000
0000
0100
,
0000
0010
0000
0000
0010
0000
0000
0001
,
0000
0001
0000
0000
1000
0000
0010
0000
,
2000
0000
3001
0010
,
0001
0002
0000
1003
,
0010
0100
0010
1000
,
2000
0000
3001
0100
,
0001
0002
0000
1003
,
0100
0010
0100
1000
,
0001
1000
0001
0000
,
1000
0000
0000
0010
0000
0000
1000
0000
,
0000
0010
0000
1000
0000
0001
0000
0000
,
0010
0000
0001
0000
0010
0000
0000
0010
,
0000
0010
0000
0000
0001
0000
0000
0010
,
0000
0010
0000
0000
0100
0000
0100
0000
,
0220
0000
0000
0000
,
0000
0000
0000
0000
,
0330
0110
1000
0010
,
0100
0000
0001
1000
,
0100
0000
0010
0000
0000
0001
0000
0000
,
1000
0010
1000
0010
,
0100
0001
1000
0100
,
0010
0000
0001
0000
1000
0000
0000
0001
,
0000
0010
0001
1000
,
0001
0010
0100
1000
,
0001
0000
1000
0000
0100
0000
0000
1000
,
0000
0001
0000
0000
0010
0000
0001
0000
,
0100
0010
1000
0001
,
0010
0100
0000
1000
,
0001
0000
0100
0000
0010
0000
0000
1000
,
0000
0001
0010
0001
,
0010
0100
1000
0001
,
0100
0010
1000
0001
,
0000
1000
0000
0000
0010
0000
1000
0000
,
0001
1000
0010
0100
,
0001
1000
0001
0100
,
0000
0001
0000
1000
0000
0000
0010
0000
,
1000
0100
0010
0001
,
1000
0000
0000
1000
0000
1000
0000
1000
,
0000
1000
0000
1000
0000
1000
0000
0001
,
0000
0001
0001
0001
,
0001
0001
0001
0001
,
0000
0010
0000
0010
0000
0010
0000
0010
,
0000
0010
0000
0010
0000
0000
0001
0000
,
0000
1000
0000
0001
0000
0000
0100
0000
,
0000
0010
0000
2000
,
3000
0001
0010
0001
,
0010
0001
0010
0001
,
0000
0001
0000
1000
,
0010
1000
0010
1000
,
0010
1000
0000
1000
,
0000
0001
0010
0001
,
0010
0001
0010
0001
,
0000
0001
0000
1000
,
0000
0100
0010
0001
,
0000
0001
0000
0000
0000
0000
0100
0000
,
0010
2000
0000
0000
,
0001
0000
3001
0000
,
0010
0100
0010
0000
,
0002
0000
0000
0103
0000
0000
0000
0010
,
0000
1000
0000
0100
,
0010
0001
0100
0002
,
0000
0000
0000
1000
0000
0000
0000
0000
,
1003
0000
0000
0010
0000
0100
0000
0000
,
0100
0010
1000
0100
,
0000
0010
0000
0000
0001
0000
0001
0000
,
0000
0100
0000
0000
0010
0000
1000
0000
,
0001
0001
1000
0001
,
0000
1000
0000
0010
0000
1000
0000
0000
,
0001
0000
0010
0000
0001
0000
0000
0001
,
0000
0001
1000
0010
,
0000
0100
0000
0010
0000
0000
0010
0000
,
0000
1000
0000
1000
0000
0000
0001
0000
,
0010
0002
0000
1003
,
0010
1000
2000
0000
,
3001
0010
0100
0010
,
0001
0002
0000
1003
,
0100
1000
2000
0000
,
3001
0100
0010
0100
,
0001
1000
0001
1000
,
0000
0000
0001
0000
0000
0010
0000
0000
,
0001
0000
0000
0010
0000
0001
0000
1000
,
0000
0010
1000
0010
,
0000
0010
0000
0010
0000
0000
1000
0000
,
0000
0010
0000
0010
0000
0000
0100
0000
,
0100
0010
0110
1000
,
0010
1000
0010
1000
,
0010
1000
0000
0000
,
0000
0000
1000
0100
,
0010
0000
0001
1000
,
0010
0000
0100
0000
0000
0001
0000
0000
,
1000
0100
1000
0100
,
0010
0001
1000
0010
,
0100
0000
0001
0000
1000
0000
0000
0001
,
0000
0100
0001
1000
,
0001
0100
0010
1000
,
0001
0000
1000
0000
0010
0000
0000
1000
,
0000
0001
0000
0000
0100
0000
0001
0000
,
0010
0100
1000
0001
,
0100
0010
0000
1000
,
0001
0000
0010
0000
0100
0000
0000
1000
,
0000
0001
0100
0001
,
0100
0010
1000
0001
,
0010
0100
1000
0001
,
0000
1000
0000
0000
0100
0000
1000
0000
,
0001
1000
0100
0010
,
0001
1000
0001
0010
,
0000
0001
0000
1000
0000
0000
0100
0000
,
1000
0010
0100
0001
,
0010
0000
0000
0010
0000
0010
0000
0010
,
0000
0010
0000
0010
0000
0100
0000
0000
,
0100
0100
0100
0100
,
0100
1000
0000
0000
,
0001
0000
1000
0000
,
0001
0000
0000
1000
,
0000
0001
0000
1000
,
0000
0000
0001
0000
,
1000
0000
0000
0000
0001
0000
0000
0100
,
0000
0010
0000
0000
1000
0000
0100
0000
,
1000
0001
2002
0000
,
0000
0000
0000
0000
,
0000
0000
0000
0000
,
0000
0000
0000
0000
,
0000
0000
0000
0000
,
0000
3003
0000
0000
;
