#TITLE:Gold Dust;
#SUBTITLE:(Fox Stevenson Remix);
#ARTIST:DJ Fresh;
#TITLETRANSLIT:;
#SUBTITLETRANSLIT:;
#ARTISTTRANSLIT:;
#GENRE:;
#CREDIT:;
#BANNER:Gold Dust (Fox Stevenson Remix).png;
#BACKGROUND:Gold Dust (Fox Stevenson Remix)-bg.png;
#LYRICSPATH:;
#CDTITLE:;
#MUSIC:Gold Dust (Fox Stevenson Remix).ogg;
#OFFSET:-0.052524;
#SAMPLESTART:45.581059;
#SAMPLELENGTH:11.034485;
#SELECTABLE:YES;
#BPMS:0.000000=174.000000
;
#STOPS:
;
#BGCHANGES:;
#KEYSOUNDS:;
#ATTACKS:;

//---------------dance-single - ----------------
#NOTES:
     dance-single:
     :
     Hard:
     15:
     0.649383,0.797975,0.327527,0.178651,0.352340,458.000000,425.000000,33.000000,18.000000,0.000000,0.000000,0.649383,0.797975,0.327527,0.178651,0.352340,458.000000,425.000000,33.000000,18.000000,0.000000,0.000000:
// measure 0
0000
0000
0000
0000
,  // measure 1
0000
0000
0000
0000
,  // measure 2
0000
0000
0000
0000
,  // measure 3
0000
0000
0000
0000
,  // measure 4
0000
0000
0000
0000
,  // measure 5
0000
0000
0000
0000
,  // measure 6
0000
0000
0000
0000
,  // measure 7
0000
0000
0000
0000
,  // measure 8
0000
0000
0000
0000
,  // measure 9
1000
0010
1000
0001
,  // measure 10
1000
0100
1000
0100
0010
0001
0010
0010
,  // measure 11
0001
0100
0010
1000
,  // measure 12
0001
0010
0001
0100
0010
1000
0010
0010
,  // measure 13
1000
0010
0001
0010
0100
0001
0010
0100
,  // measure 14
0010
1000
0010
0001
1000
0010
0100
0001
,  // measure 15
0020
0100
0100
0000
0100
0000
0000
0000
,  // measure 16
0001
0000
0000
0000
0031
0000
0000
0000
0001
0010
0001
0010
0100
1000
0001
0000
,  // measure 17
0101
0000
0100
0010
0000
0010
1000
0000
,  // measure 18
0001
0000
0010
0000
0100
0000
0010
0001
1000
0000
0010
0000
0100
0000
0010
0000
,  // measure 19
1000
0000
0100
0010
0000
0010
0001
0000
,  // measure 20
1000
0000
0010
0000
0100
0000
0010
1000
0001
0000
0010
0000
0100
0000
1000
0000
,  // measure 21
0001
0000
0010
1000
0000
1000
0010
0000
,  // measure 22
0001
0000
0100
0000
1000
0000
0100
0010
0100
0000
0001
0000
1000
0000
0010
0000
,  // measure 23
1000
0000
0100
0001
0000
0001
0100
0000
,  // measure 24
1000
0000
0010
0000
0100
0000
0010
1000
0000
1000
0010
0100
0001
0100
0010
0000
,  // measure 25
2010
3010
0000
0120
0130
0000
0201
0301
,  // measure 26
0000
0011
0010
0100
1000
1001
0001
0100
,  // measure 27
0102
0103
0000
0210
0310
0000
1020
1030
,  // measure 28
0000
1010
0010
1000
0100
0110
0010
0001
,  // measure 29
0021
0130
0000
0210
1300
0000
1020
0130
,  // measure 30
0000
0210
0301
0010
0100
0110
0010
0001
,  // measure 31
2001
3010
0100
0102
1003
0100
0012
1003
,  // measure 32
1000
0000
0020
0000
0000
0000
0000
0000
1030
0000
0100
0010
0001
0000
0000
0000
,  // measure 33
1001
0000
1000
0010
0100
0010
1000
0000
,  // measure 34
0001
0010
1000
0010
0001
0100
0010
1000
,  // measure 35
1100
0000
0101
0000
1010
0000
1000
0010
,  // measure 36
1000
0100
0010
1000
0010
0001
0100
0010
,  // measure 37
0110
0000
1001
0000
0001
0010
1000
0000
,  // measure 38
1000
0010
0001
1000
0001
0000
0100
0010
,  // measure 39
1000
1000
0001
0000
0001
0000
1010
0000
,  // measure 40
1000
0000
0001
0000
0010
0000
0100
0010
0000
0010
0001
1000
0001
0010
0100
0000
,  // measure 41
0110
0000
0010
0001
1000
0010
0100
0000
,  // measure 42
0001
0100
1000
0100
0001
0010
0100
0010
,  // measure 43
0011
0000
1010
0000
0101
0000
0001
0100
,  // measure 44
0010
0001
0010
1000
0100
0010
0001
0010
,  // measure 45
0120
0000
0000
0100
0000
0000
0100
0000
,  // measure 46
0000
0100
0000
0000
0100
0000
0000
0100
,  // measure 47
0001
0000
0000
0001
0000
0000
0031
0000
,  // measure 48
0001
0100
1000
0100
0000
0000
0000
0000
,  // measure 49
0001
0000
0010
0100
0010
0000
0001
0000
1000
0010
1000
0000
0001
0000
0100
0010
,  // measure 50
0100
0000
0001
0000
1000
0100
1000
0000
0010
0000
0100
0001
0000
0001
1000
0001
,  // measure 51
1000
0000
0000
1000
0100
0000
0010
0000
0000
0010
0100
0000
0010
0000
0000
0010
,  // measure 52
0001
0000
1000
0000
0010
1000
0000
0000
1010
0000
0000
0010
0100
0000
0001
0000
,  // measure 53
1000
0000
0010
0100
0010
0000
1000
0000
0001
0010
0001
0000
1000
0000
0100
0010
,  // measure 54
0100
0000
1000
0000
0001
0100
0001
0000
0010
0000
0100
0010
0100
0000
0010
0000
,  // measure 55
0001
0000
0000
0001
0100
0000
0010
0000
0100
0010
0000
0000
0010
0000
0000
0010
,  // measure 56
1000
0000
0001
0000
0010
0001
0000
0001
0010
0100
0010
0100
1000
0010
0100
0000
,  // measure 57
0001
0000
1000
0010
1000
0000
0001
0000
0100
0001
0100
0000
0010
0000
1000
0100
,  // measure 58
1000
0000
0001
0000
0010
0001
0010
0000
0100
0000
1000
0001
0000
0001
0010
0100
,  // measure 59
0010
0000
0000
0010
0001
0000
0100
0000
0010
0100
0000
0100
0010
0000
1000
0010
,  // measure 60
0000
0010
0100
0000
0001
0010
0001
0000
0100
0000
0001
0100
0010
0000
1000
0001
,  // measure 61
1000
0000
0001
0010
0001
0000
1000
0000
0100
1000
0100
0000
0010
0000
0001
0100
,  // measure 62
0001
0000
0100
0000
0010
1000
0010
0000
1000
0000
0010
0100
0000
0100
0010
0000
,  // measure 63
1000
0000
0000
1000
0001
0000
0010
0000
0100
0010
0000
0010
0100
0000
0010
0001
,  // measure 64
0000
0001
0010
0000
0100
1000
0000
1000
0001
0100
0001
0100
0010
1000
0001
0000
,  // measure 65
2002
0000
0000
0000
,  // measure 66
0000
0000
0000
0000
,  // measure 67
3003
0000
0000
0000
;

//---------------dance-single - ----------------
#NOTES:
     dance-single:
     :
     Medium:
     12:
     0.459389,0.565232,0.069475,0.079401,0.000000,324.000000,317.000000,7.000000,8.000000,0.000000,0.000000,0.459389,0.565232,0.069475,0.079401,0.000000,324.000000,317.000000,7.000000,8.000000,0.000000,0.000000:
0000
0000
0000
0000
,
0000
0000
0000
0000
,
0000
0000
0000
0000
,
0000
0000
0000
0000
,
0000
0000
0000
0000
,
0000
0000
0000
0000
,
0000
0000
0000
0000
,
0000
0000
0000
0000
,
0000
0000
0000
0000
,
0001
0020
0100
0001
,
0031
0000
1000
0000
0010
1000
0010
1000
,
0001
0010
0100
1000
,
0010
0000
1000
0000
0001
0100
0001
0100
,
0010
0010
0100
0001
,
1000
0000
0100
0000
0010
0001
1000
0001
,
2000
0001
0001
0000
,
0000
0000
0000
0000
3001
0010
0100
1000
,
0001
0000
1000
0010
0000
0010
1000
0000
,
0001
0010
0000
0010
0100
0000
1000
0100
,
0010
0000
0001
0100
0000
0100
0001
0000
,
1000
0100
0000
0100
0010
0100
0000
0100
,
1000
0000
0001
0100
0000
0100
0001
0000
,
1000
0100
0000
0100
0010
0000
0001
1000
,
0010
0000
0100
0010
0000
0010
0100
0000
,
0001
0100
0000
0100
0010
1000
0001
1000
,
0100
0100
0000
0010
0010
0000
0001
0001
,
0000
1000
1000
0010
0100
0100
0000
0001
,
0010
0010
0000
0100
0100
0000
1000
1000
,
0000
0001
0001
0100
0010
0010
0100
0001
,
1000
1000
0000
0001
0001
0000
0010
0010
,
0000
0100
0100
0010
0001
0001
1000
0010
,
1000
2000
0000
3001
0002
0000
1003
1000
,
0200
0000
0300
1001
,
0001
0000
0010
0000
0001
0100
0001
0000
,
1000
0000
0010
0000
0100
0010
0100
0010
,
1000
1010
0011
0001
,
0010
0100
1000
0000
0001
1000
0001
1000
,
0100
0000
0010
0000
0100
1000
0100
0000
,
1000
0000
0010
1000
0001
0000
0010
0001
,
1000
0001
1000
0000
1000
0000
0010
0000
,
0100
0001
0100
0000
0001
0010
0100
1000
,
0001
0000
0010
0100
0000
0100
0010
0000
,
0001
1000
0010
0000
0100
0001
0100
0001
,
1000
1100
0101
0001
,
0010
0100
0010
0000
0001
1000
0100
0010
,
0002
0000
0000
0000
,
0003
0000
1000
0010
1000
0000
0001
0000
,
0010
0100
0100
0000
0200
0000
0000
0000
,
0010
0310
0000
0000
,
0010
0010
0001
1000
0010
0010
1000
0001
,
0100
0100
0001
1000
0100
0010
0001
0001
,
1000
0000
0010
0001
0000
0001
0010
0000
,
1000
0100
0000
0100
0010
0000
0011
0000
,
0001
1000
0100
0100
0010
0001
0100
0100
,
0010
1000
0100
0100
0010
0001
1000
1000
,
0010
0000
0010
1000
0001
0000
0001
1000
,
0100
0000
0010
0001
1000
0001
1000
0010
,
0100
0100
0010
1000
0100
0100
0010
0001
,
1000
1000
0010
0100
0001
1000
0100
0100
,
0010
0000
0001
0010
0000
0010
1000
0000
,
0010
0100
0000
0100
1000
0000
1010
0000
,
0010
1000
0001
0001
0010
0001
1000
1000
,
0100
0010
0001
0001
0010
0100
1000
1000
,
0010
0000
0100
0010
0000
0010
1000
0000
,
0001
0010
0000
0010
0100
1000
0001
1000
,
0020
0000
0000
0000
,
0000
0000
0000
0000
,
0030
0000
0000
0000
;

//---------------dance-single - ----------------
#NOTES:
     dance-single:
     :
     Easy:
     7:
     0.284991,0.332490,0.099251,0.277902,0.000000,201.000000,191.000000,10.000000,28.000000,0.000000,0.000000,0.284991,0.332490,0.099251,0.277902,0.000000,201.000000,191.000000,10.000000,28.000000,0.000000,0.000000:
0000
0000
0000
0000
,
0000
0000
0000
0000
,
0000
0000
0000
0000
,
0000
0000
0000
0000
,
0000
0000
0000
0000
,
0000
0000
0000
0000
,
0000
0000
0000
0000
,
0000
0000
0000
0000
,
0000
0000
0000
0000
,
1000
2000
0000
0000
,
3000
0001
0010
0100
,
0010
0010
0010
0000
,
0000
0001
0100
0010
,
0100
0200
0000
0000
,
0300
0001
1000
0010
,
1000
0001
1000
0000
2000
0000
0000
0000
,
3000
0000
0000
0000
,
0001
0000
0020
0001
0000
0000
0031
0000
,
2000
0010
0000
0000
3001
0000
0100
0000
,
0010
0000
0200
0010
0000
0000
0310
0000
,
2000
0010
0000
0000
3010
0000
0000
0000
,
0001
0000
0020
0100
0000
0000
0130
0000
,
2000
0100
0000
0000
3010
0000
0100
0000
,
0010
1000
0001
0010
,
0100
0000
0010
0000
0001
1000
0001
0000
,
0010
0000
0000
0011
0000
0000
0001
0000
,
0000
1001
0000
0000
1000
0000
0010
0000
,
1000
0000
0000
1010
0000
0000
0010
0000
,
0000
0110
0000
0000
0100
0000
0010
0000
,
1000
0000
0000
1100
0000
0000
0100
0000
,
0000
0110
0000
0000
0010
0000
0001
0000
,
2000
0000
0000
3002
0000
0000
2003
0000
,
0002
0000
3003
0110
,
1001
0002
0000
0000
,
1003
0010
0100
0010
,
1000
1000
2000
0000
,
3001
0010
0001
0001
,
1000
0002
0000
0000
,
0013
0100
0100
0010
,
0200
1000
2300
0000
,
3010
0000
0100
0000
0001
1000
0001
0000
,
1000
2000
0000
0000
,
3010
0100
0001
0100
,
0010
0010
0020
0000
,
1030
0001
0010
0100
,
0010
0020
0000
0000
,
0030
0001
0001
0000
,
1000
0010
0010
0000
,
1001
1001
0000
0000
,
0001
0000
1000
0001
0000
0000
0001
0000
,
1000
0001
0000
0000
0010
0000
0100
0000
,
0010
0000
0100
0010
0000
0000
0010
0000
,
0100
1000
0000
0000
1000
0000
0010
0000
,
0100
0000
0001
0100
0000
0000
0100
0000
,
0001
0010
0000
0000
0010
0000
0001
0000
,
2000
0010
3002
0010
,
2003
0000
0100
0000
3001
1000
0001
0000
,
0100
0000
0010
0100
0000
0000
0001
0000
,
0100
0010
0000
0000
0010
0000
1000
0000
,
0001
0000
0010
0100
0000
0000
1000
0000
,
0010
0100
0000
0000
0100
0000
0001
0000
,
1000
0000
0001
1000
0000
0000
0100
0000
,
1000
0001
0000
0000
1000
0000
0100
0000
,
0020
0130
0200
1300
,
2000
0000
3001
0000
0100
0010
0100
0000
,
0200
0000
0000
0000
,
0000
0000
0000
0000
,
0300
0000
0000
0000
;

//---------------dance-single - ----------------
#NOTES:
     dance-single:
     :
     Beginner:
     3:
     0.185741,0.258052,0.019850,0.000000,0.000000,131.000000,129.000000,2.000000,0.000000,0.000000,0.000000,0.185741,0.258052,0.019850,0.000000,0.000000,131.000000,129.000000,2.000000,0.000000,0.000000,0.000000:
0000
0000
0000
0000
,
0000
0000
0000
0000
,
0000
0000
0000
0000
,
0000
0000
0000
0000
,
0000
0000
0000
0000
,
0000
0000
0000
0000
,
0000
0000
0000
0000
,
0000
0000
0000
0000
,
0000
0000
0000
0000
,
1000
0000
0000
0000
,
1000
0000
0010
0000
,
1000
0000
0000
0000
,
0001
0000
0100
0000
,
0001
0000
0001
0000
,
1000
0000
1000
0000
,
0100
0100
0100
0000
,
0000
0000
0000
0000
,
0010
0000
0001
0000
,
1000
0000
0010
0010
,
1000
0000
0001
0000
,
1000
0000
0100
0100
,
0010
0000
0001
0000
,
1000
0000
0010
0010
,
0100
0000
0001
0000
,
0010
0000
0001
0000
,
1000
0000
0000
1000
0000
0000
0001
0000
,
0000
0001
0000
0000
1000
0000
0000
0000
,
0010
0000
0000
0010
0000
0000
0100
0000
,
0000
0100
0000
0000
0010
0000
0000
0000
,
1000
0000
0000
1000
0000
0000
0001
0000
,
0000
0001
0000
0000
0010
0000
0000
0000
,
0100
0000
0000
0100
0000
0000
0100
0000
,
0100
0000
0000
1001
,
0001
0000
0010
0000
,
0001
0000
1000
0000
,
0010
0010
0010
0000
,
0100
0000
0010
0000
,
1000
1000
0000
0000
,
0001
0000
0010
0000
,
0100
0100
0100
0000
,
1000
0000
0010
0000
,
1000
1000
0000
0000
,
0001
0000
0010
0000
,
0001
0001
0001
0000
,
0100
0000
0010
0000
,
0100
0100
0000
0000
,
0000
0000
0010
0000
,
1000
1000
1000
0000
,
0001
0001
0000
0000
,
0001
0000
0010
0000
,
0001
0000
1000
1000
,
0001
0000
1000
0000
,
0001
0001
1000
0000
,
0010
0000
1000
0000
,
0100
0000
0010
0010
,
0100
0000
0010
0000
,
0100
0100
0010
0000
,
0001
0000
1000
0000
,
0010
0000
0100
0100
,
0010
0000
0100
0000
,
0010
0010
0100
0000
,
0001
0000
1000
0000
,
0100
0000
1000
1000
,
0001
0000
1000
0000
,
0001
1000
0001
1000
,
1001
0000
0000
0000
;
