#VERSION:0.83;
#TITLE:神っぽいな;
#SUBTITLE:;
#ARTIST:ピノキオピー;
#TITLETRANSLIT:God-ish;
#SUBTITLETRANSLIT:;
#ARTISTTRANSLIT:PinocchioP;
#GENRE:;
#CREDIT:;
#MUSIC:God-ish.ogg;
#BANNER:God-ish-bn.png;
#BACKGROUND:God-ish-bg.png;
#CDTITLE:;
#SAMPLESTART:50.273;
#SAMPLELENGTH:13.521;
#SELECTABLE:YES;
#OFFSET:1.692;
#BPMS:0.000=142.000;
#STOPS:;
#BGCHANGES:1.910=God-ish.mp4=1.000=0=0=0=StretchNoLoop====,
99999.000=-nosongbg-=1.000=0=0=0=StretchNoLoop====
;
#FGCHANGES:;

//--------------- dance-single - ----------------
#NOTEDATA:;
#STEPSTYPE:dance-single;
#DESCRIPTION:;
#DIFFICULTY:Hard;
#METER:12;
#RADARVALUES:0,0,0,0,0;
#CREDIT:Talkion;
#NOTES:
0000
0000
0000
0000
,
0000
0000
0000
0000
,
0000
0000
0000
0000
,
0000
0000
0000
0000
,
0000
0000
0000
0000
,
1000
0000
0000
1000
0000
0000
1000
0000
0010
0000
0000
0010
0000
0000
0010
0000
,
0200
0000
0000
0010
0000
0000
0302
0000
0000
0000
0003
0000
0000
0000
1000
0000
,
0100
0000
0000
0100
0000
0000
0100
0000
0010
0000
0000
0010
0000
0000
0010
0000
,
0002
0000
0000
0010
0000
0000
2003
0000
0000
0000
0000
0000
3000
0000
0000
0000
,
0001
0000
0000
0001
0000
0000
0001
0000
0100
0000
0000
0100
0000
0000
0100
0000
,
0020
0000
0000
0100
0000
0000
2030
0000
0000
0000
3000
0000
0000
0000
0001
0000
,
0010
0000
0000
0010
0000
0000
0010
0000
0100
0000
0000
0100
0000
0000
0100
0000
,
1100
0000
0000
1000
0000
0000
0010
0000
0000
0000
0110
0000
1001
0000
0000
0000
,
1000
0000
0001
0000
1000
0100
0000
0100
0000
0100
0000
0100
0010
0000
1000
0000
,
0000
0000
0010
0000
0001
0100
0000
0100
0000
0100
0000
0100
0010
0000
0001
0000
,
0000
0000
0010
0000
1000
0100
0000
0100
0000
0100
0000
0100
0010
0000
1000
0000
,
0000
1020
0000
0031
0000
0201
0000
1300
,
0000
0000
0100
0000
0001
0010
0000
0010
0000
0010
0000
0010
0100
0000
0001
0000
,
0000
0000
0100
0000
1000
0010
0000
0010
0000
0010
0000
0010
0100
0000
1000
0000
,
0000
0000
0100
0000
0001
0010
0000
0010
0000
0010
0000
0010
0100
0000
1000
0000
,
1001
0000
0000
0001
0000
0000
0200
0000
0000
0000
0310
0000
1001
0000
0000
0000
,
1000
0100
0100
0001
0100
0100
1000
0001
,
1000
0010
0010
0001
0010
0010
1000
0001
,
0020
0000
0230
0000
1300
0001
0010
0001
,
2000
0000
0010
0000
3010
0100
0010
1000
,
0001
0010
0010
1000
0010
0010
0001
1000
,
0001
0100
0100
1000
0100
0100
0001
1000
,
0200
0000
1300
1000
0001
0100
0010
0100
,
0002
2003
3200
0302
,
0023
0000
0000
0000
,
0000
0000
0030
0000
0000
0000
1000
0100
,
0001
0100
1000
0001
0010
0001
1000
0010
,
0001
0010
1000
0001
0020
0000
0130
1000
,
0010
1000
0100
1000
0010
0100
0001
1000
,
0100
1000
0001
0010
0020
0000
0130
0010
,
1000
0010
0001
1000
0100
1000
0001
0100
,
1000
0100
0001
1000
0200
0000
0310
0001
,
0100
0001
0010
0001
0100
0010
1000
0001
,
0011
0000
1010
0000
0022
0000
0033
0010
,
0100
0000
0100
0000
1000
0000
1000
0000
0001
0010
0001
0000
1000
0000
0010
0000
,
0100
0000
0100
0000
0001
0000
0001
0000
1000
0010
1000
0000
0001
0000
0010
0000
,
1000
0010
0001
1000
0100
1000
0001
0100
,
1000
0100
0001
1000
0200
0000
0310
0001
,
1000
0000
1000
0000
0010
0000
0100
0001
0000
0100
0001
0000
1000
0000
0100
0000
,
0010
0000
0010
0000
0001
0000
0001
0000
1000
0100
1000
0000
0001
0000
0100
0000
,
1000
0100
0001
1000
0010
1000
0001
0010
,
1000
0000
0001
0000
1000
0000
0001
0000
0100
0010
0100
0010
0100
0000
1000
0000
,
0000
0000
0001
0000
1000
0001
0000
0001
0000
0001
0000
0001
0100
0000
1000
0000
,
0000
0000
0100
0000
0001
1000
0000
1000
0000
1000
0000
1000
0100
0000
0001
0000
,
0000
0000
0100
0000
1000
0001
0000
0001
0000
0001
0000
0001
0100
0000
1000
0000
,
0000
1200
0000
0301
0000
0021
0000
1030
,
0000
0000
0010
0000
0001
1000
0000
1000
0000
1000
0000
1000
0010
0000
0001
0000
,
0000
0000
0010
0000
1000
0001
0000
0001
0000
0001
0000
0001
0010
0000
1000
0000
,
0000
0000
0010
0000
0001
1000
0000
1000
0000
1000
0000
1000
0010
0000
1000
0000
,
1001
0000
0000
0001
0000
0000
0020
0000
0000
0000
0130
0000
1000
0000
0000
0000
,
0001
0000
0000
0001
0000
0000
0001
0000
0100
0000
0000
0100
0000
0000
0100
0000
,
0020
0000
0000
0100
0000
0000
2030
0000
0000
0000
3000
0000
0000
0000
0001
0000
,
0010
0000
0000
0010
0000
0000
0010
0000
0100
0000
0000
0100
0000
0000
0100
0000
,
2000
0000
0000
0100
0000
0000
3002
0000
0000
0000
0000
0000
0003
0000
0000
0000
,
1000
0000
0000
1000
0000
0000
1000
0000
0010
0000
0000
0010
0000
0000
0010
0000
,
0200
0000
0000
0010
0000
0000
0302
0000
0000
0000
0003
0000
0000
0000
1000
0000
,
0100
0000
0000
0100
0000
0000
0100
0000
0010
0000
0000
0010
0000
0000
0010
0000
,
0011
0000
0000
0001
0000
0000
0100
0000
0000
0000
0110
0000
1001
0000
0000
0000
;

//--------------- dance-single - ----------------
#NOTEDATA:;
#STEPSTYPE:dance-single;
#DESCRIPTION:;
#DIFFICULTY:Challenge;
#METER:14;
#RADARVALUES:0,0,0,0,0;
#CREDIT:Talkion;
#NOTES:
0000
0000
0000
0000
,
0000
0000
0000
0000
,
0000
0000
0000
0000
,
0000
0000
0000
0000
,
0000
0000
0000
0000
,
1000
0000
0000
1000
0000
0000
1000
0000
0010
0000
0100
0010
0000
0000
1000
0001
,
0020
0000
0000
0100
0000
0000
0032
0000
0000
0000
0003
0000
0000
0000
1000
0000
,
0010
0000
0000
0010
0000
0000
0010
0000
0100
0000
0001
1000
0000
0000
0100
0000
,
0020
0000
0000
0001
0000
0000
0230
0000
0000
0000
0000
0000
0300
0000
0000
0000
,
1000
0000
0001
0200
0000
0000
0310
0000
1000
0000
0001
0020
0000
0000
0130
0000
,
1000
0000
0001
0200
0000
0000
0320
0000
0000
0000
0030
0000
0000
0000
0100
0000
,
0001
0000
0000
0001
0000
0000
0001
0000
1000
0000
0100
0010
0000
0000
0001
0100
,
0010
0000
0000
1000
0000
0000
0100
0000
0000
0000
0110
0000
1001
0000
0000
0000
,
0001
0000
1000
0000
0001
0100
0000
0101
0000
1100
0000
0100
0010
0000
1001
0000
,
0000
0000
0001
0000
1000
0100
0000
1100
0000
0101
0000
0100
0010
0000
1001
0000
,
0000
0000
1000
0000
0001
0100
0000
0101
0000
1100
0000
0100
0010
0000
1001
0000
,
0000
0001
0100
2000
0000
3001
0010
2000
,
0000
0000
3001
0000
1000
0010
0000
1010
0000
0011
0000
0010
0100
0000
1001
0000
,
0000
0000
1000
0000
0001
0010
0000
0011
0000
1010
0000
0010
0100
0000
1001
0000
,
0000
0000
0001
0000
1000
0010
0000
1010
0000
0011
0000
0010
0100
0000
1000
0001
,
0100
0000
0000
0010
0000
0000
2000
0000
0000
0000
3100
0010
0001
0000
0000
0000
,
1000
0000
0001
0100
0001
0000
1000
0000
0001
0100
0001
0000
1000
0100
0010
0000
,
0001
0000
1000
0100
1000
0000
0001
0000
1000
0100
1000
0000
0001
0000
0100
0000
,
0010
1000
0100
0010
0100
1000
0010
0100
,
0001
0000
0010
0000
0100
0000
0010
0000
0001
0000
1000
0000
0010
1000
0010
1000
,
0001
0000
0100
0010
0100
0000
0001
0000
0100
0010
0100
0000
0001
1000
0100
0000
,
1000
0000
0100
0010
0100
0000
1000
0000
0100
0010
0100
0000
1000
0000
0001
0000
,
0200
0000
0310
0010
1000
0100
0010
0100
,
1000
0000
0001
0100
0001
0000
1000
0100
1000
0000
0001
0100
0001
0000
0010
0000
,
2000
0000
0000
0000
,
3000
0000
0000
0000
0000
0000
0011
0010
,
2000
0000
0010
0000
3001
0000
0100
0000
1000
0000
0001
0100
0010
0000
0100
0000
,
2000
0000
0100
0000
3001
0000
0010
0000
0100
0000
0010
1000
0200
0000
0310
0000
,
0002
0100
2003
0100
3002
0010
1003
0010
,
0010
0000
0100
0010
1000
0000
0001
0000
0010
0100
1000
0100
0010
0000
0100
0000
,
0002
0000
0100
0000
1003
0000
0010
0000
0001
0000
1000
0010
0100
0000
0010
0000
,
0002
0000
0010
0000
1003
0000
0100
0000
0010
0000
0100
0001
0020
0000
0130
0000
,
2000
0010
3002
0010
2003
0100
3001
0100
,
0101
0000
0000
0000
1100
0000
0000
0000
0202
0000
0000
0000
0303
0000
0001
1000
,
0010
0100
0010
0100
0001
1000
0010
1000
0001
0010
0100
0010
0001
0000
1000
0010
,
0100
0000
0100
0000
0001
1000
0010
1000
0001
0010
0100
0000
1000
0000
0010
0000
,
0002
0000
0010
0000
1003
0000
0100
0000
0001
0000
1000
0100
0010
0000
0100
0000
,
0002
0000
0100
0000
1003
0000
0010
0000
0001
1000
0100
1000
0001
0000
1000
0010
,
0100
0000
0100
0000
0001
1000
0100
0010
0000
0100
0010
0001
1000
0000
0001
0100
,
0010
1000
0010
0100
0001
1000
0100
1000
0001
0010
0100
0000
1000
0000
0010
0000
,
0002
0000
0010
0000
1003
0000
0100
0000
0001
0000
1000
0100
0020
0000
1000
0000
,
0230
0000
0001
0000
0320
0000
1000
0000
0130
1000
0010
0100
0001
0000
1001
0000
,
0000
0000
1000
0000
0001
0010
0000
1010
0000
1100
0000
0100
0001
0000
1001
0000
,
0000
0000
0001
0000
1000
0010
0000
0011
0000
0101
0000
0100
1000
0000
1001
0000
,
0000
0000
1000
0000
0001
0010
0000
1010
0000
1100
0000
0100
0001
0000
1001
0000
,
0000
0001
0100
2000
0000
3001
0010
2000
,
0000
0000
3001
0000
1000
0100
0000
0101
0000
0011
0000
0010
1000
0000
1001
0000
,
0000
0000
1000
0000
0001
0100
0000
1100
0000
1010
0000
0010
0001
0000
1001
0000
,
0000
0000
0001
0000
1000
0100
0000
0101
0000
0011
0000
0010
1000
0000
0010
0100
,
0001
0000
0000
1000
0000
0000
0200
0000
0000
0000
0310
0001
1000
0000
0000
0000
,
0001
0000
0000
0001
0000
0000
0001
0000
0100
0000
0010
0100
0000
0000
0001
1000
,
0200
0000
0000
0010
0000
0000
2300
0000
0000
0000
3000
0000
0000
0000
0001
0000
,
0100
0000
0000
0100
0000
0000
0100
0000
0010
0000
1000
0001
0000
0000
0010
0000
,
0200
0000
0000
1000
0000
0000
0320
0000
0000
0000
0000
0000
0030
0000
0000
0000
,
0001
0000
1000
0020
0000
0000
0130
0000
0001
0000
1000
0200
0000
0000
0310
0000
,
0001
0000
1000
0020
0000
0000
0230
0000
0000
0000
0300
0000
0000
0000
0010
0000
,
1000
0000
0001
0020
0000
0000
0130
0000
1000
0000
0001
0200
0000
0000
0310
0000
,
1010
0000
0000
1000
0000
0000
0100
0000
0000
0000
0110
0000
1001
0000
0000
0000
;
