#VERSION:0.83;
#TITLE:Girly Cupid;
#SUBTITLE:;
#ARTIST:PSYQUI feat. Marpril;
#TITLETRANSLIT:;
#SUBTITLETRANSLIT:;
#ARTISTTRANSLIT:;
#GENRE:;
#ORIGIN:;
#CREDIT:;
#BANNER:Girly Cupid.png;
#BACKGROUND:Girly Cupid-bg.png;
#PREVIEWVID:;
#JACKET:Girly Cupid-jacket.png;
#CDIMAGE:;
#DISCIMAGE:;
#LYRICSPATH:;
#CDTITLE:;
#MUSIC:Girly Cupid.ogg;
#OFFSET:-0.043948;
#SAMPLESTART:64.934982;
#SAMPLELENGTH:15.000000;
#SELECTABLE:YES;
#BPMS:0.000=133.000;
#STOPS:;
#DELAYS:;
#WARPS:;
#TIMESIGNATURES:0.000=4=4;
#TICKCOUNTS:0.000=4;
#COMBOS:0.000=1;
#SPEEDS:0.000=1.000=0.000=0;
#SCROLLS:0.000=1.000;
#FAKES:;
#LABELS:0.000=Song Start;
#BGCHANGES:0.375=Girly Cupid.avi=1.000=1=0=1===CrossFade==,
247.750=Girly Cupid-bg.png=1.000=0=0=1=====,
99999=-nosongbg-=1.000=0=0=0 // don't automatically add -songbackground-
;
#KEYSOUNDS:;
#ATTACKS:
;

//---------------dance-single - ----------------
#NOTEDATA:;
#CHARTNAME:;
#STEPSTYPE:dance-single;
#DESCRIPTION:;
#CHARTSTYLE:;
#DIFFICULTY:Hard;
#METER:12;
#RADARVALUES:0.507464,0.543183,0.413854,0.310390,0.077598,412.000000,364.000000,48.000000,36.000000,0.000000,0.000000,0.000000,0.000000,0.000000,0.507464,0.543183,0.413854,0.310390,0.077598,412.000000,364.000000,48.000000,36.000000,0.000000,0.000000,0.000000,0.000000,0.000000;
#CREDIT:;
#NOTES:
0000
0000
0000
0000
,
0000
0000
0000
0000
,
0000
0000
0000
0000
,
0000
0000
0000
0000
,
2001
0000
0100
0000
3001
0000
1000
0002
,
0000
0103
0010
2000
0000
3100
0000
0100
,
0020
0000
0001
0000
0230
0000
1300
0100
,
1000
0001
0100
0020
0000
0100
0030
0000
,
0101
0000
0000
0000
1001
0000
0000
1000
0100
0000
0100
0000
1000
0000
0002
0000
,
0000
0103
0000
0110
0000
0000
0010
1000
,
0001
0000
0000
1000
0001
0000
0000
0001
1000
0000
0000
0100
0000
0000
0120
0000
,
0000
0130
0100
2000
0000
3001
0000
0000
,
0001
0100
0010
0100
0001
1000
0001
0010
,
0100
1000
0001
1000
0100
0010
0000
0010
,
0001
0000
0000
0001
0100
0000
0000
0000
1100
0000
0000
0000
1000
0000
0100
0000
,
0010
0001
1000
0020
0000
0130
0000
0000
,
1010
0000
1100
0000
1001
0000
0001
0010
,
0000
0010
0001
0100
0000
0110
0000
0100
,
0001
1000
0001
0010
0100
1000
0001
1000
,
0100
0001
0010
1000
0001
0000
0001
1000
,
2010
0000
0001
0000
3100
1000
0100
0020
,
0000
0130
0000
1000
0002
0100
0000
1000
,
0000
0013
0001
1000
0000
0101
0000
1100
,
0000
0000
0011
0000
0000
0000
0001
0000
0010
0000
0100
0000
2000
0000
0000
0002
,
3003
0000
0000
0001
0100
0001
1000
0010
,
1000
0001
1000
0100
0010
0100
1000
0001
,
0100
0010
0000
2020
0000
3030
0000
1000
,
0010
0101
1001
1100
,
1000
0100
0001
0000
1000
0010
0001
0000
,
0001
0100
1000
0000
0001
0010
1000
0000
,
1000
0100
0001
0000
1000
0010
0001
0000
,
0020
0230
2300
3002
,
0103
0001
0100
0001
1000
0001
1000
0001
,
1000
0100
1000
0100
1000
0001
1000
0001
,
0100
0001
1000
0001
1000
0100
1000
0001
,
0100
0000
0000
0100
0010
0000
0100
0000
0001
0000
2000
0000
0000
3000
0000
0000
,
2200
0000
3300
0000
0101
0102
0000
1003
,
0000
1000
1100
0000
0100
0010
0110
0000
,
1000
0000
0000
0001
0000
0000
0100
0000
0010
0100
0000
0000
0001
0000
0000
1000
0000
0000
0100
0000
0000
0100
0000
0000
,
1000
0010
0010
0000
0101
0000
1010
1000
,
0002
0000
0103
0000
0011
0001
1000
0001
,
1000
1010
1010
0000
0110
0100
0100
0001
,
0020
0031
2000
3001
0100
0100
0002
0000
,
0023
0100
0130
0000
1100
0000
1001
0000
,
0001
0010
0100
0010
0100
0000
1000
0000
0100
0000
0001
0000
0100
0000
1000
0000
,
0020
0130
0100
0000
0101
1000
1010
0000
,
1000
0000
0000
0001
0000
0000
0010
0000
0100
0010
0000
0000
0001
0000
0000
0001
0000
0000
1000
0000
0000
0001
0000
0000
,
0100
0010
0010
1000
0001
0010
0100
0010
,
0001
1000
1001
0001
0100
0010
0100
0001
,
1000
0100
0100
0000
1100
0001
0011
1000
,
1010
0000
0011
0000
1001
0001
0110
0000
,
1000
0010
0010
0010
0010
0020
0130
0000
,
0001
0000
0000
0100
0000
0000
0010
0000
1000
0010
0000
0000
0100
0000
0000
0001
0000
0000
0010
0000
0001
0010
0000
0000
,
0100
0000
1010
0000
1100
0000
1010
1000
,
0001
0000
0000
0010
0000
0000
0100
0000
1000
0100
0000
0000
0010
0000
0000
0001
0000
0000
1000
0000
0010
1000
0000
0000
,
0001
0000
0101
0000
0011
0000
0101
0001
,
1000
0000
0000
0001
0000
0000
0100
0000
0010
0100
0000
0000
0001
0000
0000
0100
0000
0000
0010
0000
0000
0100
0000
0000
,
0001
0000
0000
1000
0000
0100
1000
0000
0000
0001
0000
0000
0010
0000
0000
0000
0000
0000
0100
0000
0000
0010
0000
0000
,
0001
0000
0000
1000
0000
0000
0100
0000
0010
0100
0000
0000
1000
0000
0000
0001
0000
0000
0100
0000
0000
0010
0000
0000
,
1010
0000
0011
0000
1000
0010
1000
0001
,
0200
0000
0000
0000
,
0320
0000
2030
0000
,
3200
0000
0000
0000
,
0310
0000
0000
0000
;

//---------------dance-single - ----------------
#NOTEDATA:;
#CHARTNAME:;
#STEPSTYPE:dance-single;
#DESCRIPTION:;
#CHARTSTYLE:;
#DIFFICULTY:Medium;
#METER:9;
#RADARVALUES:0.355963,0.407387,0.250037,0.586293,0.004311,289.000000,260.000000,29.000000,68.000000,0.000000,0.000000,0.000000,0.000000,0.000000,0.355963,0.407387,0.250037,0.586293,0.004311,289.000000,260.000000,29.000000,68.000000,0.000000,0.000000,0.000000,0.000000,0.000000;
#CREDIT:;
#NOTES:
0000
0000
0000
0000
,
0000
0000
0000
0000
,
0000
0000
0000
0000
,
0000
0000
0000
0000
,
0002
0000
0023
0000
0230
0000
0310
0001
,
0000
0001
1000
0020
0000
0130
0000
0100
,
0020
0000
2030
0000
3002
0000
1003
0100
,
1000
0000
0001
0020
0000
0130
0000
0000
,
2000
0000
3002
0000
1003
1000
0001
0100
,
0000
0100
0000
0010
0000
0000
0100
0001
,
2000
0000
0000
0000
3002
0000
0000
0000
0013
0000
0000
0100
0000
0000
1000
0000
,
0000
1000
0001
0100
0000
0010
0000
0000
,
0101
0000
1100
0000
0101
0000
1000
0100
,
0000
1000
0001
0200
0000
0301
0000
0000
,
0011
0000
1010
0000
0011
0000
0010
0001
,
0100
0000
0010
2000
0000
3001
0000
0000
,
0020
0000
0230
0000
0310
0000
0100
1000
,
0000
0100
0010
0002
0000
0013
0000
0000
,
1001
0000
0110
0000
1001
0000
1000
0010
,
0000
0100
0001
0200
0000
0000
0300
0000
,
2002
0000
0000
0000
,
3003
0000
0000
1000
0100
1000
0000
0010
,
0000
0010
0001
0200
0000
0302
0000
2003
,
0000
3020
0000
1030
2000
0000
3200
0000
,
0301
0000
0000
0200
0000
2300
0000
3020
,
0000
0230
0000
0302
0000
0023
0000
1030
,
0010
0002
0000
2003
0000
0000
3000
1000
,
0020
2030
3002
0103
,
0100
1010
0100
0011
,
0100
1001
0010
1001
,
0100
1010
0100
0011
,
0020
0230
2300
3002
,
1003
0100
0010
0000
0001
0100
0010
0000
,
1000
0010
0100
0000
0001
0010
0100
0000
,
1000
0010
1000
0010
0100
0001
0100
0001
,
0020
0100
0200
0330
,
2002
0000
0003
0000
0001
0002
0000
3000
,
0000
1000
2003
0000
3001
1000
1001
0000
,
0001
0000
0100
0000
0010
0000
1000
1000
,
0000
0001
0001
0000
0011
0000
1001
0000
,
0200
0000
0300
0000
1000
0001
1000
0000
,
0010
0100
0100
0000
0001
0001
2000
0000
,
3010
0101
1001
1100
,
0000
0100
0010
0000
1001
0000
0110
0000
,
0002
0000
1003
0100
1000
0010
0000
0100
,
0000
0001
0001
0000
1000
0200
0300
0000
,
1000
0000
0001
0000
0010
0010
0000
0001
,
0000
0100
0100
0000
0001
0010
0100
0000
,
0020
0000
0130
1000
0001
1000
0000
0010
,
0000
0100
0100
0000
0100
0001
1000
0000
,
0100
1100
1001
0101
,
0000
0001
0100
0010
0200
0020
0330
0000
,
1000
0010
0100
0000
0100
0001
1000
0000
,
0002
0203
2300
3200
,
0301
0010
0100
0000
0100
1000
0001
0000
,
2000
3020
0032
0023
,
1030
0000
0100
0000
0010
0001
0010
0000
,
0001
0000
0100
0010
1000
0000
0010
0000
,
1000
0000
0001
0000
0010
0100
0010
0000
,
0020
0230
2300
3002
,
0103
0000
0000
0000
,
0010
0000
0100
0000
,
2002
0000
0000
0000
,
3003
0000
0000
0000
;

//---------------dance-single - ----------------
#NOTEDATA:;
#CHARTNAME:;
#STEPSTYPE:dance-single;
#DESCRIPTION:;
#CHARTSTYLE:;
#DIFFICULTY:Easy;
#METER:6;
#RADARVALUES:0.259890,0.374193,0.172439,0.310390,0.000000,211.000000,191.000000,20.000000,36.000000,0.000000,0.000000,0.000000,0.000000,0.000000,0.259890,0.374193,0.172439,0.310390,0.000000,211.000000,191.000000,20.000000,36.000000,0.000000,0.000000,0.000000,0.000000,0.000000;
#CREDIT:;
#NOTES:
0000
0000
0000
0000
,
0000
0000
0000
0000
,
0000
0000
0000
0000
,
0000
0000
0000
0000
,
1000
0000
0100
0000
0000
0000
0100
2000
,
0000
3000
0001
2000
0000
3000
0000
0000
,
0001
0000
0100
0000
0000
0000
0100
0002
,
0000
0003
1000
0020
0000
0030
0000
0000
,
1000
0000
0100
0000
0010
0000
0100
2000
,
0000
3002
0000
0023
0000
0000
0030
0000
,
0001
0000
0100
0000
0010
0000
0000
0010
,
0000
1000
0000
0001
0000
0010
0000
0000
,
0100
0000
0100
0000
0100
0000
1000
0020
,
0000
0030
0100
0020
0000
0030
0000
0000
,
1000
0000
0001
0000
1000
0000
0001
0020
,
0000
0030
0100
0020
0000
0030
0000
0000
,
0001
0000
0010
0000
0100
0000
1000
0002
,
0000
0203
0000
0320
0000
0000
0030
0000
,
0010
0000
1000
0000
0001
0000
0000
2000
,
0000
3000
0000
0002
0000
0000
0003
0000
,
1001
0000
0000
0000
,
0000
0000
0000
0000
,
0000
1000
0000
0100
0000
0010
0000
0001
,
0000
0100
0000
0000
0001
0000
1000
0000
,
0010
0000
0000
1000
0000
0010
0000
0100
,
0000
0001
0000
1000
0000
0100
0000
0000
,
0010
0000
0000
1001
0000
0000
0000
0000
,
2000
3020
0230
0301
,
1000
1001
1000
1100
,
0001
1001
0001
0101
,
1000
1001
0001
1001
,
0002
0023
0230
1300
,
1000
0110
1000
0110
,
0001
0110
0001
0110
,
1000
1001
0001
1001
,
0020
0000
0000
0030
,
2002
0000
0000
0000
,
3003
0000
0000
0000
,
1000
0100
0001
0100
,
1000
0010
0010
0110
,
0002
0003
1000
0010
,
0001
0010
0100
0001
,
1000
1000
0001
0001
,
0010
0100
0220
0330
,
2000
3010
0010
0100
,
0001
1000
0100
0010
,
0200
1300
0002
0103
,
0010
0010
0110
0110
,
0002
0003
1000
0100
,
1000
0010
0100
0001
,
1000
1000
0001
0001
,
0000
0010
0100
0010
0100
0010
0000
0000
,
0001
0100
0010
0100
,
0001
1000
0001
0001
,
1000
0100
0010
0100
,
1000
0001
0010
0100
,
1000
0010
0100
0010
,
1000
0001
0001
0010
,
0001
0010
0100
0010
,
0002
0203
0320
2030
,
3001
0000
0000
0000
,
0000
0000
0000
0000
,
1001
0000
0000
0000
;

//---------------dance-single - ----------------
#NOTEDATA:;
#CHARTNAME:;
#STEPSTYPE:dance-single;
#DESCRIPTION:;
#CHARTSTYLE:;
#DIFFICULTY:Beginner;
#METER:3;
#RADARVALUES:0.171207,0.271592,0.129329,0.017244,0.000000,139.000000,124.000000,15.000000,2.000000,0.000000,0.000000,0.000000,0.000000,0.000000,0.171207,0.271592,0.129329,0.017244,0.000000,139.000000,124.000000,15.000000,2.000000,0.000000,0.000000,0.000000,0.000000,0.000000;
#CREDIT:;
#NOTES:
0000
0000
0000
0000
,
0000
0000
0000
0000
,
0000
0000
0000
0000
,
0000
0000
0000
0000
,
1000
0100
0000
0100
,
0000
0100
0000
1000
,
0001
0100
0000
0100
,
0000
0100
0000
0100
,
0001
0010
0000
0010
,
0000
0010
0000
0001
,
1000
0010
0000
0010
,
0000
0010
0000
0010
,
1000
0001
0000
0001
,
0000
0001
0000
0010
,
0001
1000
0000
1000
,
0000
1000
0000
1000
,
0010
0100
0000
0100
,
0000
0010
0000
0010
,
1000
0000
0001
0000
,
1000
1000
1000
0000
,
1001
0000
0000
0000
,
0000
0000
0000
0000
,
0000
0000
0000
0000
,
0000
0000
0000
0000
,
1000
0000
0100
0000
,
0001
0000
0100
0000
,
1000
0000
0100
0000
,
0001
0001
0001
0000
,
0000
1100
0000
0011
,
0000
0101
0000
1010
,
0000
1100
0000
0011
,
0000
1000
1000
1000
,
0000
1001
0000
0110
,
0000
0110
0000
1001
,
0000
1001
0000
0110
,
0000
0000
0000
0000
,
1001
0000
0000
0000
,
0000
0000
0000
0000
,
1000
0100
0000
0100
,
0000
0010
0001
0001
,
0000
0000
0001
0100
,
0000
0100
0000
0010
,
1000
0001
1000
0000
,
0000
0100
0100
0000
,
1000
0001
0001
0000
,
0000
0100
0000
0010
,
0010
0000
0100
0000
,
0001
1000
1000
0001
,
0000
0010
0010
0000
,
0100
0000
1000
0000
,
0001
1000
0001
0000
,
0110
0000
0000
0000
,
0001
0100
0000
0100
,
0000
0100
0000
0001
,
1000
0100
0000
0100
,
0000
0100
0000
0100
,
1000
0010
0000
0010
,
0000
0010
0000
1000
,
0001
0010
0000
0010
,
0010
0001
1000
0100
,
2000
0000
0000
0000
,
3000
0000
0000
0000
,
0002
0000
0000
0000
,
0003
0000
0000
0000
;
