#VERSION:0.83;
#TITLE:Ganymede kamome mix;
#SUBTITLE:;
#ARTIST:kamome sano;
#TITLETRANSLIT:;
#SUBTITLETRANSLIT:;
#ARTISTTRANSLIT:;
#GENRE:;
#CREDIT:;
#MUSIC:Ganymede kamome mix.ogg;
#BANNER:Ganymede kamone mix-bn.png;
#BACKGROUND:Ganymede kamone mix-bg.png;
#CDTITLE:;
#SAMPLESTART:79.086;
#SAMPLELENGTH:19.200;
#SELECTABLE:YES;
#OFFSET:-0.055;
#BPMS:0.000=400.000
,8.000=800.000
,9.000=400.000
,10.000=800.000
,11.000=400.000
,12.000=200.000
,44.000=400.000
,52.000=800.000
,75.750=100.000
,108.000=200.000
,122.000=400.000
,126.000=200.000
,128.000=400.000
,132.000=200.000
,134.000=400.000
,138.000=200.000
,139.000=400.000
,143.000=200.000
,144.000=400.000
,148.000=200.000
,150.000=400.000
,157.000=100.000
,160.500=50.000
,161.500=100.000
,182.000=400.000
,246.000=100.000
,252.000=200.000
,316.000=400.000
,377.000=100.000
,392.750=800.000
,393.000=200.000
;
#STOPS:8.000=0.075
,9.000=2.100
,10.000=0.075
,11.000=2.100
,44.000=0.075
,44.500=0.075
,45.000=0.075
,45.500=0.075
,46.000=0.075
,46.500=0.075
,47.000=0.075
,47.500=0.075
,48.000=0.037
,48.250=0.037
,48.500=0.037
,48.750=0.037
,49.000=0.037
,49.250=0.037
,49.500=0.037
,49.750=0.037
,50.000=0.037
,50.250=0.037
,50.500=0.037
,50.750=0.037
,51.000=0.037
,51.250=0.037
,51.500=0.037
,51.750=0.037
,75.750=0.450
,318.667=0.100
,322.000=0.100
,333.333=0.100
,336.667=0.100
,341.333=0.050
;
#DISPLAYBPM:100.000:400.000;
#BGCHANGES:;
#FGCHANGES:;

//--------------- dance-single - ----------------
#NOTEDATA:;
#STEPSTYPE:dance-single;
#DESCRIPTION:;
#DIFFICULTY:Beginner;
#METER:7;
#RADARVALUES:0,0,0,0,0;
#NOTES:
0000
0000
0000
0000
,
0000
0000
0000
0000
,
0000
0000
0000
0000
,
1000
0000
0100
0000
,
0010
0000
0100
0000
,
1000
0000
0001
0000
,
0100
0000
0010
0000
,
0100
0000
0001
0000
,
0010
0000
0100
0000
,
1000
0000
0010
0000
,
0100
0000
0001
0000
,
1000
0001
1000
0001
,
1000
0001
1000
0001
,
0000
0000
0000
0000
,
0000
0000
0000
0000
,
0000
0000
0000
0000
,
0000
0000
0000
0000
,
0000
0000
0000
0000
,
0000
0000
0000
0000
,
1000
0000
0100
0000
,
0001
0000
0100
0000
,
1000
0000
0001
0000
,
0100
0000
1000
0000
,
0100
0000
0001
0000
,
1000
0000
0010
0000
,
0001
0000
1000
0000
,
0100
0000
0001
0000
,
1000
0000
0010
0000
,
0100
0000
0010
0000
,
1000
0000
0100
0000
,
0010
0000
010M
0000
,
1000
0000
0001
0000
,
M100
0000
0010
0000
,
0100
0000
M001
0000
,
0010
0000
0100
M010
,
0000
0001
0000
1000
,
001M
0000
0100
0000
,
0001
0000
0M10
0000
,
1000
0000
0020
0000
,
0030
0000
0002
0000
0000
0203
0000
0000
,
0320
0000
0000
2030
0000
0000
3200
0000
,
0000
0320
0000
0000
0031
0000
0000
0000
,
0100
0000
1000
0000
,
0100
0000
0001
0000
,
0010
0000
1000
0000
,
0010
0000
0001
0000
,
0100
0000
0001
0000
,
0100
0000
0010
0000
,
1000
0000
0010
0000
,
1000
0000
0001
0000
,
0010
0000
0001
0000
,
0010
0000
0100
0000
,
1000
0000
0100
0000
,
1000
0000
0010
0000
,
0100
0000
0010
0000
,
0100
0000
0001
0000
,
1000
0000
0001
0000
,
1000
0000
0001
0000
,
0100
0000
0010
0000
,
1000
0000
0100
0000
,
0010
0000
0001
0000
,
1000
0000
0001
0000
,
0000
0000
0000
0000
,
1000
0100
0010
0100
,
1000
0100
0010
0001
,
0010
0100
0010
0100
,
1000
0100
0010
0001
,
1000
0010
0100
0010
,
1000
0010
0100
0001
,
0100
0010
0100
0010
,
1000
0010
0100
0001
,
1000
0100
0010
0100
,
0001
0100
0010
0100
,
1000
0010
0100
0010
,
0001
0010
0100
0010
,
1000
0001
0010
1000
,
0010
0100
1000
0001
,
1000
0010
0100
1000
,
0100
0001
0100
0010
,
2000
0000
0000
0000
0000
0000
0000
0000
3000
0000
0020
0000
,
0000
0000
0000
0000
0000
0000
0030
0000
0200
0000
0000
0000
,
0000
0000
0000
0000
0000
0000
0000
0000
0000
0000
0301
0000
,
0000
0000
0000
1000
0000
0000
0000
0000
0002
0000
0000
0000
,
0000
0000
0000
0000
0003
0000
0020
0000
0000
0000
0000
0000
,
0000
0000
0030
0000
0200
0000
0000
0000
0000
0000
0000
0000
,
0000
0000
0000
0000
0300
1000
0000
0000
0000
0000
0001
0000
,
0000
1000
0000
0010
,
0000
0001
0000
0010
,
0000
1000
0000
0001
,
0000
0010
0000
1000
,
0000
0010
0000
0001
,
0000
0100
0000
0010
,
0000
1000
0000
0001
,
0000
1000
0000
0001
,
0000
0000
0000
1000
0000
0010
0000
0100
,
0000
0010
0000
1000
0000
0100
0000
0010
,
0000
0001
0000
1000
0000
0100
0000
0010
,
0000
0100
0000
1000
0000
0010
0000
0100
,
0000
0001
0000
0000
0000
0000
0000
0000
;

//--------------- dance-single - ----------------
#NOTEDATA:;
#STEPSTYPE:dance-single;
#DESCRIPTION:;
#DIFFICULTY:Easy;
#METER:10;
#RADARVALUES:0,0,0,0,0;
#NOTES:
0000
0000
0000
0000
,
0000
0000
0000
0000
,
0000
0000
0000
0000
,
1000
0100
1000
0100
,
0010
0001
0010
0001
,
1000
0010
1000
0010
,
0100
0001
0100
0001
,
1000
0100
0001
0100
,
1000
0010
0001
0010
,
1000
0100
0010
0001
,
1000
0010
0100
0001
,
1000
0001
1000
0001
,
1000
0001
1000
0001
1000
0001
1000
0001
,
0000
0000
0000
0000
,
0000
0000
0000
0000
,
0000
0000
0000
0000
,
0000
0000
0000
0000
,
0000
0000
0000
0000
,
0000
0000
0000
0000
,
2000
3002
0203
0320
,
0032
0000
0023
2030
,
3002
0000
0023
0000
,
0230
0000
2300
0000
,
3002
0203
2300
3200
,
0320
0000
2030
3200
,
0320
0000
2030
0000
,
3020
0000
0032
0000
,
1003
0010
0100
0010
,
1000
0001
0010
0001
,
1000
0100
0010
0100
,
1000
0001
M100
0010
,
0100
0000
0001
0010
,
010M
1000
0100
1000
,
0001
0100
001M
1000
,
0010
0000
1000
010M
,
0010
0001
0010
0100
,
10M0
0000
0001
0100
,
0010
1000
0M01
0000
,
0010
0000
0100
1000
,
1000
0000
0002
0000
0000
0023
0000
0000
,
0230
0000
0000
2300
0000
0000
3020
0000
,
0000
0230
0000
0000
0301
0000
0010
0000
,
1000
0010
0001
0100
,
1000
0100
0001
0010
,
0100
0001
0100
1000
,
0010
0000
0000
0100
0000
0000
0001
0000
0000
0000
0001
0000
,
0010
0000
0000
0000
0000
0000
0010
0000
0000
0000
0010
0000
,
0100
0000
0000
0000
0000
0000
0100
0000
0000
0000
0100
0000
,
1000
0000
0000
0000
0000
0000
1000
0000
0000
0000
0001
0000
,
1000
0000
0000
0000
0001
0000
1000
0000
0000
0000
1000
0000
,
0010
0000
0000
0000
0000
0000
0100
0000
0000
0000
0100
0000
,
0001
0000
0000
0000
0000
0000
0010
0000
0000
0000
0010
0000
,
0100
0000
0000
0000
0100
0000
0010
0000
0000
0000
0010
0000
,
0001
0000
0000
0000
0001
0000
1000
0000
0000
0000
1000
0000
,
0100
0000
0000
0000
0000
0000
0010
0000
0000
0000
0010
0000
,
0001
0000
0000
0000
0000
0000
0100
0000
0000
0000
0100
0000
,
0010
0000
0000
0000
1000
0000
0001
0000
0000
0000
0001
0000
,
1000
0000
0000
0000
1000
0000
0001
0000
0000
0000
0001
0000
,
0010
0000
0000
0000
0010
0000
0100
0000
0000
0000
0100
0000
,
1000
0000
0000
0000
0001
0000
1000
0000
0000
0000
1000
0000
,
0010
0000
0000
0000
0010
0000
0100
0000
0000
0000
0100
0000
,
0001
0000
0000
0000
0001
0000
1000
0000
0000
0000
0000
0000
,
0000
0000
0000
0000
,
1000
0100
1000
0010
,
0100
0000
0000
0001
0000
0000
0010
0000
0000
0100
0000
1000
,
0100
0010
0001
0100
,
0010
0000
0000
1000
0000
0000
0100
0000
0000
1000
0000
0010
,
0100
1000
0100
0001
,
0010
0000
0000
0100
0000
0000
0010
0000
0000
0001
0000
1000
,
0010
0001
0010
0100
,
0001
0000
0001
0010
0000
0010
0100
0000
0100
1000
0000
1000
,
0001
0100
0001
0010
,
0100
0000
0000
1000
0000
0000
0010
0000
0000
0100
0000
0001
,
0100
0010
1000
0100
,
0010
0000
0000
0001
0000
0000
0100
0000
0000
0001
0000
0010
,
0100
0001
0100
1000
,
0010
0000
0000
0100
0000
0000
0010
0000
0000
1000
0000
0001
,
0010
1000
0010
0100
,
1000
0000
1000
0010
0000
0010
0100
0000
0100
0001
0000
0001
,
2000
0000
0000
0000
0000
0000
0000
0000
3100
0000
0200
0000
,
0000
0000
0000
0000
0000
0000
0310
0000
0010
0000
0001
0000
,
0000
0000
0001
0000
0100
0000
0000
0000
0100
0000
0010
0000
,
0000
0000
0010
0000
1000
0000
0000
0000
0002
0000
0000
0000
,
0000
0000
0000
0000
0013
0000
0020
0000
0000
0000
0000
0000
,
0000
0000
0130
0000
0100
0000
1000
0000
0000
0000
1000
0000
,
0010
0000
0000
0000
0010
0100
0000
0000
0000
0100
0000
0001
,
0000
0001
0000
1000
0000
0000
0000
0000
0000
0100
0000
0000
,
0000
0001
0000
0100
,
0000
1000
0000
0001
,
0000
0100
0000
1000
,
0000
0100
0000
0001
,
0000
0010
0000
0100
,
0000
1000
0010
0100
,
0001
1000
0100
0010
,
0001
1000
0010
0100
,
0001
1000
0001
0100
,
0010
1000
0100
0010
,
0001
1000
0001
0010
,
0100
0000
0000
0000
;

//--------------- dance-single - ----------------
#NOTEDATA:;
#STEPSTYPE:dance-single;
#DESCRIPTION:;
#DIFFICULTY:Medium;
#METER:14;
#RADARVALUES:0,0,0,0,0;
#NOTES:
0000
0000
0000
0000
,
0000
0000
0000
0000
,
0000
0000
0000
0000
,
1000
0100
1000
0010
0100
0001
0101
0000
,
0010
0100
0001
0010
0100
1000
1100
0000
,
0001
0010
0001
0100
0010
1000
0000
1000
,
0100
1000
0010
0100
0001
0010
0001
0010
,
0001
0100
0001
0010
0100
1000
1100
0000
,
0001
0010
0100
1000
0010
0100
0101
0000
,
1000
1100
0100
0101
,
0001
0011
0010
1010
,
1000
0001
1000
0001
,
1000
0000
0001
0000
1000
0000
0001
0000
1000
0001
1000
0001
1000
0001
1000
0001
,
0000
0000
0000
0000
,
0000
0000
0000
0000
,
0000
0000
0000
0000
,
0000
0000
0000
0000
,
0000
0000
0000
0000
,
0000
0000
0000
0000
,
2000
0000
0001
0001
0100
0000
0100
0100
,
3020
0000
1000
1000
0100
0000
0100
0100
,
0032
0000
0010
0010
1000
0000
1000
1000
,
0203
0000
0001
0001
0010
0000
0010
0010
,
1300
0000
0010
0000
1000
0000
0001
0010
0100
0000
0010
0000
0001
0000
0100
0000
0010
0000
1000
0000
0001
0000
0000
0010
0100
0000
1000
0000
0001
0000
0000
0000
,
1000
0100
1000
0000
0001
0100
0010
0100
0001
0010
0001
0100
0010
0000
0000
1000
,
0001
0000
0010
0000
0100
0000
0000
1000
0100
0000
0010
0000
0001
0000
0000
1000
0010
0000
0100
0000
0100
0000
0001
0000
0010
0000
0100
0000
1000
0000
0002
0000
,
1003
0000
0000
0000
0010
0000
0010
0000
0000
0000
0100
0000
0100
0000
0001
0000
0001
0000
0010
0100
0010
0000
1000
0000
0010
0000
0001
0000
1000
0000
0000
0000
,
0001
0010
0001
0100
0010
0001
0010
1000
,
0001
0010
0100
0010
1000
0010
0001
1000
,
0010
0100
0010
0001
0010
1000
0100
0010
,
0001
0100
0010
1000
0M01
0000
0001
0000
,
0010
0000
0000
0000
0100
0001
0100
1000
,
001M
0100
0010
0100
,
0001
0010
0001
1000
01M0
0000
0100
0000
,
1000
0000
0000
0000
0010
0100
M001
0000
,
0001
0000
1000
0000
0010
0000
0100
0001
,
20M0
0000
3001
0001
,
0100
0000
0010
1000
0M01
0000
0000
0000
,
0010
0000
0000
1000
0000
0000
0010
0000
0000
0000
0000
0001
,
0000
0000
2000
0000
0000
3020
0000
0000
,
0230
0000
0000
0302
0000
0000
0023
0000
,
0000
0230
0000
0000
1300
0000
0010
0000
,
0001
0000
0010
1000
0001
0000
0010
0000
,
1000
0000
0010
0001
1000
0000
0100
0000
,
0001
0000
0100
1000
0001
0000
0100
0000
,
1000
0000
0000
0100
0000
0000
0001
0000
0000
1000
0000
0000
0001
0000
0000
0000
0000
0000
0000
0000
0001
0000
0000
0000
,
0010
0000
0000
0000
0010
0000
0100
0000
0000
0000
0100
0000
,
1000
0000
0000
0000
1000
0000
0010
0000
0000
0000
0010
0000
,
0100
0000
0000
0000
0100
0000
0001
0000
0000
0000
0001
0000
,
1000
0000
0000
0000
1000
0000
0001
0000
0000
0000
0001
0000
,
0100
0000
0000
0000
0100
0000
0010
0000
0000
0000
0010
0000
,
1000
0000
0000
0000
1000
0000
0100
0000
0000
0000
0100
0000
,
0010
0000
0000
0000
0010
0000
0001
0000
0000
0000
0010
0000
,
0100
0000
0000
0000
1000
0000
0001
0000
0000
0000
0001
0000
,
0010
0000
0000
0000
0010
0000
1000
0000
0000
0000
1000
0000
,
0010
0000
0000
0000
0010
0000
0001
0000
0000
0000
0001
0000
,
0100
0000
0000
0000
0100
0000
1000
0000
0000
0000
1000
0000
,
0100
0000
0000
0000
0100
0000
0001
0000
0000
0000
0001
0000
,
0010
0000
0000
0000
0001
0000
0100
0000
0000
0000
0100
0000
,
1000
0000
0000
0000
0010
0000
1000
0000
0000
0000
1000
0000
,
0100
0000
0000
0000
0100
0000
0010
0000
0000
0000
0010
0000
,
0001
0000
0000
0000
0001
0000
1000
0000
0000
0000
0000
0000
,
0000
0000
0000
0000
,
0001
1000
0010
0000
0001
0010
1000
1001
,
0001
0000
0010
0000
0001
0000
0100
0000
0010
1000
0010
0000
0000
0000
1000
0010
,
1000
0100
0001
0000
0100
1000
0001
1001
,
1000
0000
0010
0000
0100
0000
0000
0000
0010
0000
0001
0000
0000
0000
0010
1000
,
0001
1000
0100
0000
0001
0100
1000
1001
,
0001
0000
0100
0000
0001
0000
0010
0000
0100
1000
0100
0000
0000
0000
1000
0100
,
1000
0010
0001
0000
0010
1000
0001
1001
,
1000
0000
0100
0000
0010
0000
0000
0000
0100
0000
0001
0000
0000
0000
0100
1000
,
0001
0100
0010
0000
0001
0010
0100
0101
,
0001
0000
0010
0000
0100
0000
0000
0000
0001
0000
0100
0000
0000
0000
1000
0100
,
1000
0010
0100
0000
0010
0001
0010
0100
,
0001
0010
0001
0000
1000
0000
0000
0000
0000
0000
0110
0000
0000
0000
0001
1000
,
0001
0100
0010
0000
0001
0010
1000
1001
,
0001
0000
0010
0000
1000
0000
0001
0000
0100
0000
1000
0000
0000
0000
0001
1000
,
0001
0010
0100
1000
0001
0100
0010
1000
,
0001
0000
0001
0010
0000
0010
0100
0000
0100
1000
0000
1000
,
0001
0000
0010
0000
0001
0000
0010
0000
0001
0000
1000
0000
,
0010
0000
1000
0000
0010
0000
1000
0000
1000
0000
0100
0000
,
0000
0000
0100
0000
0010
0000
0000
0000
0010
0000
1000
0000
,
0000
0000
1000
0000
0010
0000
0001
0000
1000
0000
0100
0000
,
1000
0000
0100
0000
1000
0000
0001
0000
0100
0000
0001
0000
,
0100
0000
0001
0000
0001
0000
0010
0000
0000
0000
0010
0000
,
0100
0000
0000
0000
0100
1000
0000
0000
0000
0010
0000
0100
,
0000
0001
0000
1000
0000
0000
0100
0000
0000
1100
0000
0000
,
0000
0000
0001
0100
0001
0000
0010
0000
,
1000
0010
0001
1000
,
0010
0000
0100
0001
,
0010
0100
1000
0000
0010
0000
0100
0000
,
0010
1000
0100
0010
,
0001
0100
0010
0000
0100
0000
0010
0000
,
1000
0100
0010
0001
,
1000
0000
0000
0001
0000
0010
0000
0100
,
0000
0010
0000
0001
0000
0100
0000
0010
,
0000
1000
0000
0001
0000
0100
0000
0010
,
0000
0100
0000
0001
0000
0010
0000
0100
,
0000
1000
0000
0000
0000
0000
0000
0000
;

//--------------- dance-single - ----------------
#NOTEDATA:;
#STEPSTYPE:dance-single;
#DESCRIPTION:;
#DIFFICULTY:Hard;
#METER:16;
#RADARVALUES:0,0,0,0,0;
#NOTES:
0000
0000
0000
0000
,
0000
0000
0000
0000
,
0000
0000
0000
0000
,
1000
0000
0010
0000
1000
0000
0001
0010
0001
0000
0010
0000
0011
0000
0000
0000
,
0001
0000
0100
0000
0001
0000
1000
0100
1000
0000
0100
0000
1100
0000
0000
0000
,
0001
0000
0010
0000
0001
0000
0010
1000
0000
1010
0000
0000
0000
0000
1100
0000
,
0101
0000
0000
0000
0101
0000
0000
0000
0100
0001
0100
0001
1000
0001
1000
0000
,
0001
0000
0010
0000
1000
0000
0010
0001
1000
0000
0010
0000
0101
0000
0000
0000
,
1000
0000
0100
0000
0001
0000
0100
1000
0001
0000
0100
0000
1010
0000
0000
0000
,
0001
0010
0001
0000
1000
0010
1000
0000
,
0001
0100
0001
0000
1000
0100
1000
0000
,
0001
0100
0010
1000
0001
0010
0100
1000
,
0001
0100
0010
1000
0001
0010
0100
1000
0001
0100
0010
1000
0001
0010
0100
1000
,
0002
0000
0000
0000
,
0000
0000
0000
0000
,
0000
0000
0000
0000
,
0000
0000
0000
0000
,
0000
0000
0000
0000
,
0000
0000
0000
0000
0000
0000
0000
0000
0000
0000
0000
0000
0000
0000
0000
0003
,
1000
0100
0010
0100
1000
0001
0100
0001
,
1000
0010
0100
0010
1000
0001
0010
0001
,
1000
0010
0100
0010
0001
0010
0100
0010
,
1000
0100
0010
0100
0001
0100
0010
0100
,
1000
0010
0001
0010
1000
0100
0001
0100
,
1000
0010
0100
0001
0010
0001
0100
0010
,
1000
0100
0001
0100
1000
0010
0001
0010
,
1000
0100
0010
0001
0100
0001
0010
0100
,
1000
0000
0010
0000
1000
0000
0001
0010
0001
0000
0010
0001
0010
0000
0001
0000
,
1000
0000
0010
0000
0001
0000
0010
0000
1000
0000
0010
1000
0010
0000
1000
0000
,
0001
0000
0100
0000
0001
0000
1000
0100
1000
0000
0100
1000
0100
0000
1000
0000
,
0001
0010
0100
1000
001M
0100
0010
0000
,
0100
0000
0000
0000
0001
0010
0100
1000
,
00M1
0100
0001
0100
0010
1000
0010
1000
,
0001
0010
0100
1000
001M
0100
0001
1000
,
0100
0000
0000
0000
1000
0100
M010
0001
,
0010
0001
1000
0010
0100
0001
0010
0001
,
2M00
0000
3000
0000
0001
0100
0010
1000
,
0001
0010
0100
1000
00M2
0000
0003
0000
,
0100
0000
0000
1000
0000
0000
0100
0000
0000
0000
0000
0000
0001
0000
0000
1000
0000
0000
0001
0000
0000
0000
1000
0000
,
0000
0000
0001
0000
0000
0000
2000
0000
0000
0000
0000
0000
0000
0000
0000
3200
0000
0000
0000
0000
0000
0000
0000
0000
,
0320
0000
0000
0032
0000
0000
0203
0000
,
0000
0320
0000
0000
1030
0100
0010
0100
,
1000
0100
0010
0001
1000
0010
0100
0010
,
1000
0010
0100
0001
1000
0100
0001
0100
,
1000
0100
0010
0001
1000
0010
0001
0010
,
1000
0000
0000
0010
0000
0000
0100
0000
0000
0001
0000
0000
1000
0000
0000
0000
0100
0000
0000
0000
1000
0000
0000
0000
,
0100
0000
1000
0000
0100
0000
0010
0000
0001
0000
0010
0000
,
0001
0000
0010
0000
0001
0000
1000
0000
0010
0000
1000
0000
,
0010
0000
1000
0000
0010
0000
0100
0000
0001
0000
0100
0000
,
0001
0000
0100
0000
0010
0000
1000
0000
0100
0000
1000
0000
,
0100
0000
0010
0000
0001
0000
1000
0000
0010
0000
1000
0000
,
0010
0000
0100
0000
0001
0000
1000
0000
0100
0000
0010
0000
,
0001
0000
0010
0000
0001
0000
1000
0000
0010
0000
0100
0000
,
0001
0000
0010
0000
0100
0000
1000
0000
0100
0000
0010
0000
,
0100
0000
1000
0000
0001
0000
1000
0000
0010
0000
0100
0000
,
0001
0000
0100
0000
0010
0000
1000
0000
0100
0000
0010
0000
,
0001
0000
0010
0000
0100
0000
1000
0000
0001
0000
0100
0000
,
0010
0000
0100
0000
0010
0000
1000
0000
0000
0000
1000
0000
,
0100
0000
0000
0000
0100
0000
0001
0000
0000
0000
0000
0000
,
1001
0000
0000
0000
0000
0000
0001
0000
1000
0000
0001
0000
,
1000
0000
0001
0000
1000
0000
0001
0000
1000
0000
0001
0000
,
1000
0000
0001
0000
1000
0000
0001
0000
0000
0000
0000
0000
,
0000
0000
0000
0000
,
1000
0100
1000
0100
0000
0000
0010
0001
0010
0001
0000
0000
,
1000
0010
1000
0010
0000
0000
1000
0100
0010
0100
0010
0001
,
1000
0010
1000
0010
0000
0000
0100
0001
0100
0001
0000
0000
,
1000
0100
1000
0100
0000
0000
1000
0001
0100
0010
0100
0010
,
1000
0100
0010
0100
0000
0000
1000
0010
0100
0010
0000
0000
,
1000
0100
0010
0001
0000
0000
0100
0001
0010
0100
1000
0010
,
1000
0001
0010
0001
0000
0000
0100
0010
1000
0100
0000
0000
,
1000
0010
0100
0001
0010
0001
1000
0100
0010
0001
0100
0001
,
1000
0100
0001
0100
0000
0000
1000
0010
0100
0001
0000
0000
,
0010
0100
0010
0001
0000
0000
1000
0010
0100
0010
0100
0001
,
1000
0010
0001
0010
0000
0000
1000
0100
0010
0001
0000
0000
,
0100
0010
0100
0001
0000
0000
1000
0001
0010
0100
0010
0100
,
1000
0010
0100
0010
0000
0000
1000
0100
0010
0001
0000
0000
,
0100
0010
0100
0010
0000
0000
1000
0001
0010
1000
0010
0001
,
1000
0010
1000
0001
0010
0001
1000
0100
1000
0001
0100
0001
,
1000
0001
0010
0100
0010
0100
1000
0001
0100
0010
0100
0010
,
1000
0000
0010
0000
1000
0000
0010
0000
1000
0000
0001
0000
,
0010
0000
0001
0000
0010
0000
0001
0000
1000
0000
0001
0000
,
1000
0000
0001
0000
1000
0000
0100
0000
0010
0000
0001
0000
,
0100
0000
0010
0000
1000
0000
0001
0000
1000
0000
0100
0000
,
1000
0000
0100
0000
1000
0000
0001
0000
0100
0000
0001
0000
,
0100
0000
0001
0000
0100
0000
0010
0000
0100
0000
0010
0000
,
1000
0000
0100
0000
0010
0001
0000
0100
0000
0010
0000
0100
,
0000
0001
0000
1000
0000
0100
0000
1000
0000
0001
0000
0100
,
0000
0010
0000
0100
0000
0001
0000
0010
0000
0100
0000
1000
,
0000
0001
0000
1000
0000
0001
0000
0100
0000
0010
0000
1000
,
0000
0001
0000
0010
0000
0001
0000
0100
0000
0010
0000
1000
,
0000
0100
0000
1000
0000
0010
0000
1000
0000
0010
0000
1000
,
0000
0010
0000
0100
0000
0001
0000
0100
0000
0001
0000
0100
,
0000
0001
0000
1000
0000
0100
0000
1000
0000
0001
0000
0010
,
0000
0001
0000
1000
0000
0010
0000
0100
0000
0001
0000
0010
,
0000
0100
0000
1000
0000
0000
0100
0000
0000
0010
0000
0000
,
0001
1000
0001
0010
,
0100
1000
0010
0100
,
0001
1000
0001
0100
,
0010
0000
0000
0000
;

//--------------- dance-single - ----------------
#NOTEDATA:;
#STEPSTYPE:dance-single;
#DESCRIPTION:;
#DIFFICULTY:Challenge;
#METER:18;
#RADARVALUES:0,0,0,0,0;
#NOTES:
0000
0000
0000
0000
,
0000
0000
0000
0000
,
0000
0000
0000
0000
,
1000
0000
0100
0000
1100
0000
0000
0001
0100
0001
0100
0000
0101
0000
0000
1000
,
0100
0000
0001
0000
0100
0000
1000
0001
1000
0001
1000
0000
1001
0000
0000
0000
,
0001
0000
0010
0000
0011
0000
0000
1000
0010
0100
0000
0100
0001
0000
1010
0000
,
1010
0000
0000
0001
0010
0000
0000
0100
0010
0001
1000
0010
0100
0010
1000
0001
,
1000
0000
0010
0000
1010
0000
0000
0001
0010
0001
0010
0000
0011
0000
0000
0000
,
0100
0000
0001
0000
0101
0000
0000
0100
1000
0100
1000
0000
1100
0000
0000
0000
,
0001
0010
0011
0000
1000
0010
1010
0000
,
0100
0001
0101
0000
0100
1000
1100
0000
,
1000
0100
0010
0001
1000
0010
0100
0001
,
1000
0100
0010
0001
1000
0010
0100
0001
1000
0100
0010
0001
1000
0010
0100
0001
,
2000
0000
0000
0000
,
0000
0000
0000
0000
,
0000
0000
0000
0000
,
0000
0000
0000
0000
,
0000
0000
0000
0000
,
0000
0000
0000
0000
0000
0000
0000
0000
0000
0000
0000
0000
0000
0000
0000
0000
0000
0000
0000
0000
0000
0000
0000
0000
0000
0000
0000
0000
0000
0000
0000
0000
0000
0000
0000
0000
0000
0000
0000
0000
0000
0000
0000
0000
0000
0000
0000
0000
0000
0000
0000
0000
0000
0000
0000
0000
0000
0000
0000
0000
0000
3000
0000
0000
,
0002
0000
0020
0003
2000
0030
0200
3000
,
0002
0300
0000
0000
0200
0003
2000
0300
,
0020
3000
0000
0000
0002
0030
0000
0000
,
0200
0003
0000
0000
0020
0300
0000
0000
,
1030
0100
0010
0100
1000
0010
0100
0010
1000
0100
0001
0100
1000
0010
0100
0001
,
0010
0100
0010
0001
0100
0010
0100
0001
0010
1000
0010
0001
0100
0010
1000
0001
,
1000
0010
1000
0010
0001
0010
0001
0010
1000
0010
0100
0001
0010
1000
0010
0002
,
1003
0010
0100
0001
1000
0100
0010
0001
1000
0001
1000
0001
1000
0000
0001
0000
,
1000
0000
0100
1000
0010
0000
0100
0001
1000
0000
0001
0010
0001
0000
1000
0000
,
0001
0000
0100
0001
0010
0000
0100
1000
0001
0000
1000
0010
1000
0000
0001
0000
,
1000
0000
0010
1000
0100
0000
0010
0001
0100
0000
0001
0010
0100
0000
1000
0000
,
0001
0100
0010
1000
0001
0100
0010
1000
010M
0000
1000
0000
0100
0000
0000
0000
,
1100
0000
0000
0000
0000
0000
1000
0000
0001
0000
0100
0010
0100
0000
0001
0010
,
M001
0010
0100
1000
0001
0100
0010
1000
,
0001
0000
0010
1000
0010
0000
0001
1000
0M01
0000
0010
0000
0100
0000
0000
0000
,
1100
0000
0000
0000
0000
0000
0001
0000
1000
0000
0001
1000
0M01
0000
0010
0000
,
0001
0000
0000
0000
0100
0000
0010
0000
1000
0000
0001
0000
0010
0000
0100
1000
,
00M1
0000
0100
0000
0001
0000
0100
0000
0000
0000
0000
0000
0001
0000
0000
0010
0000
0000
0100
0000
0000
1000
0000
0000
,
0001
0000
0010
0001
0100
0010
1000
0100
200M
0000
0000
0000
3000
0000
0000
0000
,
0010
0000
0000
0001
0000
0000
0010
0000
0000
0000
0000
0000
1000
0000
0001
0000
1000
0000
0001
0000
0000
0000
1000
0000
,
0000
0000
0000
0000
0001
0000
0000
0000
0000
0000
0000
0000
1000
0000
0000
0100
0000
0000
0010
0000
0000
0100
0000
0000
1000
0000
0000
0001
0000
0000
1000
0000
0000
0010
0000
0000
0100
0000
0000
0010
0000
0000
1000
0000
0000
0001
0000
0000
,
0020
0000
0000
0000
0000
0000
0000
0000
0000
0000
0000
0000
0031
0010
0100
0000
0010
0000
0001
0000
1000
0000
0010
0000
0100
0000
1000
0000
0100
0000
0010
0000
,
1000
0000
0000
0001
0000
0000
0010
0000
0100
0000
1000
0000
0001
0000
0000
1000
0000
0000
0001
0000
0100
0000
0010
0000
1000
0000
0100
0000
0010
0000
0001
0000
0010
0000
0100
0000
1000
0000
0100
0000
0010
0000
0001
0000
0010
0000
0100
0000
,
1000
0100
0010
0001
0010
0100
1000
0100
0010
0100
0010
0001
1000
0010
0100
0001
0100
0010
1000
0010
1000
0100
1000
0010
,
1000
0010
0100
0001
0100
0010
0100
0001
0100
0010
0100
0010
1000
0100
0010
0001
0010
0100
1000
0010
0100
0001
0100
0010
,
1000
0100
0010
0100
0010
0001
0100
0010
0100
0001
0010
0100
1000
0010
1000
0001
0010
0001
1000
0100
1000
0001
0100
0001
,
1000
0001
0010
0100
0010
0100
1000
0001
0100
0001
1000
0001
1000
0000
0000
0000
0100
0000
0000
0000
0010
0000
0000
0000
,
0100
0000
0010
0000
0001
0000
1000
0000
0010
0000
0100
0000
,
0010
0000
0100
0000
0001
0000
1000
0000
0100
0000
0010
0000
,
0100
0000
1000
0000
0001
0000
1000
0000
0100
0000
1000
0000
,
0001
0000
0100
0000
0001
0000
1000
0000
0010
0000
0100
0000
,
0010
0000
1000
0000
0001
0000
1000
0000
0100
0000
0010
0000
,
0001
0000
0010
0000
0100
0000
1000
0000
0010
0000
0100
0000
,
0001
0000
0010
0000
0100
0000
1000
0000
0001
0000
0100
0000
,
0010
0000
0100
0000
0010
0000
1000
0000
0100
0000
0010
0000
,
0100
0000
1000
0000
0010
0000
0100
0000
0001
0000
0010
0000
,
0100
0000
0010
0000
0001
0000
1000
0000
0100
0000
0010
0000
,
0001
0000
0100
0000
0010
0000
1000
0000
0001
0000
0010
0000
,
0100
0000
0010
0000
0001
0000
1000
0000
0100
0000
0001
0000
,
0100
0000
1000
0000
0001
0000
1000
0000
0010
0000
0001
0000
,
0010
0000
1000
0000
0001
0000
1000
0000
0001
0000
0010
0000
,
0100
0000
1000
0000
0001
0000
1000
0000
0001
0000
0100
0000
,
0010
0000
0000
0000
1000
0000
0000
0000
0001
0000
0000
0000
2000
0000
0000
3200
0000
0000
0320
0000
0000
0032
0000
0000
,
0000
0000
0000
0203
0000
0000
0000
0000
0000
0320
0000
0000
0000
0000
0000
0000
2030
0000
0000
0000
0000
0000
0000
0000
3000
0000
0000
0000
0000
0000
0000
0000
,
0001
0010
0100
0010
0001
1000
0010
0100
0001
1000
0100
0010
,
0001
0100
0010
0100
0010
1000
0001
0010
1000
0010
0001
1000
,
0010
0100
0001
1000
0100
0010
0100
1000
0010
0100
0001
0010
,
0001
0100
0010
0100
0001
1000
0001
0010
0100
0010
0100
1000
,
0001
0100
1000
0100
0001
1000
0100
1000
0010
0100
0001
0010
,
0001
0100
0010
0100
0001
0010
0100
1000
0001
0100
0010
1000
,
0001
0010
0001
0100
0010
1000
0100
0010
0001
0010
0100
1000
,
0010
0100
0001
0010
0001
1000
0100
0010
0001
1000
0010
0100
,
0001
0010
0100
0010
0001
1000
0010
0100
0001
1000
0100
0010
,
0001
0100
0010
0100
0010
1000
0001
0010
1000
0010
0001
1000
,
0010
0100
0001
1000
0100
0010
0100
1000
0010
0100
0001
0010
,
0001
0100
0010
0100
0001
1000
0001
0010
0100
0010
0100
1000
,
0001
0100
1000
0100
0001
1000
0100
1000
0010
0100
0001
0010
,
0001
0100
0010
0100
0001
0010
0100
1000
0001
0100
0010
1000
,
0001
0010
0001
0100
0010
1000
0100
0010
0001
0010
0100
1000
,
0010
0100
0001
0010
0001
1000
0100
0010
0001
1000
0010
0100
,
0001
0000
0100
0000
0001
0000
0100
0000
0001
0000
1000
0000
,
0100
0000
1000
0000
0100
0000
1000
0000
0001
0000
0100
0000
,
0001
0000
0010
0000
0100
0000
1000
0000
0010
0000
1000
0000
,
0100
0000
0010
0000
0100
0000
1000
0000
0001
0000
0010
0000
,
0001
0000
0010
0000
0001
0000
1000
0000
0010
0000
1000
0000
,
0010
0000
1000
0000
0001
0000
0010
0000
0100
0000
1000
0000
,
0010
0000
0100
0000
0001
1000
0000
0100
0000
0001
0000
0100
,
0000
1000
0000
0001
0000
0100
0000
0001
0000
1000
0000
0100
,
0000
1000
0000
0010
0000
0100
0000
0001
0000
1000
0000
0100
,
0000
0010
0000
0001
0000
0100
0000
0010
0000
0100
0000
1000
,
0000
0100
0000
0010
0000
1000
0000
0100
0000
0010
0000
0001
,
1000
0001
1000
0001
0000
0010
0000
0001
0000
0100
0000
0010
,
0000
1000
0000
0100
0000
1000
0000
0010
0000
0100
0000
0001
,
1000
0001
1000
0001
0000
0010
0000
0100
0000
0010
0000
0100
,
0000
1000
0000
0001
0000
1000
0000
0010
0000
0100
0000
0010
,
0000
0000
0100
0000
0000
0000
0001
0000
0000
0010
0000
0000
0001
0000
0000
0100
0000
0000
0010
0000
0000
1000
0000
0000
,
0100
1000
0010
0100
0001
0010
0001
0100
,
0010
1000
0001
0100
0001
0010
0100
1000
,
0010
1000
0100
0010
0001
0100
0001
1000
,
0001
2000
3000
0000
0000
0000
0000
0000
;
