#TITLE:Friends [Sonic Mania];
#SUBTITLE:;
#ARTIST:Hyper Potions;
#TITLETRANSLIT:;
#SUBTITLETRANSLIT:;
#ARTISTTRANSLIT:;
#GENRE:;
#CREDIT:LeKrispyKreme;
#MUSIC:Sonic Mania Opening Animation.mp3;
#BANNER:Maxresdefault (2).jpg;
#BACKGROUND:BOF2013 - Circuitry [Include BGA].mp4;
#CDTITLE:;
#SAMPLESTART:0.000;
#SAMPLELENGTH:0.000;
#SELECTABLE:YES;
#OFFSET:-0.083;
#BPMS:0.000=140.000;
#STOPS:;
#BGCHANGES:;
#FGCHANGES:;

//--------------- dance-single - ----------------
#NOTES:
     dance-single:
     :
     Hard:
     12:
     0,0,0,0,0:
0000
0000
0000
0000
,
0000
0000
0010
0100
0010
0100
0010
0100
,
0010
0001
0010
0100
0010
0100
0010
0100
,
0010
1000
0010
0100
0010
0100
0010
0100
,
0010
0001
0010
0100
0010
0100
0001
0010
,
0001
0010
1001
0100
0010
0100
0010
0100
,
0010
0001
0010
0100
0010
0100
0010
0100
,
0010
1000
1001
0100
0010
0100
0010
0100
,
0010
0001
2100
0000
3100
0000
0210
0000
,
0310
0000
0012
0000
0013
0100
0010
0100
,
0010
0001
0010
0100
0010
0100
0010
0100
,
0010
1000
2001
0100
3010
0100
0010
0100
,
0010
0001
2100
0000
3100
0000
0210
0000
,
0310
0012
0003
0100
,
0000
0000
0010
1000
0010
1000
0010
1000
,
0010
0100
0010
0100
1001
0000
0000
0000
0100
0000
1000
0100
0010
0000
0000
0000
,
0010
0000
0001
0000
0010
0000
0010
0000
0100
0000
0100
0000
1000
0000
0000
0100
,
0000
0000
2000
0000
0000
0000
0000
0000
0000
3000
1000
0100
0010
0000
0000
0001
,
0000
0010
0100
0000
0100
0000
0010
0000
,
0010
0000
0000
0000
0100
0000
0000
0000
0010
0000
1000
0000
0010
0000
0000
0010
,
0000
0001
0000
0010
0010
0100
0100
0010
,
0000
0000
1000
0000
0100
0000
0000
0000
1000
0000
1000
0000
0010
0000
0000
0010
,
0000
0002
0013
0000
0100
0000
0020
0000
,
0000
0000
0000
0030
1001
0000
1000
0000
0001
0000
1000
0000
0001
0000
1000
0100
,
0010
0000
0001
0000
0010
0000
0100
0000
0010
0000
0100
0000
0010
0000
1000
0100
,
0010
0000
0001
0000
0010
0000
0100
0000
0010
0000
0100
0000
0010
0000
1000
0100
,
0010
0000
0001
0000
0010
0000
0100
0000
0010
0000
1000
0100
0001
0000
0010
0000
,
1000
0000
0100
0000
0010
0000
0100
0000
0010
0000
0100
0000
0010
0000
1000
0100
,
0010
0000
0001
0000
0010
0000
0100
0000
0010
0000
1000
0100
0001
0000
0010
0000
,
1000
0000
0100
0000
0010
0000
0100
0000
0010
0000
0100
0000
0010
0000
1000
0100
,
0010
0001
1000
0000
0100
0000
0010
0000
,
0001
0010
0001
0010
,
0100
0000
1000
0100
0010
0001
0010
0000
,
0100
1000
1000
0000
,
1000
0001
0010
0100
,
0010
0000
0000
0000
0001
0000
0100
0000
0010
0000
0100
0000
0010
0000
1000
0100
,
0010
0000
0001
0000
0010
0000
0100
0000
0010
0000
1000
0100
0001
0000
0100
0000
,
1000
0010
0100
0000
0001
0100
0000
2000
,
0000
3000
1001
0000
1010
0000
1100
0000
,
1010
0002
0023
0230
,
0302
0023
0230
2300
,
3200
0000
0000
0000
0301
0000
0000
0010
0000
0000
1000
0000
0010
0000
0000
0100
,
0000
0000
0010
0000
2000
0000
0000
0000
0000
0000
0000
0000
3100
0000
0000
0010
,
0000
0001
0100
0000
0010
0001
0001
0010
,
0010
0100
0001
0000
0001
0100
0100
1000
,
1000
0100
2000
0000
0000
0000
0000
0000
,
0000
3020
0000
0000
,
0000
0030
2002
0000
0000
0000
0000
0000
,
0000
0000
0000
0000
,
0000
0000
0000
0000
0000
0000
0000
0000
0000
0000
0000
0000
0000
0000
0000
0000
0000
3003
0000
0000
0000
0000
0000
0000
0000
0000
0000
0000
0000
0000
0000
0000
;
