#TITLE:Freeway Shuffle feat. Peter Griffin;
#SUBTITLE:;
#ARTIST:DJ Taka;
#TITLETRANSLIT:;
#SUBTITLETRANSLIT:;
#ARTISTTRANSLIT:;
#GENRE:;
#CREDIT:LeKrispyKreme;
#MUSIC:Songname.mp3;
#BANNER:DDR Edit - Freeway Shuffle-bg.png;
#BACKGROUND:;
#CDTITLE:;
#SAMPLESTART:0.000;
#SAMPLELENGTH:0.000;
#SELECTABLE:YES;
#OFFSET:-0.207;
#BPMS:0.000=144.986;
#STOPS:;
#BGCHANGES:;
#FGCHANGES:;

//--------------- dance-single - ----------------
#NOTES:
     dance-single:
     :
     Hard:
     9:
     0,0,0,0,0:
1000
0000
0000
1000
0002
0000
0000
0000
0000
0000
0000
0000
0000
0000
0000
0000
0000
0000
0000
0000
0000
0000
0000
0000
,
0013
0000
1000
0100
0010
0001
0010
0010
,
1000
0100
0001
0010
0100
0010
0100
0100
,
1000
0100
0001
0010
0100
0010
0100
0100
,
1000
0100
0001
0010
0100
0010
0100
0100
,
2000
0100
3002
0010
0103
0010
0100
0100
,
1000
0100
0001
0010
0100
0010
0100
0100
,
1000
0100
0001
0100
1000
0100
0001
0010
,
0100
0010
0100
0100
1000
0100
0001
0010
,
0100
0010
0100
1000
0100
0001
0010
0100
,
0010
0100
1000
0100
0001
0010
0100
0010
,
0100
0100
1000
0100
0001
0010
0100
0010
,
0100
1000
0100
0001
0010
0100
0010
0100
,
2000
0000
0100
3000
0002
0000
0010
0003
0010
0000
0100
0000
0010
0000
0100
0000
,
0100
0000
1000
0100
0001
0010
0100
0010
,
0100
0100
1000
0100
0001
0010
0100
0010
,
0100
0100
0100
1001
1001
1001
2002
3003
,
0110
0000
0001
0010
0100
0010
0001
0010
,
0100
0010
0001
0001
0010
1000
0100
0010
,
0100
0010
0100
0010
0001
0010
0001
0010
,
0100
0000
0010
0000
0010
0000
0100
0000
1000
0000
2000
0000
0000
3000
1000
0000
,
0100
0010
0100
0010
0001
0010
0010
0100
,
0100
1000
0100
0001
0010
0001
0010
0100
,
1000
0100
0010
0100
0010
0100
0010
0100
,
1000
0100
0010
1000
0100
0010
0001
0010
,
0001
0010
1001
0010
0001
0010
0001
0010
,
0100
0010
0001
0001
0010
0100
0100
0010
,
0100
0010
0100
0010
0001
0100
0001
1000
,
0001
0010
0001
0100
0100
2000
0000
3100
,
0010
0001
0100
0010
0001
0010
0010
0100
,
1000
1000
0100
0010
0001
0010
0001
0010
,
0100
1000
0010
0100
0010
0100
0010
0100
,
1000
0100
0010
0100
1000
0100
0010
0100
,
0010
0001
0001
0100
0010
0001
0010
0001
,
0010
0100
0001
0100
0001
0010
0100
0010
,
0100
1000
0010
0100
1000
0100
0010
0100
,
0010
0001
1000
0010
0100
0001
0010
0100
,
1000
0100
1000
0100
0001
0010
0010
0010
,
0100
1000
0100
0010
0001
0100
0100
0010
,
0001
0010
0100
1000
0100
0010
0001
0010
,
0100
1000
0200
0000
0000
0000
0320
0000
,
0000
0030
1002
0000
0100
0000
0023
0000
,
0000
1030
0000
0001
,
0000
0100
0000
0000
,
0000
0000
0000
0000
0000
0000
0001
0010
,
0100
1000
2002
0000
0000
0000
0000
0000
,
0000
0000
0000
3003
2000
0000
0000
0000
0000
0000
0000
0000
0000
0000
3001
0000
,
0010
0100
1000
0100
0010
0001
0010
1000
,
0010
0100
0001
0000
0100
0001
1001
0110
,
1001
0000
0001
0100
1000
0010
0100
0010
,
0010
0000
0010
0000
0001
0000
0010
0000
0001
0000
0200
0000
0000
0300
0100
0000
,
0100
1000
0100
0010
0100
1000
0100
0010
,
0010
0001
0010
0100
0010
0001
0010
0100
,
0010
0100
1000
1000
0001
0010
0010
0100
,
1000
1000
0100
0001
0010
0010
0010
0100
,
0010
0100
0001
0100
0001
0010
0001
0010
,
0010
1000
0020
0000
0000
0000
0000
0000
,
0000
0032
0000
0000
,
0000
0023
0000
0000
,
0000
0030
MMMM
0000
0000
0000
0000
0000
;
