#TITLE:Fly High ;
#SUBTITLE:;
#ARTIST:Hidaka Noriko & Rei Sakuma;
#TITLETRANSLIT:;
#SUBTITLETRANSLIT:;
#ARTISTTRANSLIT:;
#GENRE:;
#CREDIT:;
#MUSIC:Fly High.ogg;
#BANNER:Fly High.png;
#BACKGROUND:Fly High bg.png;
#CDTITLE:;
#SAMPLESTART:78.707;
#SAMPLELENGTH:12.953;
#SELECTABLE:YES;
#OFFSET:-0.179;
#BPMS:0.000=148.227;
#STOPS:;
#BGCHANGES:;
#FGCHANGES:;

//--------------- dance-single - ----------------
#NOTES:
     dance-single:
     :
     Hard:
     15:
     0,0,0,0,0:
0000
0000
0000
0000
,
0000
0000
0000
0000
,
0000
0000
0000
0000
,
0000
0000
0000
0000
,
0000
0000
0000
0000
1000
0001
1000
0001
2000
0000
0100
0000
0100
0000
3100
0000
,
0010
0000
0000
0110
0000
0000
0001
0000
1000
0010
0000
0100
0001
0000
0010
0000
,
0001
0100
0001
0100
0010
1000
0010
1000
0002
0000
0010
0000
0010
0000
0013
0000
,
0100
0000
0000
0110
0000
0000
1000
0000
0010
0100
0000
0010
1000
0000
0010
0000
,
0100
0001
0100
0010
1000
0100
1000
0100
0020
0000
0100
0000
0100
0000
0130
0000
,
1000
0000
0000
1001
0000
0000
0010
0000
0000
0000
0100
0010
0100
0010
1000
0000
,
0001
1000
0001
0010
0100
0010
0100
1000
0001
0000
0100
0000
1000
0000
0100
0000
,
0001
0000
0000
0110
0000
0000
0010
0100
0000
0000
1000
0002
0000
0000
0000
0000
,
0000
0003
1001
0000
1000
0000
0010
0100
,
0001
0010
0100
0020
0000
0130
1000
0000
,
0001
0100
1000
0100
0010
1000
0100
0002
,
0000
0103
1000
0020
0000
0130
0010
1000
,
0100
0010
1000
0010
0001
0100
0101
0000
,
1000
0100
1100
0000
1000
0100
0010
0001
,
1000
0010
1000
0100
1000
0010
0100
1000
,
0100
0000
0001
0000
0100
0000
0210
0000
0000
0000
0310
1000
0010
0000
1020
0000
,
0000
0000
1030
0000
0100
0000
1000
0100
1000
0000
2100
0000
0000
0000
3010
0000
,
1000
0000
1001
0000
0001
0000
0100
0010
,
1000
0100
0010
0200
0000
0310
0001
0000
,
1000
0010
0001
0010
0100
0001
0010
2000
,
0000
3010
0001
0200
0000
0310
0100
0001
,
0010
0100
0001
0100
1000
0010
1010
0000
,
0001
0010
0011
0000
0001
0010
0100
1000
,
0001
0100
0001
0010
0001
0100
0010
0001
,
0010
0000
1000
0000
0010
0000
0120
0000
0000
0000
0130
0001
0100
0000
0201
0000
,
0000
0000
0301
0000
0010
0000
0001
0010
0001
0000
0021
0000
0000
0000
0031
0000
,
1000
0000
0000
0000
1001
0000
0000
0000
0001
0100
0020
0000
0000
0000
1030
0000
,
0000
1000
0100
0010
0001
0000
0001
0000
,
0010
0000
0100
0000
0010
0000
0001
0000
1000
0010
2000
0000
0000
0000
3010
0000
,
0000
0100
0001
0020
0000
0000
0031
0000
,
1000
0000
0000
0000
0100
0000
0010
0000
0100
1000
0200
0000
0000
0000
0310
0000
,
0000
0010
0001
1000
0200
0000
1300
0000
,
0001
0000
0010
0000
0001
0000
1000
0000
0001
0100
0002
0000
0000
0000
0103
0000
,
0000
0010
1000
0000
0200
0000
1300
1001
,
0000
0000
0110
0000
0000
0000
1001
0000
0001
0010
0000
0010
0100
0000
1000
0001
,
0000
0010
0100
2000
0000
3100
1000
0000
,
0001
0000
0100
0010
0100
0010
0100
0000
0001
0100
0000
0100
0010
0000
1000
0010
,
0000
0000
1000
0000
0100
0000
0020
0000
0000
0000
0130
0000
1000
0000
0010
0100
,
0010
0100
0010
0000
1000
0000
0002
0000
0000
0000
0000
0000
0103
0000
2000
0000
,
0000
0000
3100
0002
0000
0000
0013
2000
,
0000
0000
3010
0002
0000
0000
0000
0000
,
0000
0003
1000
1001
,
0001
0000
0101
0000
1000
1010
0000
0001
,
0220
0000
0000
0000
0330
0100
0100
0100
,
0100
0010
0100
0000
1000
0001
0100
0010
1000
0000
0000
0000
1010
0000
0000
0000
,
0001
0000
1000
0020
0000
0130
1000
0100
,
0001
1100
1000
0101
,
0001
0000
1000
0200
0000
0310
1000
0010
,
0001
0011
1000
1100
,
0001
0000
0100
0020
0000
0031
0010
1000
,
0001
1001
1000
0110
,
0010
0000
1000
0002
0000
0013
0100
0001
,
0100
0000
1000
1002
0000
0000
0103
0201
,
0000
0000
0310
1020
0000
0000
0130
0120
,
0000
0000
1030
2002
0000
3003
0001
0020
,
0000
0000
0130
0000
1000
0000
0001
0000
0010
0000
0000
0001
0000
0000
1000
0000
,
0110
0000
0001
1002
0000
0000
0013
0021
,
0000
0000
0130
2100
0000
0000
3010
0210
,
0000
0000
0301
2002
0000
3003
1000
0001
,
0100
0000
0001
0000
1000
0001
1000
0000
0000
0000
0000
0000
0110
0000
0110
0000
;
