#TITLE:Feel A Thing;
#SUBTITLE:;
#ARTIST:Meet Me @ The Altar;
#TITLETRANSLIT:;
#SUBTITLETRANSLIT:;
#ARTISTTRANSLIT:;
#GENRE:;
#CREDIT:;
#BANNER:Feel A Thing.png;
#BACKGROUND:Feel A Thing-bg.png;
#LYRICSPATH:;
#CDTITLE:;
#MUSIC:Feel A Thing.ogg;
#OFFSET:2.132213;
#SAMPLESTART:59.760891;
#SAMPLELENGTH:17.454548;
#LASTBEATHINT:2.018346;
#SELECTABLE:YES;
#BPMS:0.000000=110.000000
;
#STOPS:
;
#BGCHANGES:7.500=Feel A Thing.avi=1.000=1=0=0=StretchNoLoop==CrossFade==,
99999=-nosongbg-=1.000=0=0=0 // don't automatically add -songbackground-
;
#KEYSOUNDS:;
#ATTACKS:;

//---------------dance-single - ----------------
#NOTES:
     dance-single:
     :
     Hard:
     15:
     0.709918,0.698438,0.269998,0.116756,1.076344,681.000000,644.000000,37.000000,16.000000,0.000000,0.000000,0.709918,0.698438,0.269998,0.116756,1.076344,681.000000,644.000000,37.000000,16.000000,0.000000,0.000000:
0000
0000
0000
0000
,
0000
0000
0000
0000
,
0000
0000
0000
0000
,
0000
0000
0000
0000
,
0000
0000
0000
0000
,
1001
0000
0000
0000
0000
0000
0000
0000
0000
0000
0000
0000
0001
0000
0100
0000
0001
0000
0100
0000
0010
0000
1000
0000
0001
0000
0000
0000
0000
0000
0011
0000
0000
0000
0000
0000
0110
0000
0000
0000
0000
0000
0000
0000
0000
0010
0000
0000
,
0100
0000
1000
0000
0001
1000
0000
1000
0010
1000
0010
1000
0010
0100
0010
0100
,
0001
0000
0000
0000
0000
0000
0000
0000
0000
0000
0000
0000
1000
0000
0100
0000
1000
0000
0100
0000
0010
0000
0001
0000
1000
0000
0000
0000
0000
0000
1100
0000
0000
0000
0000
0000
0110
0000
0000
0000
0000
0000
0000
0000
0000
0100
0000
0000
,
0010
0000
0000
0000
0001
0000
0000
0000
1000
0000
0001
0000
0000
0000
0001
0000
0010
0000
0001
0000
0010
0000
0100
0000
0010
0000
0001
1000
0001
1000
0001
1000
,
0010
0000
0000
0000
0010
0000
0000
1000
0010
0000
0100
0000
0010
1000
0001
0010
,
0100
0000
1000
0000
0010
0001
0000
0010
1000
0000
0000
0000
0001
1000
0010
0100
,
0001
0000
0000
0000
0000
0000
0000
0000
0001
0000
0000
0000
0000
0000
0001
0010
0100
0000
0000
0000
0010
0000
0000
0000
0001
0000
1000
0000
0010
0000
0100
0000
,
0001
0000
1000
0000
0100
0001
0000
0100
1000
0000
0000
1000
0001
1000
0001
0010
,
0100
0000
0000
0000
0000
0000
0000
0000
0100
0000
0000
0000
0000
0000
0010
0100
1000
0000
0000
0000
0001
0000
0000
0000
0010
0000
0001
0000
1000
0000
0010
0000
,
0100
0000
0001
0000
0010
1000
0000
0010
0001
0000
0000
0000
0001
0000
0010
0001
,
1000
0000
0000
0000
0000
0000
0000
0000
1000
0000
0000
0000
0000
0000
0001
1000
0010
0000
0000
0000
0100
0000
0000
0000
0010
0000
1000
0000
0001
0000
0010
0000
,
0100
0000
0001
0000
0100
1000
0000
1000
0010
0000
0100
0010
0100
0001
1000
0001
,
0010
0000
0000
0000
0010
0001
0010
0001
1000
0001
0000
0000
0011
0000
0001
0010
,
0100
0000
0010
0000
0100
1000
0000
0000
1000
0010
0000
0000
0010
0001
0010
1000
,
0001
0000
0000
0000
1000
0010
1000
0010
0100
0010
0000
0000
0110
0000
0100
0001
,
0100
0000
0000
0000
0010
0000
0000
0000
1000
0000
0001
0000
0000
0000
0000
0000
0001
0000
0010
0000
0000
0000
0000
0000
0010
0000
0100
0000
1000
0100
0010
0001
,
1000
0000
0000
0000
0100
1000
0100
1000
0001
1000
0000
0000
1010
0000
1000
0010
,
0100
0000
0010
0000
0100
0001
0000
0000
0001
1000
0000
0000
1000
0100
0001
0100
,
0010
0000
0000
0000
0001
0100
0001
0100
0010
0100
0000
0000
0110
0000
0010
1000
,
0001
0000
0010
0000
0001
1000
0000
0000
1000
0100
0000
0000
0100
1000
0010
0100
,
0002
0000
0000
0000
0000
0000
0013
0000
0000
0000
0010
0000
0001
0000
0100
0000
0020
0000
0000
0000
0000
0000
0130
0001
0100
0000
0000
0000
0010
0000
0000
0000
,
0100
0100
0000
0000
0002
0000
0000
0000
0013
0100
1000
0001
1000
0010
1000
0000
,
2100
0000
0000
0000
0000
0000
3100
0000
0000
0000
0100
0000
1000
0000
0010
0000
0200
0000
0000
0000
0000
0000
0310
1000
0010
0000
0000
0000
0100
0000
0000
0000
,
0010
0010
0000
0000
2000
0000
0100
0000
3100
0010
0000
0010
0001
1000
0010
0000
,
0110
0000
0000
0000
0000
0000
0100
0000
0001
0000
1000
0010
1000
0000
0000
0000
0001
0000
0000
0000
0001
0000
0000
0000
0010
0000
0001
0000
1000
0000
0100
0000
,
0000
0100
1000
0000
0010
0000
0100
1000
0000
1000
0100
0001
0010
0100
0000
0100
,
1000
0000
0000
0000
0000
0000
1000
0000
0100
0000
0010
0001
0010
0000
0000
0000
0100
0000
0000
0000
0100
0000
0000
0000
1000
0000
0010
0000
0000
0000
0101
0000
,
0000
0100
0001
0100
0001
0010
0100
1000
0000
1000
0001
1000
0100
0010
0001
0000
,
0011
0000
0000
0000
0000
0000
0001
0000
0100
0000
0010
1000
0010
0000
0000
0000
0100
0000
0000
0000
0100
0000
0000
0000
0001
0000
0010
0000
0001
0000
1000
0000
,
0000
1000
0100
0000
0010
0000
0100
0001
0000
0001
0100
1000
0010
0100
0000
0100
,
0010
0000
0000
0000
0000
0000
0010
0000
1000
0000
0001
0100
0001
0000
0000
0000
0010
0000
0000
0000
0010
0000
0000
0000
0001
0000
1000
0000
0000
0000
1010
0000
,
0000
0010
0100
0001
0100
0010
1000
0001
0000
0001
1000
0001
0010
0100
1000
0001
,
2000
0000
0000
0000
0000
0000
0000
0000
3001
0000
0010
0000
0100
0000
0010
0100
0010
0000
0001
0000
1000
0000
0000
0000
0001
0000
0100
0000
0000
0000
0001
1000
,
0002
0000
0000
0000
0000
0000
0000
0000
0013
0000
0010
0000
1000
0000
0010
0000
0000
0000
0001
0010
0100
0000
0000
0000
1000
0000
0000
0000
0010
0000
0000
0000
,
1020
0000
0000
0000
0000
0000
0000
0000
1030
0000
0100
0000
0010
0000
0001
1000
0001
0000
0010
0000
0100
0000
0000
0000
0001
0000
0100
0000
0000
0000
1000
0001
,
2000
0000
0000
0000
0000
0000
0000
0000
3010
0000
0010
0000
0001
0000
0010
0000
1000
0000
1000
0000
0000
0000
1000
0000
0000
0000
0001
1000
0001
1000
0100
0010
,
0001
0000
0000
0000
1000
0000
0000
0000
0100
0000
0001
0000
0100
0000
1000
0000
0100
0000
1000
0000
0010
0000
0000
0000
0100
0000
0010
0000
0000
0000
0100
0010
,
1000
0000
0000
0000
0001
0000
0000
0000
0010
0000
0010
0000
1000
0000
0010
0000
0001
0000
0100
0010
0100
0000
0000
0000
0010
0000
0000
0000
1000
0000
0001
0000
,
0010
0000
0000
0000
0100
0000
0000
0000
1000
0000
0010
0000
0001
0000
0010
0000
0100
0000
0001
0000
1000
0000
0000
0000
0100
0000
0010
0000
0000
0000
0001
1000
,
0010
0000
0000
0000
0100
0000
0000
0000
0001
0000
0001
0000
1000
0000
0010
0000
1000
0000
0100
0000
0000
0000
0100
0000
0001
0000
0100
0000
0010
0100
1000
0001
,
2000
3100
0000
0200
0010
0010
2300
3010
,
0002
0000
0103
0000
0000
0000
0200
0000
0010
0000
0010
0000
0301
0000
1000
0100
,
0020
0000
0000
0000
0100
0000
0100
0000
0001
0000
0031
0000
0100
0000
0010
0100
,
0000
0000
0100
0000
0001
0000
1000
0000
0010
0000
0001
0000
0010
0000
1000
0000
0000
0000
1000
0010
1000
0010
0100
0001
1000
0000
0100
0000
0000
0000
0100
0000
,
0010
0000
0000
0000
0000
0000
0010
0000
0100
0000
1000
0001
1000
0000
0000
0000
1010
0000
0000
0000
1001
0000
0000
0000
0001
0000
0010
0000
0100
0000
1000
0000
,
0000
1000
0010
0000
0110
0000
0100
1000
0000
1000
0100
0001
0010
0100
0000
0100
,
1000
0000
0000
0000
0000
0000
1000
0000
0010
0000
1000
0001
1000
0000
0000
0000
0101
0000
0000
0000
1001
0000
0000
0000
0001
0000
0010
0000
0000
0000
0110
0000
,
0000
0100
1000
0100
1000
0010
0100
0001
0000
0001
0100
0001
1000
0010
1000
0000
,
1001
0000
0000
0000
0000
0000
0001
0000
1000
0000
0001
0010
0001
0000
0000
0000
1010
0000
0000
0000
1001
0000
0000
0000
0001
0000
1000
0000
0010
0000
0100
0000
,
0000
0100
0001
0000
1100
0000
0100
0001
0000
0001
0100
1000
0010
0100
0000
0100
,
0001
0000
0000
0000
0000
0000
0001
0000
1000
0000
0010
1000
0010
0000
0000
0000
0110
0000
0000
0000
0101
0000
0000
0000
0001
0000
1000
0000
0000
0000
1010
0000
,
0000
0010
1000
0001
1000
0100
0010
0001
0000
0001
0100
0001
0010
0100
0010
0100
,
1000
0000
0000
0000
0000
0000
1000
0000
0001
0000
1000
0010
1000
0000
0000
0000
0011
0000
0000
0000
1001
0000
0000
0000
1000
0000
0001
0000
0010
0000
0100
0000
,
0000
0100
1000
0000
0101
0000
0100
1000
0000
1000
0100
0001
0010
0100
0000
0100
,
1000
0000
0000
0000
0000
0000
1000
0000
0001
0000
0010
0001
0010
0000
0000
0000
0110
0000
0000
0000
1100
0000
0000
0000
1000
0000
0010
0000
0000
0000
0110
0000
,
0000
0100
0001
0010
0001
0010
0100
1000
0000
1000
0001
1000
0010
0100
0001
0000
,
0011
0000
0000
0000
0000
0000
0010
0001
0010
0100
0010
0100
1000
0000
0000
1010
0000
0000
1001
0000
0000
0000
0000
0000
;

//---------------dance-single - ----------------
#NOTES:
     dance-single:
     :
     Medium:
     13:
     0.570228,0.585786,0.043783,0.226215,0.784454,547.000000,541.000000,6.000000,31.000000,0.000000,0.000000,0.570228,0.585786,0.043783,0.226215,0.784454,547.000000,541.000000,6.000000,31.000000,0.000000,0.000000:
0000
0000
0000
0000
,
0000
0000
0000
0000
,
0000
0000
0000
0000
,
0000
0000
0000
0000
,
0000
0000
0000
0000
,
1001
0000
0000
0000
0000
0000
0000
0000
0000
0000
0000
0000
0001
0000
1000
0000
0001
0000
1000
0000
0001
0000
1000
0000
0001
0000
0000
0000
0000
0000
0100
0000
0000
0000
0000
0000
0020
0000
0000
0000
0000
0000
0000
0000
0000
1000
0000
0000
,
0000
0000
0100
0000
0000
0130
0000
0100
0001
0000
0000
0000
0010
0000
0100
1000
,
0001
0000
0000
0000
0000
0000
0000
0000
0000
0000
0000
0000
1000
0000
0001
0000
1000
0000
0001
0000
1000
0000
0001
0000
1000
0000
0000
0000
0000
0000
0010
0000
0000
0000
0000
0000
0200
0000
0000
0000
0000
0000
0000
0000
0000
0001
0000
0000
,
0000
0000
0010
0000
0000
0310
0000
0010
1000
0000
0000
0100
0000
0010
0001
1000
,
0001
0000
0000
0000
0010
0000
0000
0010
0100
0000
1000
0000
0010
0000
1000
0000
,
0200
0000
0010
0000
0000
0310
0000
0010
0001
0000
0000
0000
0001
0000
0010
0001
,
1000
0000
0000
0000
0010
0000
0000
0010
0100
0000
0001
0000
0010
0000
1000
0000
,
0020
0000
0100
0000
0000
0130
0000
0100
1000
0000
0000
0010
0000
0010
1000
0001
,
1000
0000
0001
0100
0001
0000
0010
0000
0100
0000
0100
0000
2000
0000
0000
0001
,
0000
0000
0010
0000
0000
3010
0000
0010
0100
0000
1000
0000
0100
0000
0001
0000
,
1000
0000
0001
0010
0001
0000
1000
0100
1000
0000
0001
0000
0100
0000
0010
0000
,
0000
0000
0010
0000
1000
0000
0001
0010
0000
0010
0001
0000
1000
0100
0010
0000
,
0001
0000
0000
0000
0001
1000
0010
1000
0000
0100
0000
0000
0010
0000
0100
0010
,
0000
0000
0010
0000
0100
0010
0100
0000
1000
0000
0010
0000
0001
0000
0010
0000
,
1000
0000
0000
0000
1000
0001
0010
0001
0000
0100
0000
0000
0010
0000
0100
0010
,
0000
0000
0010
0000
0100
0010
0000
0000
0010
1000
0000
0000
1000
0001
0010
0100
,
1000
0000
0000
0000
0010
0100
0010
1000
0000
0001
0000
0000
1000
0000
0001
1000
,
0000
0000
1000
0000
0001
1000
0001
0000
0100
0000
1000
0000
0100
0000
0001
0000
,
0001
0000
0000
0000
0010
0100
0010
0001
0000
1000
0000
0000
0100
0000
1000
0010
,
0000
0000
0010
0000
0100
0010
0000
0000
0010
0100
0000
0000
0100
0001
0010
0100
,
2000
0000
0001
0000
3001
0000
0001
0100
0000
0100
0000
0001
0010
0000
0010
0000
,
0100
0100
0000
0000
0020
0000
0000
0000
0130
0000
1000
0100
1000
0001
0010
0000
,
0002
0000
1000
0000
1003
0000
1000
0100
0000
0100
0000
1000
0010
0000
0010
0000
,
0100
0100
0000
0000
0002
0000
0000
0000
1003
0100
0000
0100
0010
0001
1000
0000
,
1100
0000
0000
0100
1000
0000
0001
0000
1000
0000
1000
0000
0010
1000
0010
0100
,
0000
0100
0010
0000
0100
0000
0001
0010
0000
0010
0001
0010
0001
1000
0000
1000
,
0001
0000
1000
0001
0100
0000
0100
0000
1000
0000
0100
0000
0001
0010
0000
0001
,
0000
0001
1000
0001
1000
0010
1000
0100
0000
0100
1000
0100
0010
0001
1000
0000
,
1001
0000
0000
1000
0001
0000
0010
0000
0001
0000
0001
0000
0100
0001
0100
0010
,
0000
0010
0100
0000
0001
0000
1000
0010
0000
0010
1000
0001
1000
0100
0000
0100
,
1000
0000
0100
0010
0100
0000
0010
0000
0001
0000
1000
0000
0010
0100
0000
0010
,
0000
0010
1000
0010
1000
0001
0010
0100
0000
0100
0010
0100
1000
0001
1000
0000
,
0200
0000
0000
0000
0310
0001
1000
0010
0200
0000
0010
0000
0000
0310
0000
0000
,
0020
0000
0000
0000
1030
0001
0100
0001
0000
0000
0020
0000
0230
0000
2300
0000
,
3020
0000
0000
0000
0130
0001
1000
0100
0020
0000
0100
0000
0000
0130
0000
0000
,
0200
0000
0000
0000
1300
0001
0010
0001
1000
0010
0000
0010
0000
0010
0100
0010
,
0200
0000
0000
0000
0301
1000
0010
1000
0200
0000
1000
0000
0000
0310
0000
0000
,
0020
0000
0000
0000
0031
1000
0100
1000
0000
1000
0020
0000
2030
0000
3002
0000
,
0023
0000
0000
0000
0031
1000
0100
1000
0020
0000
1000
0000
0000
0130
0000
0000
,
0200
0000
0000
0000
0310
1000
0001
1000
0100
0010
0000
0010
0001
0000
1000
0000
,
1002
0000
0000
0010
0000
0000
0010
0000
0000
1000
0000
0000
1003
0000
0000
0000
,
2000
0000
0000
0100
0000
0000
0100
0000
0000
0001
0000
0000
3001
0000
0000
0000
,
0002
0000
0000
0000
0100
0000
0103
0000
2000
0000
0010
0000
0010
0000
3001
0010
,
0000
0010
0001
0010
0001
1000
0010
1000
0000
1000
0100
1000
0001
0100
0001
0000
,
1001
0000
0000
0001
1000
0000
0010
0000
0100
0000
0100
0000
0010
1000
0100
0010
,
0000
0010
0100
0000
1000
0000
0001
0010
0000
0010
0100
0010
0001
1000
0000
1000
,
0010
0000
1000
0001
0010
0000
0010
0000
1000
0000
0010
0000
0001
1000
0000
0001
,
0000
0001
0100
0001
1000
0010
0100
0001
0000
0001
0010
0100
0010
0001
1000
0000
,
1010
0000
0000
0010
1000
0000
0001
0000
1000
0000
1000
0000
0100
1000
0100
0010
,
0000
0010
0100
0000
0010
0000
0001
0100
0000
0100
0001
0100
0001
1000
0000
1000
,
0001
0000
1000
0001
0010
0000
0010
0000
1000
0000
0010
0000
0001
0100
0000
0001
,
0000
0001
1000
0001
1000
0100
1000
0010
0000
0010
1000
0100
0010
0100
0010
0100
,
1000
0000
0000
1000
0001
0000
0100
0000
0001
0000
0001
0000
0010
0001
0010
0100
,
0000
0100
0010
0000
0001
0000
1000
0100
0000
0100
1000
0001
1000
0010
0000
0010
,
1000
0000
0010
0100
0010
0000
0100
0000
0001
0000
1000
0000
0100
0010
0000
0100
,
0000
0100
1000
0100
1000
0001
0100
0010
0000
0010
0100
0010
1000
0001
1000
0000
,
0100
0000
0000
0000
0000
0000
0100
0010
0100
0010
0100
0010
0100
0000
0000
1000
0000
0000
0001
0000
0000
0000
0000
0000
;

//---------------dance-single - ----------------
#NOTES:
     dance-single:
     :
     Easy:
     9:
     0.372160,0.360484,0.051081,0.072972,0.087567,357.000000,350.000000,7.000000,10.000000,0.000000,0.000000,0.372160,0.360484,0.051081,0.072972,0.087567,357.000000,350.000000,7.000000,10.000000,0.000000,0.000000:
0000
0000
0000
0000
,
0000
0000
0000
0000
,
0000
0000
0000
0000
,
0000
0000
0000
0000
,
0000
0000
0000
0000
,
1001
0000
0001
0000
0010
0100
0010
0000
,
0001
0000
0010
0000
0000
0010
0000
0000
0100
0000
1000
0000
0100
0000
0010
0000
,
0001
0000
1000
0000
0010
0100
0010
0000
,
1000
0000
0001
0000
0000
0001
0000
0000
0100
0000
0010
0000
0100
0000
0000
0000
,
0001
0000
1000
0000
0010
1000
0001
1000
,
0100
0000
0010
0000
0100
0000
1000
0001
,
1000
0000
0010
0000
0100
0001
0100
0010
,
1000
0000
0001
0000
0010
0000
0001
1000
,
0001
0010
0100
0100
0010
0010
0001
0000
,
1000
0010
1000
1000
0001
1000
0100
0010
,
0100
0010
0010
0001
1000
0001
0100
0010
,
0000
0000
0010
0000
1000
0000
0000
0001
0000
0000
0001
0000
0010
0000
0100
0000
,
1000
0000
0000
0000
1000
0000
0000
0010
0000
0010
0000
0000
0100
0000
0000
0100
,
0000
0001
1000
0001
0010
1000
0010
0001
,
1000
0000
0000
0000
0001
0000
0000
0010
0000
0010
0000
0000
0001
0000
0000
0100
,
0000
0100
0001
0000
1000
0000
0001
0010
,
0100
0000
0000
0000
0010
0000
0000
0001
0000
0001
0000
0000
1000
0000
0000
0001
,
0000
0010
0001
1000
0100
1000
0001
0100
,
0010
0000
0000
0000
1000
0000
0000
0001
0000
0001
0000
0000
0100
0000
0000
0010
,
0000
0010
1000
0000
0001
0000
0010
0001
,
1000
0000
1000
0000
1000
0000
0000
0000
0010
0000
0000
1000
0000
0000
0001
0000
,
1000
0000
0002
0000
0013
0100
0010
0001
,
1000
0000
0001
0000
0001
0000
0000
0000
0100
0000
0000
0001
0000
0000
1000
0000
,
0001
0000
0020
0000
0130
1000
0100
0020
,
0000
0100
0000
0130
1000
0001
0100
0200
,
0000
0010
0000
0310
1000
0001
0010
0020
,
0000
0130
1000
0001
1000
0010
0100
0001
,
0000
0001
1000
0010
0000
0010
1000
0001
,
2000
0001
0000
3100
0010
0100
0010
0002
,
0000
1000
0000
0103
0010
0100
0001
0002
,
0000
1003
0010
1000
0001
0010
0100
1000
,
0000
1000
0010
0100
0000
0001
1000
0001
,
0010
0000
0000
0000
0001
0000
0010
0000
0100
0000
1000
0000
0000
1000
0000
0000
,
1000
0000
0010
1000
0000
1000
0001
0010
,
0001
0000
0000
0000
1000
0000
0010
0000
0100
0000
0001
0000
0000
0001
0000
0000
,
0001
0000
0000
0000
1000
0000
0001
0000
0010
0000
0000
0100
0000
0000
0010
0000
,
0110
0000
0000
0000
0100
0000
1000
0000
0001
0000
0100
0000
0000
0100
0000
0000
,
0100
0000
0010
0100
0000
0100
0001
1000
,
0010
0000
0000
0000
1000
0000
0001
0000
0100
0000
0010
0000
0000
0010
0000
0000
,
0010
0000
1000
0001
0010
0010
0100
1000
,
0002
0000
1000
0100
,
0023
0000
0100
0031
,
1000
0000
0000
0000
0001
0000
0001
0000
1000
0000
0010
0000
1000
0000
0000
1001
,
0000
0000
0001
0000
0010
0000
0000
0110
0000
0000
0100
0000
1000
0000
0001
0000
,
1000
0000
0010
0100
0010
1000
0001
0001
,
0000
1000
0000
1000
0100
0010
0100
0100
,
0000
1000
0001
0010
0100
1000
0001
1000
,
0000
1000
0010
0001
0000
0001
0010
1000
,
1001
0000
0001
0010
0001
1000
0010
1000
,
0000
1000
0001
0100
0001
1000
0100
0100
,
0000
0010
0010
0001
1000
0010
0100
0001
,
0000
0001
0100
1000
0000
1000
0100
0001
,
1001
0000
0001
1000
0010
1000
0100
0100
,
0000
0010
0000
0100
1000
0001
1000
1000
,
0000
0010
0100
0100
0001
1000
0100
0010
,
0000
0010
0001
1000
0010
1000
0100
0010
,
0001
0000
0001
0000
0010
0100
1001
0000
;

//---------------dance-single - ----------------
#NOTES:
     dance-single:
     :
     Beginner:
     5:
     0.185559,0.247833,0.065675,0.000000,0.000000,178.000000,169.000000,9.000000,0.000000,0.000000,0.000000,0.185559,0.247833,0.065675,0.000000,0.000000,178.000000,169.000000,9.000000,0.000000,0.000000,0.000000:
// measure 0
0000
0000
0000
0000
,  // measure 1
0000
0000
0000
0000
,  // measure 2
0000
0000
0000
0000
,  // measure 3
0000
0000
0000
0000
,  // measure 4
0000
0000
0000
0000
,  // measure 5
1001
0000
0001
1000
,  // measure 6
0000
0000
0010
0100
,  // measure 7
0010
0000
0100
0100
,  // measure 8
0000
0000
0001
1000
,  // measure 9
1001
0000
0001
0001
,  // measure 10
0010
0010
0000
0100
,  // measure 11
1000
0000
1000
1000
,  // measure 12
0010
0010
0000
1000
,  // measure 13
0001
0000
0010
0100
,  // measure 14
0000
0100
1000
0001
,  // measure 15
1000
0000
0010
0010
,  // measure 16
0000
1000
0001
1000
,  // measure 17
1001
0000
1000
0000
,  // measure 18
0100
0000
0010
0100
,  // measure 19
0010
0000
0001
0000
,  // measure 20
1000
0000
0010
0010
,  // measure 21
0010
0000
1000
0000
,  // measure 22
0001
0000
0100
0010
,  // measure 23
0100
0000
0001
0000
,  // measure 24
1000
0000
0100
0100
,  // measure 25
0010
0000
0010
0100
,  // measure 26
0100
0000
0100
1000
,  // measure 27
0001
0000
0001
0001
,  // measure 28
1000
0000
0010
0010
,  // measure 29
0110
0100
0000
0001
,  // measure 30
0001
1000
1000
0001
,  // measure 31
1000
0100
0000
0100
,  // measure 32
0010
0100
1000
0001
,  // measure 33
0001
1000
0000
1000
,  // measure 34
0010
0010
1000
0001
,  // measure 35
1000
0100
0000
0100
,  // measure 36
0010
0010
0100
1000
,  // measure 37
0001
0000
1000
1000
,  // measure 38
1000
0000
0001
0001
,  // measure 39
0001
0000
0010
0010
,  // measure 40
0010
0000
0100
0100
,  // measure 41
0110
0000
0010
0100
,  // measure 42
0010
0000
0001
1000
,  // measure 43
0001
0000
1000
0010
,  // measure 44
1000
0000
0001
0100
,  // measure 45
0001
0000
0000
0000
,  // measure 46
1000
0000
0000
0000
,  // measure 47
0001
0000
0000
0000
,  // measure 48
0000
0000
0000
0000
,  // measure 49
1001
1000
0010
0010
,  // measure 50
1000
0001
0010
0010
,  // measure 51
0001
1000
0100
0100
,  // measure 52
0000
0010
0000
0100
,  // measure 53
1000
0001
0100
0100
,  // measure 54
0001
1000
0100
0100
,  // measure 55
1000
0001
0010
0100
,  // measure 56
0000
0100
0010
0010
,  // measure 57
0100
1000
0001
0001
,  // measure 58
0001
0010
0100
0100
,  // measure 59
0100
1000
0010
0100
,  // measure 60
0010
1000
0001
1001
,  // measure 61
1001
0000
0010
0110
;
