#TITLE:Faster Z;
#SUBTITLE:;
#ARTIST:Yahpp;
#TITLETRANSLIT:;
#SUBTITLETRANSLIT:;
#ARTISTTRANSLIT:;
#GENRE:;
#CREDIT:;
#MUSIC:Faster Z.ogg;
#BANNER:Faster Z-bn.png;
#BACKGROUND:Faster Z-bg.png;
#CDTITLE:;
#SAMPLESTART:24.045;
#SAMPLELENGTH:8.889;
#SELECTABLE:YES;
#OFFSET:-0.341;
#BPMS:0.000=162.000
,151.000=648.000
,155.000=324.000
,159.000=162.000
,160.000=40.500
,161.000=20.250
,162.000=40.500
,163.000=20.250
,164.000=162.000
;
#STOPS:;
#DISPLAYBPM:162.000;
#BGCHANGES:;
#FGCHANGES:;

//--------------- dance-single - ----------------
#NOTES:
     dance-single:
     :
     Beginner:
     6:
     0,0,0,0,0:
0000
0000
0000
0000
,
0000
0000
0000
0000
,
0000
0000
0000
0000
,
0000
0000
0000
0000
,
0000
0000
0000
0000
,
0000
0000
0000
0000
,
0000
0000
0000
0000
,
0000
0000
0000
0000
,
0000
0000
0000
0000
,
1000
0000
0100
0000
,
0010
0000
0001
0000
,
1000
0010
0100
1000
,
0100
0001
0010
0100
,
1000
0000
0001
0000
,
1000
0100
0010
1000
,
0010
0001
0100
0010
,
1000
0000
1000
0000
0000
1000
0000
0000
,
0001
0010
0100
0001
,
0100
1000
0010
0100
,
0001
0000
0001
0000
0000
0001
0000
0000
,
1000
0010
0100
1000
,
0100
0001
0010
0100
,
1000
0000
0010
0000
,
0100
0010
1000
0000
,
0001
0000
0010
0000
,
0100
0010
0001
0000
,
1000
0000
0100
0000
,
0010
0100
1000
0000
,
0001
0000
0100
0000
,
0010
0100
0001
0000
,
1000
1000
1000
0100
,
0000
0000
0010
0000
,
0001
0100
0010
0001
,
0010
1000
0100
0010
,
0001
0001
0001
0100
,
0000
0000
0010
0000
,
1000
0100
0010
1000
,
0010
0001
1000
0000
,
0000
0000
0000
0000
,
0000
0000
0000
0000
,
0000
2000
3000
0002
,
1003
0000
1000
0000
0000
1000
0000
0000
,
0001
0000
0010
0000
,
0100
0000
1000
0000
,
0001
0000
0001
0000
0000
0001
0000
0000
,
1000
0000
0010
0000
,
0100
0000
0001
0000
,
1000
0100
0010
0000
,
1000
0010
0001
0000
,
0001
0200
0301
0200
,
0301
0010
0100
1000
,
0001
0100
0010
0000
,
0001
0010
1000
0000
,
1000
0200
1300
0200
,
1300
0010
0100
0001
,
1000
1000
1000
0010
,
0000
0000
0100
0000
,
0001
0010
0100
0001
,
0100
1000
0010
0100
,
0001
0001
0001
0000
,
0010
0000
0100
0000
,
1000
0010
0100
1000
,
0100
0001
0010
0100
,
1000
0010
0001
0010
,
1000
0001
0010
1000
,
0010
0001
1001
0000
;

//--------------- dance-single - ----------------
#NOTES:
     dance-single:
     :
     Easy:
     9:
     0,0,0,0,0:
0000
0000
0000
0000
,
0000
0000
0000
0000
,
0000
0000
0000
0000
,
0000
0000
0000
0000
,
0000
0000
0000
0000
,
0000
0000
0000
0000
,
0000
0000
0000
0000
,
0000
0000
0000
0000
,
0000
0000
0000
0000
,
1000
1100
0100
0110
,
0010
0011
0001
1001
,
1000
0000
0000
0000
0001
0010
0100
0000
,
0001
0100
1000
0000
0010
0100
0001
0000
,
1000
0110
0001
0110
,
1000
0000
0000
0000
0001
0100
0010
0000
,
0001
0010
1000
0000
0100
0010
0001
0000
,
1100
0000
0011
0000
0000
1001
0000
0000
,
1000
0010
0100
0000
0010
1000
0100
0000
,
0010
0001
0100
0010
1000
0000
0001
0000
,
1010
0000
0101
0000
0000
0110
0000
0000
,
0001
0010
0100
0000
0010
0001
0100
0000
,
0010
1000
0100
0000
0010
0001
1000
0000
,
0001
0010
0100
0001
,
0100
0000
1000
0001
1000
0000
0000
0001
,
1000
0100
0010
1000
,
0010
0000
0001
1000
0001
0000
0000
1000
,
0001
0100
0010
0001
,
0010
0000
1000
0001
1000
0000
0000
0001
,
1000
0010
0100
1000
,
0100
0000
0001
1000
0001
0000
0000
0000
,
0011
1100
1001
0010
,
0000
0100
0001
0000
,
1000
0100
0010
0001
,
0100
0010
0100
0010
0100
0010
0100
0000
,
1010
0101
1001
0010
,
0000
0100
1000
0000
,
0001
0100
0010
1000
,
0100
0010
0100
0010
0100
0010
0000
0000
,
0000
0000
0000
0000
,
0000
0000
0000
0000
,
1000
0000
0000
0000
0000
0000
0000
0000
0000
0000
0000
0000
0000
0000
0000
0000
2000
0000
0000
0000
0000
0000
0000
0000
0000
0000
0000
0000
0000
0000
0000
3000
0001
0000
0000
0000
0000
0000
0000
0000
0000
0000
0000
0000
0000
0000
0000
0000
0002
0000
0000
0000
0000
0000
0000
0000
0000
0000
0000
0000
0000
0000
0000
0003
,
1100
0010
0001
0001
,
1000
0010
0100
0001
,
0010
0010
1000
1000
,
0101
0010
1000
1000
,
0001
0010
0100
1000
,
0010
0010
0001
0001
,
1000
0100
0010
0000
1000
0000
0010
0000
,
0001
0100
0010
0000
0001
0000
0010
0000
,
1000
0200
1300
0200
,
1300
0010
0100
0001
0010
0100
1000
0000
,
0001
0100
0010
0000
0001
0000
0010
0000
,
1000
0100
0010
0000
1000
0000
0010
0000
,
0001
0200
0301
0200
,
0301
0010
0100
1000
0010
0100
0001
0000
,
1010
0101
1001
0010
,
0000
0100
0001
0000
,
1000
0010
0100
0001
,
0010
0100
0010
0100
0010
0100
0010
0000
,
0101
0000
1010
0000
1001
0000
0000
0010
,
0010
0000
0100
0000
1000
1000
0000
0000
,
0001
0010
0100
1000
,
0010
0100
0010
0100
0010
0100
0010
0100
,
0001
0010
0001
0000
1000
0010
1000
0000
,
0001
0100
0001
0000
1000
0100
1000
0000
,
0001
0110
1001
0000
;

//--------------- dance-single - ----------------
#NOTES:
     dance-single:
     :
     Medium:
     12:
     0,0,0,0,0:
0000
0000
0000
0000
,
0000
0000
0000
0000
,
0000
0000
0000
0000
,
0000
0000
0000
0000
,
0000
0000
0000
0000
,
0000
0000
0000
0000
,
0000
0000
0000
0000
,
0000
0000
0000
0000
,
0000
0000
0000
0000
,
1000
0100
1000
0000
0001
0100
0001
0000
,
1000
0100
0001
0000
1000
0010
0001
0000
,
1000
0100
0010
1000
0010
0001
1000
0100
,
0001
0100
0010
0001
0100
0010
1000
0000
,
0001
0100
1000
0000
0001
0010
1000
0000
,
0001
0100
0010
0001
0010
1000
0001
0100
,
1000
0100
0010
1000
0100
0010
0001
0000
,
1100
0000
0101
0000
0000
1001
0000
0001
,
1000
0100
0001
0100
1000
0010
0100
1000
,
0100
0001
0010
0100
0001
0100
1000
0000
,
0011
0000
1010
0000
0000
0110
0000
1000
,
0001
0010
1000
0010
0001
0100
0010
0001
,
0010
1000
0100
0010
1000
0010
0001
0000
,
1000
0100
0010
0100
1000
0100
0010
0001
,
0010
0100
0010
0100
1000
0000
0000
0001
,
1000
0010
0100
0010
1000
0010
0100
0001
,
0100
0010
0100
0010
1000
0000
0001
1000
,
0001
0010
0100
0010
0001
0010
0100
1000
,
0100
0010
0100
0010
0001
0000
0000
1000
,
0001
0100
0010
0100
0001
0100
0010
1000
,
0010
0100
0010
0100
0001
0000
0000
1000
,
0011
0101
1001
0100
,
0000
0001
0010
0000
1000
0000
0000
0010
,
0001
0100
0010
0001
0010
1000
0001
0010
,
1000
0010
0100
1000
0010
0100
0001
0000
,
1100
1010
1001
0010
,
0000
1000
0100
0000
0001
0000
0000
0100
,
1000
0010
0100
1000
0100
0001
1000
0100
,
0001
0100
0010
0001
0100
0010
0000
0000
,
0000
0000
0000
0000
,
0000
0000
0000
0000
,
1000
0000
0000
0000
0100
0000
0000
0000
0010
0000
0000
0000
0001
1000
0001
1000
0000
0000
0000
0000
0000
0000
0000
0000
0000
0000
0000
0000
0000
0000
0000
0000
0001
0000
0000
0000
0010
0000
0000
0000
0100
0000
0000
0000
1000
0001
1000
0001
0000
0000
0000
0000
0000
0000
0000
0000
0000
0000
0000
0000
0000
0000
0000
0000
,
1100
0000
0011
0000
0000
0110
0000
0000
,
1000
0100
0001
0100
,
1000
0000
0001
0100
0010
1000
0000
0000
,
0101
0000
1010
0000
0000
1001
0000
0000
,
0001
0010
1000
0010
,
0001
0000
1000
0010
0100
0001
0000
0000
,
1000
0100
0010
0000
0001
0000
0010
0100
,
1000
0010
0100
0000
0001
0000
0100
0010
,
1000
0100
0002
0000
1003
0100
0002
0000
,
1003
0100
0010
1000
0010
0001
1000
0000
,
0001
0100
0010
0000
1000
0000
0010
0100
,
0001
0010
0100
0000
1000
0000
0100
0010
,
0001
0100
2000
0000
3001
0100
2000
0000
,
3001
0100
0010
0001
0010
1000
0001
0000
,
1010
1100
0110
0001
,
0000
0010
1000
0000
0010
0000
0000
0001
,
1000
0100
0010
1000
0010
0001
1000
0010
,
0001
0010
0100
0001
0010
0100
1000
0000
,
0101
0011
0110
0000
,
1000
0000
0100
0001
0100
0000
0000
1000
,
0001
0010
0100
0001
0100
1000
0010
0100
,
0001
0010
1000
0010
0001
1000
0010
0001
,
0010
0100
0001
1000
0100
0001
0100
1000
,
0001
0010
0100
0001
0100
1000
0001
0100
,
0010
1000
1001
0000
;

//--------------- dance-single - ----------------
#NOTES:
     dance-single:
     :
     Hard:
     15:
     0,0,0,0,0:
0000
0000
0000
0000
,
0000
0000
0000
0000
,
0000
0000
0000
0000
,
0000
0000
0000
0000
,
0000
0000
0000
0000
,
0000
0000
0000
0000
,
0000
0000
0000
0000
,
0000
0000
0000
0000
,
0000
0000
0000
0000
,
1000
0000
0000
0000
0000
0000
0000
0000
1100
0000
0000
0000
0000
0000
0000
0010
0001
0000
0000
0000
0000
0000
0000
0000
0100
0000
0000
0000
0010
0000
0000
0000
,
1000
0000
0000
0000
0000
0000
0000
0000
1010
0000
0000
0000
0000
0000
0000
0100
0001
0000
0000
0000
0000
0000
0000
0000
0010
0000
0000
0000
0100
0000
0000
0000
,
1000
0000
0010
0000
0100
0001
0010
0000
0001
0000
0100
0000
0010
1000
0100
0000
,
1000
0000
0100
0000
0010
0001
0100
0000
0010
1000
0001
0000
0010
0001
0010
0001
,
1000
0000
0000
0000
0000
0000
0000
0000
0110
0000
0000
0000
0000
0000
0000
0001
0100
0000
0000
0000
0000
0000
0010
0000
1000
0000
0000
0000
0001
0000
0000
0000
,
1000
0000
0100
0000
0010
0001
0100
0000
0001
0000
0010
0000
0100
1000
0010
0000
,
1000
0000
0010
0000
0100
0001
0010
0000
0100
1000
0001
0000
1000
0001
1000
0000
,
1100
0000
0011
0000
0110
1001
0000
0001
,
1000
0000
0000
0000
0110
0000
0001
0100
0010
0100
0001
0000
1000
0000
0100
0010
,
0100
0000
1000
0000
0010
0000
0100
0001
1000
0000
0100
0000
0010
0000
0000
0000
,
0101
0000
1010
0000
0110
1001
0000
1000
,
0001
0000
0000
0000
0110
0000
1000
0100
0010
0000
0100
0000
1000
0000
0010
0100
,
0010
1000
0101
0000
1000
0001
1000
0000
,
1000
0000
0000
0000
0110
0000
0001
0000
1000
0000
0110
0000
0001
0010
0001
0000
,
1000
0000
0000
0000
0101
0000
1000
0000
0011
0000
0000
0000
0100
1000
0000
0000
,
0001
0000
0000
0000
0110
0000
1000
0000
0000
0000
0110
0000
0001
0010
0000
0000
,
1000
0000
0000
0000
0101
0000
0000
0000
0000
0000
0110
0000
1000
0001
1000
0001
,
1000
0000
0000
0000
0110
0000
0001
0000
1000
0000
0110
0000
0001
0100
0001
0000
,
1000
0000
0000
0000
0011
0000
1000
0000
0101
0000
0000
0000
0010
1000
0000
0000
,
0001
0000
0000
0000
0110
0000
1000
0000
0000
0000
0110
0000
0001
0100
0000
0000
,
1000
0000
0000
0000
0011
0000
0000
0000
0000
0000
0110
0000
1000
0001
1000
0001
,
1000
0100
0000
0000
0010
0001
0000
0000
0100
0010
0000
0000
1000
0000
0100
0000
,
0010
0000
0100
0000
1000
0000
0001
0100
0001
0000
0010
0000
0100
0000
1000
0000
,
0001
0000
0100
0000
1010
0000
0001
0000
1000
0100
0010
0000
0100
0000
0000
1000
,
0001
0000
0000
0100
0010
0000
0000
0100
0001
0000
0010
0000
0100
0000
1000
0001
,
1000
0010
0000
0000
0100
0001
0000
0000
0010
0100
0000
0000
1000
0000
0010
0000
,
0100
0000
0010
0000
1000
0000
0001
0010
0001
0000
0100
0000
0010
0000
1000
0000
,
0001
0000
0010
0000
1100
0000
0001
0000
1000
0010
0100
0000
0001
0000
0000
0000
,
0011
1100
0101
1010
0110
1001
0000
0000
,
0000
0000
0000
0000
,
0000
0000
0000
0000
,
2000
0000
0000
0000
3000
0000
0000
0000
0000
0000
0000
0000
0000
0000
0000
0000
0001
0010
0001
0100
0010
1000
0100
1000
0010
0100
0001
0010
0001
1000
0010
0000
0000
0000
0000
0000
0000
0000
0000
0000
0000
0000
0000
0000
0000
0000
0000
0000
1000
0100
1000
0010
0100
0001
0010
0001
0100
0010
1000
0100
1000
0010
0100
0001
,
2000
0000
3000
0000
0011
0000
0000
0000
0110
0000
1001
0000
0010
0000
0001
1000
,
0010
0000
0100
0010
1000
0000
0100
0010
0001
0000
0100
0010
0100
0000
0010
1000
,
0100
0000
1000
0010
0100
0000
0001
0010
0001
0100
0010
0000
1000
0001
1000
0000
,
1010
0000
0000
0000
0101
0000
0000
0000
0110
0000
1001
0000
0010
0000
0001
1000
,
0100
0000
0010
0100
1000
0000
0010
0100
0001
0010
0100
0000
0010
0000
0100
1000
,
0010
0000
0100
0001
0010
0000
0001
0100
0010
0000
1000
0000
0100
0000
1000
0001
,
1000
0000
0000
0000
1010
0000
0100
0000
0001
0000
0110
0000
0001
1000
0001
0000
,
1000
0000
0000
0000
0101
0000
0010
0000
1100
0000
0001
0000
0010
0100
1000
0000
,
0001
0000
0000
0000
1100
0000
0001
0000
1000
0000
0110
0000
1000
0001
1000
0000
,
0001
0000
0000
0000
0110
0000
0000
0000
1000
0000
0100
0001
0100
1000
0001
1000
,
0001
0000
0000
0000
0011
0000
0100
0000
1000
0000
0110
0000
1000
0001
1000
0000
,
0001
0000
0000
0000
1100
0000
0010
0000
0101
0000
1000
0000
0010
0100
0001
0000
,
1000
0000
0000
0000
0101
0000
1000
0000
0001
0000
0110
0000
0001
1000
0001
0000
,
1000
0000
0000
0000
0110
0000
0000
0000
0001
0000
0100
1000
0100
0001
1000
0001
,
1000
0000
0110
0000
1001
0000
0011
1000
,
0010
0000
0100
0000
0010
1000
0100
0000
0010
0000
0001
0000
0100
0000
0010
0000
,
1100
1100
0011
0000
0101
0101
1010
0000
,
0110
0000
0110
0000
1000
0001
1000
0001
1000
0000
0010
0000
1001
0000
0100
0010
,
1000
0000
0110
0000
1001
0000
1100
0001
,
0010
0000
0100
0000
0010
0001
0100
0000
0010
0000
1000
0000
0100
0000
0010
0000
,
0101
1010
1010
0000
1100
0011
0011
0000
,
0110
0000
0110
0000
0001
1000
0001
1000
0001
0000
1001
0000
1001
0000
0000
0000
,
0110
0000
0110
0000
1000
0001
1000
0001
1000
0000
1001
0000
1001
0000
0000
0000
,
0110
0000
0110
0000
0001
1000
0001
1000
0001
0000
1001
0000
1001
0000
0010
0000
,
1100
0011
1001
0000
;

//--------------- dance-single - ----------------
#NOTES:
     dance-single:
     :
     Challenge:
     18:
     0,0,0,0,0:
0000
0000
0000
0000
,
0000
0000
0000
0000
,
0000
0000
0000
0000
,
0000
0000
0000
0000
,
0000
0000
0000
0000
,
0000
0000
0000
0000
,
0000
0000
0000
0000
,
0000
0000
0000
0000
,
0000
0000
0000
0000
,
1000
0100
0011
1000
0001
0100
1010
0000
,
0001
0010
1100
0001
1000
0010
0101
0000
,
1000
0001
0100
0000
0000
0000
0010
0100
0001
1000
0100
0010
0100
1000
0010
0100
,
0001
0010
0001
0100
0010
1000
0100
1000
0010
0100
0001
0010
0001
0000
1000
0000
,
0001
0100
1010
0001
1000
0100
0011
0000
,
0001
1000
0010
0000
0000
0000
0100
0010
1000
0001
0010
0100
0010
0001
0100
0010
,
1000
0100
1000
0010
0100
0001
0010
0001
0100
0010
1000
0100
1000
0000
0000
0000
,
0011
0000
0000
0000
1100
0000
0000
0000
0110
0000
1001
0000
0000
0000
0010
0001
,
1000
0010
0100
0001
1000
0001
0010
0001
0100
0010
1000
0100
1000
0010
0100
0010
,
1000
0100
0010
0001
1000
0010
0100
0001
0010
0000
0100
0000
0010
0000
0000
0000
,
1010
0000
0000
0000
0101
0000
0000
0000
0110
0000
1001
0000
0000
0000
0010
0100
,
0001
1000
0100
0010
0001
1000
0010
1000
0100
0010
0001
0100
0001
0010
0100
0010
,
0001
0100
0010
1000
0001
0010
0100
1000
0010
0000
0100
0000
0010
0000
0000
0000
,
1000
0100
1000
0010
0100
0001
0010
0100
1000
0100
0010
0001
0100
0010
1000
0100
,
1000
0010
0100
0010
1000
0000
0100
0000
0010
0000
0000
0000
0000
0000
0001
0000
,
1000
0010
1000
0100
0010
0001
0100
0010
1000
0010
0100
0001
0010
0100
1000
0010
,
1000
0100
0010
0100
1000
0000
0010
0000
0100
0000
0001
1000
0001
1000
0001
1000
,
0001
0010
0001
0100
0010
1000
0100
0010
0001
0010
0100
1000
0010
0100
0001
0010
,
0001
0100
0010
0100
0001
0000
0010
0000
0100
0000
0000
0000
0000
0000
1000
0000
,
0001
0100
0001
0010
0100
1000
0010
0100
0001
0100
0010
1000
0100
0010
0001
0100
,
0001
0010
0100
0010
0001
0000
0100
0000
0010
0000
1000
0001
1000
0001
1000
0000
,
1100
0011
1001
1000
,
0000
0000
0100
0010
0001
0000
0000
0000
0100
0000
0000
0000
0000
0000
0001
0000
,
1000
0100
1000
0010
0100
0001
0010
0001
1000
0010
1000
0100
0010
0001
0100
0001
,
1000
0001
0010
0001
0100
0010
1000
0100
1000
0000
0010
0000
0100
0000
0001
0000
,
0101
1010
1001
0001
,
0000
0000
0100
0010
1000
0000
0000
0000
0100
0000
0000
0000
0000
0000
1000
0000
,
0001
0100
0001
0010
0100
1000
0010
1000
0001
0010
0001
0100
0010
1000
0100
1000
,
0001
0100
0001
0010
0100
1000
0010
1000
0100
0000
0010
0000
0002
0000
0000
0000
,
0000
0000
0000
0000
,
0000
0000
0000
0000
,
1003
0000
0100
0000
0010
0000
0001
0000
0100
0000
0010
0000
1000
0001
1000
0001
2000
0002
0000
0000
0000
0000
0000
0000
0000
0000
0000
0000
0000
0000
0000
3003
1000
0000
0010
0000
0100
0000
0001
0000
0010
0000
0100
0000
1000
0001
1000
0001
2000
0002
0000
0000
0000
0000
0000
0000
0000
0000
0000
0000
0000
0000
0000
3003
,
1100
0000
0010
0001
1000
0000
0010
0100
0010
0000
1000
0000
0000
0000
0100
0010
,
0001
0000
0100
0000
0010
0000
0100
0000
0001
0000
0000
1000
0100
0000
0000
0010
,
0100
0000
1000
0010
0100
0001
0000
0000
,
1010
0000
0100
0001
1000
0000
0100
0010
0100
0000
1000
0000
0000
0000
0010
0100
,
0001
0000
0010
0000
0100
0000
0010
0000
0001
0000
0000
1000
0010
0000
0000
0100
,
0010
0000
1000
0100
0010
0001
0000
0000
,
1000
0100
0010
0100
1000
0000
0010
0000
0100
0000
0000
0001
1000
0100
0010
0001
,
1000
0010
0100
0010
1000
0000
0100
0000
0010
0000
0000
0001
1000
0010
0100
0001
,
1000
0100
0010
0000
0002
0000
0000
0000
1003
0010
0100
0000
0002
0000
0000
0000
,
0103
0010
1000
0001
0010
0100
0010
0001
0100
0010
1000
0001
0010
0100
0010
0100
,
1000
0010
0100
0010
1000
0000
0100
0000
0010
0000
0000
0001
0100
0010
1000
0001
,
1000
0100
0010
0100
1000
0000
0010
0000
0100
0000
0000
0001
0010
0100
1000
0001
,
1000
0010
0100
0000
0002
0000
0000
0000
1003
0100
0010
0000
0002
0000
0000
0000
,
0013
0001
1000
0010
0100
0001
0010
0100
0010
0001
1000
0010
0100
0001
0100
0000
,
1010
0101
0110
0001
,
0000
0000
0100
0010
1000
0000
0000
0000
0001
0000
0000
0000
0000
0000
1000
0000
,
0001
0010
0001
0100
0010
1000
0100
1000
0001
0100
0001
0010
0100
1000
0010
1000
,
0001
0010
0001
0100
0010
1000
0100
1000
0010
0000
0100
0000
0010
0000
1000
0000
,
1100
0000
0011
0000
0110
0000
0000
0001
,
0001
0000
0100
0010
1000
0000
0100
0000
0010
0000
0010
0000
0000
0000
0001
0000
,
1000
0010
1000
0100
0010
0001
0100
0001
1000
0100
1000
0010
0100
0001
0010
0001
,
0100
0010
1000
0001
0010
0100
0010
0001
1000
0010
1000
0100
0010
0001
0100
0001
,
0010
0001
1000
0010
0100
0001
0010
0001
1000
0100
1000
0010
0100
0001
0010
0001
,
0100
0010
1000
0001
0010
0100
0010
0001
1000
0000
0010
0000
0100
0000
0001
0000
,
1000
0110
1001
0000
;
