#TITLE:Everyone;
#SUBTITLE:;
#ARTIST:Backstreet Boys;
#TITLETRANSLIT:;
#SUBTITLETRANSLIT:;
#ARTISTTRANSLIT:;
#GENRE:;
#CREDIT:;
#MUSIC:Everyone.ogg;
#BANNER:SC2022-bn.png;
#BACKGROUND:SC2022-bg.png;
#CDTITLE:;
#SAMPLESTART:0.000;
#SAMPLELENGTH:0.000;
#SELECTABLE:YES;
#OFFSET:-0.445;
#BPMS:0.000=110.000
,129.000=106.000
,129.500=110.000
,134.000=55.000
,148.000=110.000
;
#STOPS:92.000=1.091
,148.000=1.091
;
#BGCHANGES:;
#FGCHANGES:;

//--------------- dance-single - ----------------
#NOTES:
     dance-single:
     :
     Beginner:
     1:
     0,0,0,0,0:
0000
0000
0000
0000
,
0000
0000
0000
0000
,
1001
0000
0000
0000
,
0000
0000
0000
0000
,
0001
0000
0000
0000
,
1000
0000
0000
0000
,
0010
0000
0000
0000
,
0100
0000
0000
0000
,
1001
0000
0000
0000
,
0001
0000
1000
0000
,
0010
0000
0000
0000
,
0100
0000
0000
0000
,
0001
0000
0100
0000
,
0010
0000
0000
0000
,
1000
0000
0001
0000
,
0100
0000
0000
0000
,
1001
0000
0001
0000
,
1000
0000
0000
0000
,
0001
0000
0000
0000
,
0100
0000
0000
0000
,
0010
0000
0000
0000
,
1000
0000
0000
0000
,
0001
0000
0000
0000
,
0001
0000
1001
0000
,
0000
0000
1000
0000
,
0000
0000
0010
0000
,
0000
0000
0100
0000
,
0001
0000
1000
0000
,
0000
0000
0010
0000
,
0100
0000
0001
0000
,
0000
0000
1000
0000
,
0001
0000
1000
0000
,
0000
0000
0001
0000
,
0000
0000
1000
0000
,
0000
0000
0001
0000
,
0000
0000
1000
0000
,
0100
0000
0010
0000
,
1001
0000
1001
0000
,
0000
0000
1000
0000
,
0001
0000
0100
0000
,
0000
0000
0010
0000
,
1000
0000
1000
0000
,
0000
0000
0010
0000
,
0100
0000
0001
0000
,
0000
0000
1000
0000
,
0001
0000
1001
0000
;

//--------------- dance-single - ----------------
#NOTES:
     dance-single:
     :
     Easy:
     5:
     0,0,0,0,0:
0000
0000
0000
0000
,
0000
0000
0000
0000
,
1001
0000
1000
0000
,
0001
0000
1000
0000
,
1001
1000
0001
1000
,
0010
0100
0001
1000
,
1001
0001
0100
0010
,
1000
0001
0100
0010
,
1010
2000
3000
0000
,
0001
0000
2000
3001
,
0100
0000
0000
0000
0010
0000
0000
0000
1000
0000
0000
0001
0000
0000
1000
0000
,
0000
0000
0001
0100
,
0200
0300
0010
1000
,
0001
0000
1000
0010
,
1000
0000
0000
0000
0001
0000
0000
0000
1000
0000
0000
0100
0000
0000
1000
0000
,
0000
0000
0001
1000
,
0101
0000
0000
0001
0000
0000
0000
0000
0100
0000
0000
0000
0010
0000
0000
0000
,
1000
0000
0000
0001
0000
0000
0000
0000
1000
0000
0000
0000
0010
0000
0000
0000
,
1000
0000
0000
0001
0000
0000
1000
0000
0000
0000
0000
0000
0001
0000
0000
0000
,
1000
0000
0000
0010
0000
0000
0100
0000
0000
0000
0000
0000
0001
0000
0000
0000
,
1000
0000
0000
0001
0000
0000
0000
0000
1000
0000
0000
0000
0010
0000
0000
0000
,
1000
0000
0000
0001
0000
0000
1000
0000
0000
0000
0000
0000
0001
0000
0000
0000
,
0100
0000
0000
0010
0000
0000
1000
0000
0000
0000
0000
0000
0001
0000
0000
0000
,
1001
0000
0000
0000
1000
0000
0000
0000
0001
0000
0000
0100
0000
0000
0000
0000
,
0010
0000
0000
0000
1000
0000
0000
0000
0001
0000
0000
1000
0000
0000
0000
0000
,
0001
0000
0000
0000
0100
0000
0000
0000
0010
0000
0000
1000
0000
0000
0000
0000
,
0001
0000
0000
0000
0010
0000
0000
0000
0100
0000
0000
1000
0000
0000
0000
0000
,
0001
0000
0000
0000
0100
0000
0000
0000
0001
0000
0000
1000
0000
0000
0000
0000
,
0001
0000
0000
0000
0100
0000
0000
0000
0001
0000
0000
0100
0000
0000
0000
0000
,
0001
0000
0000
0000
0100
0000
0000
0000
0010
0000
0000
1000
0000
0000
0001
0000
,
0000
0000
0000
0000
1000
0000
0000
0000
0001
0000
0000
1000
0000
0000
0010
0000
,
1000
0001
1000
0010
,
1000
0001
0100
0001
,
1000
0001
1001
0001
,
0100
0010
1000
0001
,
1000
0010
1000
0001
,
0100
0010
1000
0001
,
1001
0000
0000
0000
1000
0000
0000
0000
1001
0000
0000
0001
0000
0000
0000
0000
,
0100
0000
0000
0000
0010
0000
0000
0000
1000
0000
0000
0001
0000
0000
0000
0000
,
1000
0000
0000
0000
0010
0000
0000
0000
1000
0000
0000
0001
0000
0000
0000
0000
,
1000
0000
0000
0000
0100
0000
0000
0000
0010
0000
0000
0001
0000
0000
0000
0000
,
0100
0000
0000
0000
0010
0000
0000
0000
1000
0000
0000
0001
0000
0000
1000
0000
,
0000
0000
0000
0000
0001
0000
0000
0000
0100
0000
0000
0001
0000
0000
0100
0000
,
0001
0000
0000
0000
1000
0000
0000
0000
0010
0000
0000
1000
0000
0000
0001
0000
,
0000
0000
0000
0000
1000
0000
0000
0000
0001
0000
0000
1000
0000
0000
0010
0000
,
1000
0001
1001
0000
;

//--------------- dance-single - ----------------
#NOTES:
     dance-single:
     :
     Medium:
     9:
     0,0,0,0,0:
0000
0000
0000
0000
,
0000
0000
0000
0000
,
1001
1000
0001
0100
,
0010
1000
0001
1000
,
1001
0000
0000
0001
0000
0000
1000
0000
0010
0000
0000
0000
1000
0000
0000
0000
,
0001
0000
0000
0100
0000
0000
0010
0000
1000
0000
0000
0000
1001
0000
0000
0000
,
0001
0000
0000
0100
0000
0000
0010
0000
1000
0000
0000
0000
0001
0000
0000
0000
,
1000
0000
0000
0001
0000
0000
0100
0000
0010
0000
1000
0000
0100
0000
0000
0000
,
2100
0000
3001
0100
0000
0001
0000
0000
,
1000
0000
0000
0010
0000
0000
1000
0000
0001
0000
0000
0000
0200
0000
0000
0000
,
0310
0000
1000
0000
0100
0000
1000
0000
0001
0000
0000
0100
0000
0000
0001
0000
,
0001
0000
0000
1000
0000
0000
0001
0000
1000
0000
0000
0000
0001
0000
1000
0000
,
0020
0000
0130
0001
0000
0100
0010
0000
,
1000
0000
0000
0010
0000
0000
1000
0000
0001
0000
0100
0000
0001
0000
0000
0000
,
1000
0000
0010
0000
1000
0000
0000
0000
0001
0000
0000
1000
0000
0000
0001
0000
,
1000
0000
0000
0000
0001
0000
1000
0001
,
1000
0000
0000
1000
0000
0010
0000
0000
0100
0000
0001
0000
0100
0000
0000
0000
,
0001
0000
0000
1000
0000
0000
0020
0000
0000
0000
0030
0000
0100
0000
0001
0000
,
0100
0000
0000
0100
0000
0000
0100
0000
0000
0000
0000
0000
0010
0000
1000
0000
,
0001
0000
0000
0001
0000
0000
2000
0000
0000
0000
3000
0000
0001
0000
0100
0000
,
0001
0000
0000
1000
0000
0000
0010
0000
1000
0000
0001
0000
1000
0000
0000
0000
,
0001
0000
0000
1000
0000
0000
0020
0000
0000
0000
0030
0000
0100
0000
0001
0000
,
0100
0000
0000
0010
0000
0000
1000
0000
0001
0000
1000
0000
0010
0000
0000
0000
,
1010
0000
0000
0000
1001
0000
0000
0000
1000
0000
0000
0001
0000
0000
0100
0000
,
0001
0000
0010
0000
0001
0000
0000
0000
1000
0000
0000
0010
0000
0000
1000
0000
,
0100
0000
0010
0000
0001
0000
0000
0000
0100
0000
0000
0010
0000
0000
1000
0000
,
0001
0000
0100
0000
0001
0000
0000
0000
1000
0000
0000
0001
0000
0000
0100
0000
,
0001
0000
0000
0000
0020
0000
0000
0000
0031
0000
0000
1000
0000
0000
0010
0000
,
1000
0000
0001
0000
0100
0000
0000
0000
0001
0000
0000
0001
0000
0000
0100
0000
,
0010
0000
0000
0010
0000
0000
1000
0000
0100
0000
0000
0100
0000
0000
0010
0000
,
0001
0000
0100
0000
0001
0000
0000
0000
1001
0000
0000
1000
0000
0000
0010
0000
,
1000
0000
0000
0000
0001
0000
0000
0000
1000
0000
0000
0001
0000
0000
0100
0000
,
0001
0000
0010
0000
0001
0000
0000
0000
1000
0000
0000
0100
0000
0000
0010
0000
,
0001
0100
0001
0000
1000
0010
0100
0001
,
1000
0100
0010
0100
1000
0001
0100
0001
,
0010
0001
0100
0001
1001
1000
0010
0100
,
0001
0010
0100
0010
0001
1000
0010
1000
,
1001
0000
0000
0000
0101
0000
0000
0000
0001
0000
0000
0100
0000
0000
0001
0000
,
0010
0000
0001
0000
0100
0000
0010
0000
1000
0000
0000
0001
0000
0000
1000
0000
,
0010
0000
0100
0000
0001
0000
0010
0000
0100
0000
0000
1000
0000
0000
0010
0000
,
0100
0000
0001
0000
0010
0000
0100
0000
1000
0000
0000
0001
0000
0000
1000
0000
,
0010
0000
0100
0000
0001
0000
0010
0000
0100
0000
0000
1000
0000
0000
0010
0000
,
1000
0000
0100
0000
1000
0000
0001
0000
1000
0000
0000
0001
0000
0000
0010
0000
,
0100
0000
1000
0000
0010
0000
0100
0000
0001
0000
0000
1000
0000
0000
0100
0000
,
0010
0000
0001
0000
1000
0000
0010
0000
1000
0000
0000
0001
0000
0000
1000
0000
,
0001
1000
1100
0000
;

//--------------- dance-single - XO ----------------
#NOTES:
     dance-single:
     XO:
     Hard:
     11:
     0,0,0,0,0:
0000
0000
0000
0000
,
0000
0000
0000
0000
,
1001
0001
1000
0000
0001
0100
0001
0000
,
1000
0100
1000
0000
0001
0100
0001
0000
,
1010
0000
0010
1000
0000
0000
0100
0000
0001
0000
0100
0000
1000
0000
0001
0100
,
0001
0000
0100
0010
0000
0000
1000
0000
0100
0000
0010
0000
0001
0000
1000
0000
,
0001
0000
1000
0010
0000
0000
1000
0000
0100
0000
0001
0000
0100
0000
1000
0001
,
0010
0000
0100
1000
0000
0000
0010
0000
0100
0000
0001
0000
0100
0000
0010
0000
,
2010
0000
3001
0100
0010
1000
0100
0000
,
1000
0000
0001
1000
0000
0000
0010
0000
0100
0000
0000
0000
0002
0000
0000
0000
,
1003
0000
0100
0000
0010
0000
0001
0000
1000
0000
0000
0001
0000
0000
1000
0000
,
0001
0000
0100
0001
0000
0000
0100
0000
0010
0000
0100
0000
0001
0000
0010
0000
,
0002
0000
1003
0010
1000
0001
1000
0001
,
0010
0000
0100
0010
0000
0000
0100
0000
0010
0000
0001
0000
0100
0000
0010
0000
,
1000
0000
0001
0000
0010
0000
0100
0000
1000
0000
0000
0001
0000
0000
1000
0000
,
0010
0000
1000
0001
0000
0000
1000
0000
0100
0000
0010
0000
0001
0000
1000
0000
,
1001
0000
0001
0100
0000
0000
0001
0000
0010
0000
1000
0000
0010
0000
0001
0000
,
1000
0000
0000
0001
0000
0000
1000
0100
1000
0000
0001
0000
0100
0000
0010
0000
,
1000
0000
0000
0001
0000
0000
1000
0100
1000
0000
0001
0000
0100
0000
0010
0000
,
1000
0000
0000
0001
0000
0000
0100
0010
0100
0000
0001
0000
0010
0000
0100
0000
,
1000
0000
0000
0001
0000
0000
1000
0100
1000
0000
0001
0000
0100
0000
0010
0000
,
1000
0000
0000
0001
0000
0000
1000
0100
0010
0000
0001
0000
0100
0000
0010
0000
,
1000
0000
0000
0001
0000
0000
0100
0010
0100
0000
0001
0000
1000
0000
0001
0000
,
1001
0000
0000
0000
0100
0000
0010
1000
0001
0000
0000
0010
0000
0000
1000
0000
,
0010
0000
0001
0000
0100
0000
0010
0000
1000
0000
0000
0100
0000
0000
0001
0000
,
0100
0000
1000
0000
0010
0000
0100
0000
0001
0000
0000
0010
0000
0000
1000
0000
,
0010
0000
0001
0000
0100
0000
0010
0000
1000
0000
0000
0001
0000
0000
1000
0000
,
0010
0100
0010
0000
0100
0000
0001
0000
1000
0000
0000
0100
0000
0000
0010
0000
,
0100
0000
0001
0000
0100
0000
0010
0000
0100
0000
0000
1000
0000
0000
0010
0000
,
1000
0000
0001
0000
1000
0000
0010
0000
0100
0000
0000
0001
0000
0000
0010
0000
,
0001
0000
0100
0000
0010
0000
1000
0000
1001
0000
0000
0101
0000
0000
0001
0000
,
0200
0000
0000
0000
0310
0000
1000
0010
1000
0000
0001
0100
0000
0000
0001
0000
,
0010
0000
0001
0000
0100
0000
0010
1000
0010
0000
1000
0100
0000
0000
1000
0000
,
0001
0000
1000
0000
0010
0000
1000
0000
1010
0000
0000
0000
0010
1000
0010
0000
,
0100
0000
0001
0000
0100
0000
0000
0000
0001
0000
0010
0000
0001
0000
0000
0000
1000
0000
0000
0010
0000
0000
0200
0000
0300
0000
0000
0000
0000
0000
0000
0000
,
0001
1000
0001
0000
1000
0010
1000
0000
0001
0100
0001
0000
0100
0010
0100
0000
,
0001
0000
1000
0000
0001
0000
0000
0000
1000
0000
0010
0000
1000
0000
0000
0000
0001
0000
0000
0100
0000
0000
0010
0000
1000
0000
0000
0001
0000
0000
1000
0000
,
1001
0000
0000
0000
0101
0000
0001
0000
0100
0000
0010
1000
0000
0001
1000
0000
,
0001
0000
0100
0000
1000
0000
0100
0000
0001
0000
1000
0010
0000
1000
0100
0000
,
1000
0000
0001
0000
0100
0000
1000
0000
0100
0000
0010
1000
0000
0010
0100
0000
,
0001
0000
1000
0000
0100
0000
0001
0000
0100
0000
1000
0010
0000
1000
0001
0000
,
0100
0000
0001
0000
0100
0000
0010
0000
0110
0000
0000
0010
0000
0000
1000
0001
,
1000
0000
0001
0000
0100
0000
0001
0000
0100
0000
0010
1000
0000
0001
0100
0000
,
0001
0000
0010
0000
0001
0000
0100
0000
0101
0000
0001
0010
0000
0001
0100
0000
,
0010
0000
1000
0000
0001
0000
1000
0000
1001
0000
0000
0101
0000
0000
0010
0000
,
1020
1030
1010
0000
;

//--------------- dance-single - FS XO BU ----------------
#NOTES:
     dance-single:
     FS XO BU:
     Challenge:
     15:
     0,0,0,0,0:
0000
0000
0000
0000
,
0000
0000
0000
0000
0000
0000
0000
1001
,
0101
0100
0001
0100
0010
1000
0010
1000
,
0100
0000
0010
0000
0001
0000
0010
0000
0100
0000
1000
0000
0001
0000
1000
0001
,
1000
0000
0000
0000
0001
0000
0100
0000
00M0
0000
0100
0000
1000
0000
0001
0000
0010
0000
0100
0000
1000
0000
0100
0000
0010
0000
0000
0000
0001
1000
0001
1000
,
0001
0100
0001
0010
0M00
0010
1000
0001
0100
0010
1000
0001
1000
0000
1010
0000
,
1000
0000
0001
0000
1000
0000
0100
0000
00M0
0000
0100
0000
0001
0000
1000
0000
0100
0000
0010
0000
0001
0000
1000
0000
0010
0000
0000
0000
0100
0010
0100
0010
,
0100
0010
1000
0100
000M
0100
0010
1000
0100
0010
0001
0010
0100
0000
1000
0000
,
1001
0000
0001
0100
0000
0010
0100
0001
,
1000
0000
0001
0100
0000
0001
0100
0000
0001
0000
1000
0000
0001
0000
1000
0000
,
1100
0000
0100
0000
0010
0000
0001
0000
1000
0000
0010
0100
0010
0000
0100
0000
,
0001
0000
1000
0010
0000
0000
1000
0000
0001
0000
0100
0000
0001
0000
1000
0000
,
1020
0000
0000
0000
0130
0000
0001
1000
0000
0001
1000
0100
0010
0000
0001
0000
,
0100
0000
0001
1000
0000
0000
0001
1000
0001
0010
0100
1000
0010
0000
0100
0000
,
0001
0000
1000
0010
1000
0000
0001
0100
0010
0100
0001
0100
0010
0000
1000
0001
,
1000
0000
0001
0100
0000
0000
0010
1000
0100
1000
0001
1000
0100
0000
1000
0000
,
1001
0000
0001
0010
0000
M000
0010
0100
0001
0100
0010
1000
0001
0000
1000
0000
,
0001
1000
0010
0100
000M
0000
0100
1000
0010
0100
0001
0010
0002
0000
1003
0000
,
1001
0000
0001
0100
0000
000M
0100
1000
0010
0100
0001
1000
0001
0000
0010
0000
,
0100
0000
1000
0010
0000
0M00
0010
0001
1000
0010
0100
0001
1000
0000
0010
0000
,
1010
0000
1000
0100
0000
M000
0100
0010
1000
0001
0010
0100
1000
0000
0001
0100
,
0001
0010
0100
0010
0000
0000
0001
0100
1000
0100
0001
0100
0010
0000
1000
0000
,
1001
0000
1000
0010
0000
0000
0001
0010
1000
0010
0100
0001
0010
0000
0001
0000
,
1001
0000
0000
0000
0000
0000
0000
0000
0001
0000
0000
0000
1000
0001
1000
0001
1000
0000
0000
0000
0001
0000
0100
0000
0000
0000
0000
0000
0001
0000
0010
0000
,
1000
0010
0001
1000
0010
0000
1000
0001
1000
0000
0001
0100
0000
0000
0001
0010
,
0001
0010
1000
0010
0001
0000
1000
0000
1001
0000
1000
0010
0000
0000
1000
0001
,
0100
1000
0100
0010
0100
0000
0001
0000
1000
0100
0010
0001
0000
1000
0100
1000
,
0001
0010
0100
0010
0001
0000
1000
0000
1001
0000
0001
0100
0000
0000
0001
0010
,
1000
0010
0001
1000
0010
0000
1000
0000
1100
0000
1000
0010
0000
0000
1000
0001
,
1000
0000
0001
0100
0001
0000
0100
0000
0001
0000
1000
0010
0000
0000
1000
0100
,
0010
0001
0010
0100
1000
0000
0001
0000
1001
0000
0000
1010
0000
0000
0110
0000
,
0101
0000
0000
0000
0000
0000
0000
0000
0001
0000
0000
0000
1000
0001
1000
0001
1000
0000
0000
0000
0001
0000
0100
0000
00M0
0000
0100
0000
1000
0000
0001
0000
,
0100
0000
0010
0000
1000
0000
0001
0000
1000
0000
0000
0000
0010
0100
0010
0100
0010
0000
1000
0000
0001
0000
0010
0000
0000
0000
0100
0000
1000
0000
0010
0000
,
0100
0001
0010
0100
1000
0000
0001
0000
1M01
0000
0000
0000
0001
1000
0010
1000
,
0001
0000
0010
0000
0100
0000
1000
0000
0001
0000
0100
0000
0010
0000
0100
0000
0001
0000
0000
1000
0000
0000
0001
0000
1000
0000
0100
0000
0010
0000
0001
0000
,
1000
0000
0010
0000
0100
0000
0001
0000
1000
0000
0100
0000
0010
0000
0001
0000
1000
0000
0000
0010
0000
0000
1000
0000
0001
0000
0000
1000
0000
0000
0010
0000
,
1000
0000
0000
0001
0000
0100
0000
0000
0010
0000
1000
0000
0100
0000
1000
0000
0001
0000
0000
1000
0000
0000
0001
0000
0100
0000
0000
0010
0000
0000
1000
0000
,
1001
0000
0000
0000
0001
0000
1000
0001
1000
0000
0001
0100
0000
1000
0100
0001
,
0100
0010
1000
0001
1000
0000
0001
1000
0001
0000
0010
1000
0000
0010
0001
1000
,
0010
0100
0010
1000
0001
0000
1000
0000
1100
0000
0100
0010
0000
0001
0100
1000
,
0100
0010
0100
0010
0100
0000
0001
0000
1000
0001
1000
0010
0000
1000
0010
0100
,
0001
1000
0100
0000
1100
0000
1000
0000
1001
0000
0001
0100
00M0
0100
1000
0001
,
0100
0010
1000
0001
1000
0000
0001
0000
0101
0000
0010
0100
M000
0100
0001
0010
,
0100
1000
0010
0100
0001
0000
0010
0000
0011
0000
0001
0010
M000
0010
0100
0001
,
1000
0100
0010
0001
1000
0000
0001
0000
1001
0000
0000
1000
0000
0000
0010
0000
,
0100
0001
1000
0001
2002
0000
0000
0000
,
3003
0000
0000
0000
;

//--------------- dance-double - XO FS BU ----------------
#NOTES:
     dance-double:
     XO FS BU:
     Challenge:
     15:
     0,0,0,0,0:
00000000
00000000
00000000
00000000
,
00000000
00000000
00000000
00000000
00000000
00000000
00000000
00011000
,
00101000
00100000
00010000
10000000
00100000
01000000
00010000
00100000
,
00001000
00000000
00010000
00000000
00000100
00000000
00010000
00000000
00001000
00000000
00100000
00000000
00110000
00000000
00010000
10000000
,
00010000
00000000
00000000
00000000
10000000
00000000
01000000
00000000
00000000
00000000
00100000
00000000
00010000
00000000
00100000
00000000
00001000
00000000
00010000
00000000
00001000
00000000
00010000
00000000
00000100
00000000
00000000
00000000
00001000
00000100
00001000
00000100
,
00001000
00000000
00000010
00000100
00000000
00000001
00000100
00001000
00000100
00000010
00001000
00000100
00010000
00000000
00001000
00000000
,
00010000
00000000
00001000
00000000
01000000
00000000
00100000
00000000
00000000
00000000
10000000
00000000
01000000
00000000
00100000
00000000
00010000
00000000
00100000
00000000
00001000
00000000
00000000
00000000
00011000
00000000
00000000
00000000
00010000
00000100
00010000
00000100
,
00010000
00000010
00000100
00000010
00000000
00001000
00000001
00000100
00000010
00001000
00000100
00001000
00000100
00000000
01000000
00000000
,
01020000
00000000
00100000
00100000
00000000
10030000
00010000
01000000
,
00001000
00000000
00010000
00001000
00000000
00000000
00010000
00000000
00000010
00000000
00000100
00000000
00000001
00000000
00001000
00000000
,
00001001
00000000
00000001
00000000
00000010
00000000
00001000
00000000
00010000
00000000
00000000
01000000
00000000
00000000
10000000
00000000
,
00010000
00000000
01000000
00010000
00000000
00000000
10000000
00000000
00002000
00000000
00010000
00000000
00013000
00000000
00000100
00000000
,
00010100
00000000
00010000
00001000
00000000
00000000
00010000
00000010
00010000
00001000
00010000
00000010
00010000
00000000
00000100
00000000
,
00001000
00000000
00000001
00001000
00000000
00000000
00000010
00001000
00000001
00001000
00000100
00001000
00000001
00000000
00000010
00000100
,
00000010
00000000
00000001
00001000
00000001
00000000
00001000
00000100
00001000
00000100
00001000
00000010
00010000
00000000
00001000
00000000
,
01000000
00000000
00100000
10000000
00000000
00010000
10000000
01000000
10000000
00010000
01000000
00000000
01100000
00000000
00100000
00000000
,
10100000
00000000
10000000
00010000
00000000
00000000
00010000
00100000
01000000
00100000
00010000
01000000
00100000
00000000
01000000
00000000
,
01001000
00000000
00001000
00100000
00000000
00000000
00001000
00010000
00100000
00010000
00001000
00010000
00000100
00000000
00001000
00000000
,
00001010
00000000
00000010
00000100
00000000
00000000
00000001
00000010
00001000
00000010
00000100
00010000
00000100
00000000
00010000
00000000
,
00001000
00100000
00010000
00100000
00000000
00000000
00010000
10000000
00010000
10000000
00100000
00010000
00100000
00000000
01000000
00000000
,
00010000
00000000
00100000
00001000
00000000
00000000
00100000
00010000
00100000
01000000
00100000
00010000
00100000
00000000
00000010
00000000
,
00001000
00000001
00001000
00000001
00000000
00000000
00001000
00000100
00000010
00000001
00010000
00000100
00001000
00000000
00000100
00000000
,
00001100
00000000
00001000
00000010
00000000
00000000
00000010
00000100
00000001
00000100
00000010
00010000
00001000
00000000
00010000
00000000
,
00011000
00000000
00000000
00000000
00000000
00000000
00000000
00000000
00001000
00000000
00000000
00000000
00100000
00010000
00100000
00010000
00100000
00000000
00000000
00000000
00010000
00000000
10000000
00000000
00010000
00000000
01000000
00000000
00100000
00000000
01000000
00000000
,
00100000
00100000
00010000
01000000
00100000
00000000
10000000
00010000
10000000
00000000
00010000
01000000
00010000
00100000
00001000
00010000
,
00001000
00001000
00000100
00000010
00000001
00000000
00001000
00000000
00001010
00000000
00000010
00001000
00000100
00001000
00000010
00010000
,
00000010
00000010
00000001
00000000
00001000
00000000
00000100
00000000
00010000
00001000
00010000
00001000
00000000
01000000
00100000
01000000
,
00010000
00010000
00001000
01000000
00100000
00000000
01000000
00000000
01100000
00000000
00000000
10100000
00000000
00000000
10000000
00010000
,
01000000
01000000
10000000
00010000
01000000
00000000
00010000
00000000
00110000
00000000
00100000
00001000
00000000
00000000
00100000
00010000
,
00100000
00000000
00001000
00000000
00011000
00000000
00010000
00000100
00001000
00000000
00000010
00000100
00000000
00000000
00000001
00001000
,
00000010
00000010
00000100
00001000
00000010
00000000
00001000
00000000
00001100
00000000
00000000
00110000
00000000
00000000
00010000
00000000
,
10000000
00000000
00000000
00000000
00000000
00000000
00000000
00000000
10010000
00000000
00000000
00000000
10000000
00100000
10000000
00010000
01000000
00000000
00000000
00000000
00100000
00000000
01000000
00000000
00000000
00000000
00010000
00000000
01000000
00000000
00001000
00000000
,
00010000
00000000
00000010
00000000
00000100
00000000
00000001
00000000
00001000
00000000
00000000
00000000
00000001
00000100
00000010
00000100
00000001
00000000
00001000
00000000
00000100
00000000
00001000
00000000
00000000
00000000
00000100
00000000
01000000
00000000
00100000
00000000
,
01000000
00100000
10000000
00100000
10000000
00000000
00010000
00000000
1001M000
10000000
00100000
10000000
00010000
01000000
00001000
00010000
,
00000100
00001000
00000001
00000010
00000001
00000100
00000010
00010000
00001000
01000000
00100000
10000000
01000000
00100000
00010000
00001000
,
00000100
00000010
00000001
00000010
00000100
00001000
00010000
00100000
01000000
10000000
00100000
01000000
00001000
00010000
00000100
00001000
,
00000010
00000100
00000001
00000010
00000100
00001000
00000100
00000010
00000001
00001000
00000100
00001000
00000010
00010000
00001000
00100000
,
00101000
00000000
00000000
00000000
00001000
00000000
00100000
00010000
00110000
00000000
00100000
00001000
00000000
00010000
00000100
00000100
,
00000010
00001000
00000010
00000010
00000100
00000000
00010000
00000000
00001000
01000000
00100000
10000000
00000000
00100000
01000000
01000000
,
10000000
00100000
01000000
00100000
10000000
00000000
00010000
00000000
01010000
00000000
01000000
00001000
00000000
00010000
00001000
00000100
,
00000010
00000100
00001000
00010000
00000000
00000000
00001000
00000000
00010000
00000100
00001000
00000010
00000000
00001000
00000100
00001000
,
00000001
00001000
00000100
00001000
00000010
00000000
00001000
00000000
00001100
00000000
00000100
00010000
00000000
00001000
01000000
00100000
,
01000000
00010000
01000000
00100000
01000000
00000000
00100000
00000000
01100000
00000000
01000000
00010000
00000000
00100000
00001000
00010000
,
00000100
00001000
00000001
00000010
00000100
00000000
00001000
00000000
00001100
00000000
00000100
00010000
00000000
00001000
00100000
00001000
,
01000000
00010000
00100000
00001000
00010000
00000000
00001000
00000000
00011000
00000000
00000000
00010100
00000000
00000000
00000100
00000000
,
00001010
00000110
00002002
00003003
;
