#TITLE:Eternal Light;
#SUBTITLE:;
#ARTIST:DiverDiva;
#TITLETRANSLIT:;
#SUBTITLETRANSLIT:;
#ARTISTTRANSLIT:;
#GENRE:;
#CREDIT:;
#BANNER:Eternal Light.png;
#BACKGROUND:Eternal Light-bg.png;
#LYRICSPATH:;
#CDTITLE:;
#MUSIC:Eternal Light.ogg;
#OFFSET:-0.002200;
#SAMPLESTART:56.589413;
#SAMPLELENGTH:21.615166;
#SELECTABLE:YES;
#BPMS:0.000000=178.000000
;
#STOPS:32.000000=1.011000,
160.500000=0.674000,
161.000000=0.337000
;
#BGCHANGES:;
#KEYSOUNDS:;
#ATTACKS:;

//---------------dance-single - ----------------
#NOTES:
     dance-single:
     :
     Challenge:
     15:
     0.646117,0.892661,0.228887,0.439464,0.196843,494.000000,469.000000,25.000000,48.000000,26.000000,0.000000,0.646117,0.892661,0.228887,0.439464,0.196843,494.000000,469.000000,25.000000,48.000000,26.000000,0.000000:
0000
0000
0000
0000
,
0000
0000
0000
0000
,
0000
0000
0000
0000
,
0000
0000
0000
0000
,
0000
0000
0000
0000
,
0000
0000
0000
0000
,
0000
0000
0000
0000
,
0000
0000
0000
0000
,
0000
0000
0001
0000
1001
0000
1000
0010
,
0110
0000
0100
0010
0100
2000
0000
3100
,
0010
0100
1000
0100
0002
0000
1003
0100
,
0010
2000
0000
3010
0001
1000
0000
1000
,
1010
0010
0100
0000
1001
0000
0001
0010
,
0110
0000
0100
0010
0100
0002
0000
0103
,
0010
0100
0001
0100
2000
0000
3001
0100
,
0010
0000
0100
0000
2000
0000
0000
0000
3200
0000
0000
0000
0301
0000
1000
0001
,
1000
0001
1000
0001
0010
0000
0100
0000
1000
0000
0001
0000
0100
0000
0002
0000
,
0000
1003
0200
0000
0001
0000
1000
0000
,
0310
0000
0001
0010
0100
1000
0001
0100
,
0010
1000
0020
0000
0001
0000
1000
0000
,
0130
0001
0100
1000
M000
0010
1000
0100
,
0000
1000
0100
0001
000M
0010
0001
0100
,
0000
0001
1000
0100
0001
0100
1000
0001
,
0200
0000
0000
2300
0000
0000
3200
0000
0000
0301
1000
0100
,
0010
0000
0000
0000
0001
0000
0000
0000
1000
0000
0000
0000
0010
0000
0000
0000
0000
0000
0100
0000
0000
0000
0000
0000
0001
0000
0000
0000
0000
0000
1000
0000
0000
0000
0000
0000
0100
0000
0000
0000
0000
0000
0010
0000
0000
0002
0000
0000
,
0000
0000
1003
0010
0100
0010
0100
0010
1000
0000
0001
0000
0010
0000
0100
0020
,
0000
0031
1000
0010
00M1
0100
1M00
0010
,
00M1
0000
0100
0000
1M00
0000
0001
0100
0001
0100
0010
1000
0001
0000
0010
0000
,
2000
0000
3010
0100
0001
0100
0010
0002
,
0000
0103
1000
0100
0010
1000
0100
0010
,
0001
0000
1000
0010
0200
1000
0000
0301
,
1000
0000
0100
0000
0020
0000
1000
0000
0000
0000
0130
0000
0010
0001
0010
0100
,
1000
0001
1000
0000
1001
0000
0000
0000
1000
0000
0010
0000
0001
0000
000M
0000
,
1000
0010
0100
0M00
0001
0010
1000
0000
,
1100
0000
1001
0000
0001
0010
1000
M000
,
0001
0010
0100
0M00
1000
0010
0001
0000
,
0011
0000
1001
0000
1000
0100
0001
000M
,
1000
0100
0010
00M0
0001
0100
1000
0000
,
1001
0000
0001
0100
0010
1000
0001
0010
,
0100
0000
1000
0000
0001
0100
0001
0100
0010
1000
0001
0010
0100
1000
0100
1000
,
0001
0100
0020
0000
0030
0000
0000
0000
1020
0000
0000
0000
0001
0000
0000
0000
,
1030
0000
0001
1000
0100
0001
0100
0010
,
0001
0200
0000
0310
0001
0001
0010
1000
,
0020
0000
1030
0001
0010
1000
0010
0100
,
1000
0020
0000
0130
0001
000M
0010
1000
,
M000
0100
0001
1000
M000
0100
1000
0100
,
0010
1000
0100
0010
0001
000M
0100
1000
,
M000
0010
0001
1000
M000
0010
1000
0010
,
0001
0000
0100
0000
0001
0000
0001
0010
0200
0000
0000
0000
0001
0000
0000
0000
,
1300
0000
0001
1000
0010
0001
0010
0100
,
0001
0020
0000
0130
0001
0100
0010
0002
,
0000
1003
0010
0200
0000
0000
0320
0000
,
0000
0000
1030
0000
0001
0000
0010
0000
0200
0000
0000
1300
0000
0000
M010
0000
,
0001
0000
1000
0010
0000
0000
00M1
0000
0200
0000
0000
0301
0000
0000
001M
0000
,
1000
0000
0001
0010
0000
0000
0100
0000
1100
0000
0000
0000
1000
0000
1001
0000
,
0000
0010
0220
0000
0330
0000
0001
1000
,
0001
0000
0010
0000
0100
0000
1000
0000
0001
0000
0100
0000
0020
0000
0000
0000
0000
0000
0001
0000
0000
0100
0000
0000
,
0000
1000
0200
0000
0330
0000
0001
0100
,
1000
0100
0001
1000
0200
0000
0001
0010
,
0000
0000
1000
0000
0310
0000
0001
0000
1000
0010
1000
0010
0100
0001
0100
0001
,
1000
0001
0010
0100
1000
0010
0100
0001
1000
0000
0000
0000
1001
0000
0000
0000
,
0001
0100
0110
0000
0010
0100
0010
0002
,
0000
0013
0100
0010
0001
0010
2000
0000
,
3001
0010
0100
0002
0000
0103
0010
0002
,
1000
0000
0103
0010
0010
0000
1001
0000
,
1000
0100
0110
0000
0010
0100
0010
2000
,
0000
3010
0100
0010
1000
0010
0002
0000
,
1003
0010
0100
2000
0000
3100
0010
2000
,
0001
0000
0000
0000
3100
0000
0010
0001
1000
0000
0001
0000
1001
0000
0000
0000
,
1000
0010
0110
1000
0001
0010
0100
0001
,
000M
0010
0100
0010
1000
0010
0002
0000
,
1003
0010
0100
1000
M000
0010
0100
0001
,
1000
0100
0110
1000
0001
1000
1001
0000
,
0001
0010
0110
0001
1000
0010
0100
1000
,
M000
0010
0100
0010
0001
0010
1000
0002
,
0000
0013
1000
0010
0001
000M
0100
1000
,
M000
0010
0220
0000
0000
0000
0000
0000
,
0000
0000
0000
0000
,
0330
0000
0000
0000
;

//---------------dance-double - ----------------
#NOTES:
     dance-double:
     :
     Challenge:
     15:
     0.630421,0.785542,0.173954,0.494397,0.169377,482.000000,463.000000,19.000000,54.000000,10.000000,0.000000,0.630421,0.785542,0.173954,0.494397,0.169377,482.000000,463.000000,19.000000,54.000000,10.000000,0.000000:
00000000
00000000
00000000
00000000
,
00000000
00000000
00000000
00000000
,
00000000
00000000
00000000
00000000
,
00000000
00000000
00000000
00000000
,
00000000
00000000
00000000
00000000
,
00000000
00000000
00000000
00000000
,
00000000
00000000
00000000
00000000
,
00000000
00000000
00000000
00000000
,
00000000
00000000
00001000
00000000
00011000
00000000
00010000
00100000
,
10000000
00000000
00010000
00100000
01000000
00020000
00000000
01030000
,
00100000
01000000
00010000
00001000
00020000
00000000
01030000
10000000
,
00010000
02000000
00000000
03100000
00010000
00001000
00000100
00001000
,
00010000
00000100
00010000
00000000
00011000
00000000
00001000
00000010
,
00000001
00000000
00001000
00000010
00000100
00002000
00000000
00003100
,
00000010
00000100
00001000
00010000
00002000
00000000
00003100
00000001
,
00001000
00000000
00000100
00000000
00000020
00000000
00000000
00000000
00002030
00000000
00000000
00000000
00013000
00000000
00001000
00010000
,
00001000
00010000
00001000
00010000
00001000
00000000
00010000
00000000
00100000
00000000
01000000
00000000
00001000
00000000
00020000
00000000
,
00000000
00031000
02000000
00000000
10000000
00000000
00010000
00000000
,
03100000
00000000
10000000
00010000
00100000
01000000
00010000
00001000
,
00010000
00000010
00000200
00000000
00000010
00000000
00000001
00000000
,
00001300
00010000
00100000
10000000
M0000000
01000000
00001000
00010000
,
00000000
00001000
00000010
00000001
0000000M
00000100
00010000
00001000
,
00000000
00010000
00001000
00010000
00100000
10000000
00010000
00100000
,
02000000
00000000
00000000
03020000
00000000
00000000
00032000
00000000
00000000
00003010
00000001
00001000
,
00000010
00000000
00000000
00000000
00000100
00000000
00000000
00000000
00001000
00000000
00000000
00000000
00010000
00000000
00000000
00000000
00000000
00000000
00001000
00000000
00000000
00000000
00000000
00000000
00100000
00000000
00000000
00000000
00000000
00000000
00010000
00000000
00000000
00000000
00000000
00000000
10000000
00000000
00000000
00000000
00000000
00000000
00100000
00000000
00000000
02000000
00000000
00000000
,
00000000
00000000
03010000
10000000
00010000
00100000
00010000
00100000
00001000
00000000
00010000
00000000
00000010
00000000
00000100
00000020
,
00000000
00001030
00000001
00000100
00001000
00010000
00100000
10000000
,
01000000
00000000
00010000
00000000
00001000
00000000
00000010
00000001
00000010
00000001
00001000
00000010
00001000
00000000
00000010
00000000
,
00000002
00000000
00000013
00000100
00001000
00000100
00000010
00020000
,
00000000
00031000
00100000
01000000
00010000
01000000
00100000
00010000
,
10000000
00000000
00010000
01000000
00100000
00020000
00000000
00031000
,
00000100
00000000
00000010
00000000
00010000
00000000
00002000
00000000
00000000
00000000
00013000
00000000
01000000
00100000
01000000
00100000
,
00010000
10000000
00010000
00000000
10010000
00000000
00000000
00000000
10000000
00000000
00100000
00000000
00010000
00000000
000M0000
00000000
,
01000000
00100000
00010000
00000000
00001000
00000100
00000010
00000000
,
00000110
00000000
00001001
00000000
00000001
00000010
00001000
0000M000
,
00000100
00000010
00001000
00000000
00010000
01000000
00100000
00000000
,
01100000
00000000
10010000
00000000
10000000
01000000
00010000
000M0000
,
00100000
01000000
00010000
00000000
00001000
00000010
00000100
00000000
,
00000110
00000000
00001000
00000001
00000100
00001000
00010000
00100000
,
10000000
00000000
00010000
00000000
00100000
00001000
00010000
00000000
00001000
00010000
00000010
00000000
00000100
00000001
00001000
00000010
,
00010000
00001000
00020000
00000000
00030000
00000000
00000000
00000000
00021000
00000000
00000000
00000000
00100000
00000000
00000000
00000000
,
00030010
00000000
00010000
00000010
00010000
00001000
00010000
01000000
,
00010000
20000000
00000000
30100000
00010000
00010000
10000000
00100000
,
00020000
00000000
00031000
00100000
00001000
00010000
00001000
00000100
,
00001000
00000002
00000000
00000013
00002000
00000000
00103000
00020000
,
00000000
10030000
01000000
00020000
00000000
10030000
01000000
00100000
,
01000000
00010000
00001000
00100000
00020000
00000000
00030010
00002000
,
00000000
00003001
00000100
00002000
00000000
00003001
00000100
00000010
,
00000100
00000000
00001000
00000000
00010000
00000000
00000010
00010000
00002000
00000000
00000000
00000000
00000010
00000000
00000000
00000000
,
00103000
00000000
00001000
00100000
00001000
00010000
00001000
00000100
,
00001000
00000002
00000000
00000013
00010000
00001000
00000010
00002000
,
00000000
00103000
00001000
00020000
00000000
00000000
00032000
00000000
,
00000000
00000000
00013000
00000000
01000000
00000000
10000000
00000000
00020000
00000000
00000000
01030000
00000000
00000000
00100000
00000000
,
00010000
00000000
00001000
00000100
00000000
00000000
00000001
00000000
00002000
00000000
00000000
00003100
00000000
00000000
00000010
00000000
,
00001000
00000000
00010000
01000000
00000000
00000000
10000000
00000000
10010000
00000000
00000000
00000000
00010000
00000000
00110000
00000000
,
00000000
00100000
00202000
00000000
00303000
00000000
00001000
00010000
,
00000010
00000000
00001000
00000000
00000001
00000000
00001000
00000000
00000100
00000000
00000010
00000000
00002000
00000000
00000000
00000000
00000000
00000000
00000010
00000000
00000000
00010000
00000000
00000000
,
00000000
00100000
00020000
00000000
00033000
00000000
00001000
00000100
,
00000001
00000100
00001000
00000000
00020000
00000000
00100000
00001000
,
00000000
00000010
00031000
00100000
00010000
00010000
10000000
10000000
,
00010000
01000000
00001000
00010000
00000100
00000010
00000001
00001000
00000010
00000000
00000000
00000000
00010010
00000000
00000000
00000000
,
00010000
00001000
00000010
00000000
00000001
00000010
00000100
00000002
,
00000000
00000103
00000010
00000100
00000001
00000100
00002000
00000000
,
00003001
00000100
00000010
00020000
00000000
00031000
00000010
00002000
,
00010000
00000000
00103000
00001000
00001000
00000000
00101000
00000000
,
00001000
00010000
00100000
00000000
10000000
00100000
01000000
20000000
,
00000000
31000000
00100000
01000000
10000000
01000000
00020000
00000000
,
10030000
01000000
00100000
00002000
00000000
00013000
00100000
00020000
,
00001000
00000000
00000000
00000000
00030010
00000000
00001000
00000001
00000010
00000000
00000100
00000000
00000110
00000000
00000000
00000000
,
00000001
00001000
00001010
00000010
00000100
00001000
00010000
00100000
,
00M00000
10000000
01000000
00100000
00010000
00100000
20000000
00000000
,
30010000
00100000
01000000
00010000
000M0000
00001000
00010000
00100000
,
00001000
00010000
00000010
00000100
00000001
00000100
00000110
00000000
,
00000001
00001000
00001100
00000100
00000010
00001000
00010000
01000000
,
0M000000
10000000
00100000
01000000
00010000
01000000
10000000
00020000
,
00000000
01030000
00100000
00010000
00001000
0000M000
00000100
00000010
,
000000M0
00010000
00022000
00000000
00000000
00000000
00000000
00000000
,
00000000
00000000
00000000
00000000
,
00033000
00000000
00000000
00000000
;

//---------------dance-single - ----------------
#NOTES:
     dance-single:
     :
     Hard:
     12:
     0.525787,0.678422,0.137332,0.595107,0.096133,402.000000,387.000000,15.000000,65.000000,0.000000,0.000000,0.525787,0.678422,0.137332,0.595107,0.096133,402.000000,387.000000,15.000000,65.000000,0.000000,0.000000:
0000
0000
0000
0000
,
0000
0000
0000
0000
,
0000
0000
0000
0000
,
0000
0000
0000
0000
,
0000
0000
0000
0000
,
0000
0000
0000
0000
,
0000
0000
0000
0000
,
0000
0000
0000
0000
,
0000
0000
0002
0000
1003
0000
0100
0010
,
0001
0000
1000
0000
0010
0002
0000
0000
,
0013
0000
0001
0010
2000
0000
0000
3001
,
0010
0100
0000
0010
0001
1000
0010
0000
,
0010
0000
2000
0000
3001
0000
0100
0010
,
1000
0000
0001
0000
0010
2000
0000
0000
,
3010
0000
1000
0010
0002
0000
0000
1003
,
0010
0100
0010
0000
0010
0000
0010
1000
,
0001
0000
1001
0000
1000
0000
0100
0010
,
0000
0100
0002
0000
0203
0000
2300
0000
,
3001
0000
0100
0000
0010
0000
1000
0001
,
0010
2000
3020
0032
,
1003
0010
0100
1000
0000
0100
0010
1000
,
0000
0001
0010
0100
0000
0001
0100
0010
,
0000
0001
1000
0010
0001
0010
0100
0001
,
2000
0000
0000
3200
0000
0000
0320
0000
0000
0031
1000
0001
,
0100
0000
0000
0000
0010
0000
0000
0000
0100
0000
0000
0000
0010
0000
0000
0000
0000
0000
1000
0000
0000
0000
0000
0000
0001
0000
0000
0000
0000
0000
0010
0000
0000
0000
0000
0000
0100
0000
0000
0000
0000
0000
0000
0000
0000
0100
0000
0000
,
0000
0000
0010
0000
0001
0000
1000
0010
1000
0000
0010
0000
0100
0000
0000
0100
,
0000
0001
1000
0100
1000
0100
0001
0100
,
0001
0000
0100
0000
0010
0000
0001
0010
0001
0000
1000
0001
1000
0000
0010
0000
,
0200
0000
0301
1000
0100
0000
0001
0100
,
0000
1000
0010
0000
0001
0010
0200
0000
,
0302
0000
1003
0000
0100
0001
0000
0100
,
1000
0000
0000
0000
0010
0000
0001
0000
0000
0000
0010
0000
1000
0001
1000
0000
,
0100
1002
0100
1000
,
0010
0000
0013
0000
1000
0010
0001
0000
,
1000
2001
0100
0001
,
0010
0000
3010
0000
0001
0010
1000
0000
,
0001
1002
0010
1000
,
0100
0000
0103
0000
1000
0100
0001
0000
,
1000
0000
1000
0100
0010
0002
0000
1003
,
0001
0100
0010
2000
0000
3001
0010
0100
,
1000
0002
0003
0000
1001
0000
0110
0000
,
1001
0000
0001
0020
0000
2030
0000
3002
,
0000
0203
0000
0310
1000
0010
0001
1000
,
0010
0000
0100
0020
0000
0032
0000
2003
,
0000
3200
0000
0310
0001
0000
0010
1000
,
0000
0001
0010
0100
0000
1000
0010
0100
,
0010
0002
0000
0013
1000
0000
0001
0010
,
0000
0100
0010
0001
0000
1000
0010
0100
,
1000
0000
0200
0000
0000
0000
0301
1000
0001
0000
0000
0000
0110
0000
0000
0000
,
1001
0000
1000
0200
0000
0302
0000
2003
,
0000
3020
0000
0130
1000
0000
0100
0002
,
0000
0103
0010
0002
0000
0000
2003
0000
,
0000
0000
3010
0000
0100
0000
0010
0000
0001
0000
0000
0010
0000
0000
1000
0000
,
0001
0000
0000
0001
0000
0000
0010
0000
1000
0000
0000
0010
0000
0000
0001
0000
,
1000
0000
0000
1000
0000
0000
0001
0000
0101
0000
0000
0000
0100
0000
0110
0000
,
0000
0001
2002
0000
0000
0000
3003
0000
,
1000
0000
0001
0000
1000
0000
0100
0000
0010
0000
0100
0000
0020
0000
0000
0000
0000
0000
1030
0000
0000
0010
0000
0000
,
0000
0010
0002
0000
0000
0000
1003
0010
,
0001
0010
1000
0000
0020
0000
0031
0010
,
0000
0010
2000
0000
0000
3001
0010
0100
,
0010
0100
0010
0000
0200
0000
0000
0000
2300
0000
0000
0000
3001
0000
0000
0000
,
0100
0010
1000
0000
0001
0000
0010
2000
,
0000
3010
0100
0000
0001
0100
2000
0000
,
0000
3001
0100
0010
0000
1000
0100
0020
,
1000
0031
2000
3001
,
0010
0100
1000
0000
0001
0000
0100
2000
,
0000
3100
0010
0000
0001
0010
2000
0000
,
0000
3001
0010
0100
0000
1000
0010
0200
,
1000
0000
0000
0000
0301
0000
1000
0001
1000
0000
0000
0000
1001
0000
0000
0000
,
0001
0010
1000
0010
0001
1000
0010
0002
,
0000
1003
0100
0010
0001
0010
0200
0000
,
0301
1000
0100
0002
0000
0103
1000
0001
,
0100
0010
1000
1000
0001
0010
0110
0000
,
1000
0100
0001
0100
1000
0001
0100
2000
,
0000
3001
0010
0100
1000
0100
0010
2000
,
0000
3001
0010
0100
0002
0000
0000
0203
,
0000
1300
2002
0000
0000
0000
0000
0000
,
0000
0000
0000
0000
,
3003
0000
0000
0000
;

//---------------dance-double - ----------------
#NOTES:
     dance-double:
     :
     Hard:
     12:
     0.451235,0.535597,0.036622,0.512708,0.027466,345.000000,341.000000,4.000000,56.000000,0.000000,0.000000,0.451235,0.535597,0.036622,0.512708,0.027466,345.000000,341.000000,4.000000,56.000000,0.000000,0.000000:
// measure 0
00000000
00000000
00000000
00000000
,  // measure 1
00000000
00000000
00000000
00000000
,  // measure 2
00000000
00000000
00000000
00000000
,  // measure 3
00000000
00000000
00000000
00000000
,  // measure 4
00000000
00000000
00000000
00000000
,  // measure 5
00000000
00000000
00000000
00000000
,  // measure 6
00000000
00000000
00000000
00000000
,  // measure 7
00000000
00000000
00000000
00000000
,  // measure 8
00000000
00000000
00001000
00000000
00010000
00000000
00100000
10000000
,  // measure 9
01000000
00000000
00010000
00000000
00001000
00200000
00000000
00000000
,  // measure 10
00301000
00000000
00010000
00001000
00000200
00000000
00000000
00000301
,  // measure 11
00001000
00000100
00000000
00000010
00000001
00001000
00000010
00000000
,  // measure 12
00000010
00000000
00010000
00000000
00001000
00000000
00000010
00000001
,  // measure 13
00000100
00000000
00001000
00000000
00010000
00000020
00000000
00000000
,  // measure 14
00010030
00000000
00001000
00010000
02000000
00000000
00000000
03100000
,  // measure 15
00010000
10000000
00100000
00000000
00010000
00000000
00001000
00000000
,  // measure 16
00000100
00000000
00001001
00000000
00000001
00000000
00000010
00001000
,  // measure 17
00000000
00000010
00001000
00000000
00010000
00000000
00001000
00000000
,  // measure 18
00002000
00000000
00000000
00000000
00013000
00000000
00100000
10000000
,  // measure 19
00100000
10000000
01000000
00010000
,  // measure 20
00010000
00002000
00000000
00003020
,  // measure 21
00000000
00000032
00000000
00002003
,  // measure 22
00000000
00000000
00003010
00000100
00000010
00000000
00000100
00001000
,  // measure 23
00000100
00002000
00023000
00230000
,  // measure 24
20300000
00000000
00000000
00000000
30010000
00000000
00100000
00000000
01000000
00000000
00010000
00000000
00001000
00000000
00000000
00001000
,  // measure 25
00000000
00000000
00000010
00000000
00000001
00000000
00001000
00000000
00000010
00000000
00000100
00000000
00001000
00000000
00000000
00001000
,  // measure 26
00000000
00010000
00100000
10000000
00100000
00000000
00010000
00001000
,  // measure 27
00010000
00000000
00001000
00000100
00000001
00001000
00000100
00000010
,  // measure 28
00000100
00000000
00001000
00000000
00000001
00000000
00000010
00001000
,  // measure 29
00000000
00000000
00010000
00000000
01000000
10000000
00010000
00000000
,  // measure 30
01000000
00000000
00100000
00000000
00010000
00000020
00000000
00000000
,  // measure 31
00000130
00000000
00010000
02000000
00000000
00000000
03100000
10000000
,  // measure 32
00010000
00000000
10010000
00000000
10000000
00010000
10000000
00000000
,  // measure 33
00010000
00001000
00010000
00000000
00001000
00000001
00001000
00000000
,  // measure 34
00000001
00000000
00000001
00000000
00001000
00000001
00001000
00000000
,  // measure 35
00010000
00001000
00010000
00000000
10000000
00010000
10000000
00000000
,  // measure 36
00010000
00000000
00010000
00000000
10000000
00010000
10000000
00000000
,  // measure 37
00010000
00001000
00010000
00000000
00001000
00000001
00001000
00000000
,  // measure 38
00000001
00000000
00001000
00000010
00000100
00002000
00000000
00000000
,  // measure 39
00013000
00100000
01000000
00020000
00000000
00000000
10030000
01000000
,  // measure 40
00100000
00020000
00030000
00000000
20000000
00000000
30020000
00000000
,  // measure 41
00032000
00000000
00003001
00000100
00000000
00001000
00000000
00000100
,  // measure 42
00000000
00000020
00000000
00000000
00010030
00001000
00000010
00000000
,  // measure 43
00001000
00000000
00010000
01000000
00000000
00100000
00000000
10000000
,  // measure 44
00000000
00200000
00000000
00000000
00310000
00000000
10000000
00200000
,  // measure 45
00000000
00000000
00301000
00000020
00000000
00000130
00001000
00010000
,  // measure 46
00001000
00000100
00000000
00000010
00001000
00000000
00000001
00000020
,  // measure 47
00000000
00000000
00010030
00200000
00000000
01300000
00010000
00001000
,  // measure 48
00010000
02000000
00000000
00000000
23000000
00000000
30020000
00000000
,  // measure 49
00032000
00000000
00003001
00000010
00000000
00001000
00000000
00000010
,  // measure 50
00000000
00000200
00000000
00000000
00000310
00000000
00000001
00002000
,  // measure 51
00000000
00000000
00013000
20000000
00000000
00000000
30020000
00000000
,  // measure 52
00000000
00000000
00000000
00000000
10030000
00000000
00000000
00000000
01000000
00000000
00000000
00002000
00000000
00000000
00000000
00000000
,  // measure 53
00003100
00000000
00000000
00020000
00000000
00000000
00000000
00000000
00130000
00000000
00000000
00002000
00000000
00000000
00000000
00000000
,  // measure 54
00003010
00000000
00000000
00020000
00000000
00000000
00000000
00000000
00130000
00000000
00000000
00000000
10000000
00000000
01000000
00000000
,  // measure 55
00000000
00010000
00022000
00000000
00000000
00000000
00033000
00000000
,  // measure 56
00002000
00000000
00003020
00000000
00000031
00000000
00000001
00001000
,  // measure 57
00000000
00001000
00020000
00000000
00000000
00000000
10030000
00000000
,  // measure 58
01000000
00100000
00010000
00000000
10000000
00000000
10000000
00010000
,  // measure 59
00000000
00010000
00002000
00000000
00000000
00000000
00003001
00001000
,  // measure 60
00000010
00010000
00100000
01000000
00001000
00000000
00010000
00000000
,  // measure 61
00100000
10000000
01000000
00000000
00010000
00000000
00001000
00200000
,  // measure 62
00000000
00301000
00010000
00000000
00001000
00000100
00000002
00000000
,  // measure 63
00000000
00001003
00000100
00000020
00000000
00010030
00100000
00001000
,  // measure 64
00020000
00030010
00010000
00001000
,  // measure 65
00000100
00000001
00000010
00000000
00001000
00000000
00010000
00000020
,  // measure 66
00000000
00010030
00001000
00000000
00010000
01000000
20000000
00000000
,  // measure 67
00000000
30010000
01000000
00200000
00000000
00301000
00000010
00010000
,  // measure 68
00001000
00000010
00000001
00000010
00001000
00010000
01000000
00000000
,  // measure 69
00100000
00010000
10000000
00000000
00100000
00001000
00000010
00001000
,  // measure 70
00000010
00000001
00000010
00000000
00010000
00001000
00000100
00000000
,  // measure 71
00000010
00001000
00000001
00000000
00000010
00010000
00100000
00010000
,  // measure 72
00100000
10000000
00100000
00000000
00010000
10000000
00100000
00000000
,  // measure 73
00010000
00001000
00000100
00000000
00000001
00001000
00010000
00001000
,  // measure 74
00010000
10000000
00010000
00000000
10000000
01000000
00010000
00001000
,  // measure 75
00000000
00000010
00001000
00000000
00000002
00000000
00000000
00002003
,  // measure 76
00000000
00013000
00022000
00000000
00000000
00000000
00000000
00000000
,  // measure 77
00000000
00000000
00000000
00000000
,  // measure 78
00033000
00000000
00000000
00000000
;

//---------------dance-single - ----------------
#NOTES:
     dance-single:
     :
     Medium:
     9:
     0.354449,0.428477,0.119021,0.540174,0.027466,271.000000,258.000000,13.000000,59.000000,0.000000,0.000000,0.354449,0.428477,0.119021,0.540174,0.027466,271.000000,258.000000,13.000000,59.000000,0.000000,0.000000:
0000
0000
0000
0000
,
0000
0000
0000
0000
,
0000
0000
0000
0000
,
0000
0000
0000
0000
,
0000
0000
0000
0000
,
0000
0000
0000
0000
,
0000
0000
0000
0000
,
0000
0000
0000
0000
,
0000
0000
0001
0000
1000
0000
0000
0100
,
0010
0000
0002
0000
0000
2003
0000
0000
,
3001
0000
0100
0010
0200
0000
0000
0000
,
0310
1000
0001
0010
,
0010
0000
0100
0000
1000
0000
0000
0001
,
0100
0000
0020
0000
0000
2030
0000
0000
,
3001
0000
0010
0100
0020
0000
0000
0000
,
0130
0000
1000
0000
1000
0000
1000
0001
,
1000
0001
0100
0001
,
0100
2000
3200
0302
,
2003
3001
0010
0001
,
0010
2000
3020
0032
,
2003
0000
3010
0100
0000
0000
0010
0100
,
0000
0000
0001
1000
0000
0000
0001
1000
,
0000
0100
0001
0100
,
1000
0001
0100
0020
,
0000
0000
0000
0000
1030
0000
0000
0000
0001
0000
0000
0000
0010
0000
0000
0010
,
0000
0000
0000
0000
0001
0000
0000
0000
1000
0000
0000
0000
0010
0000
0000
0010
,
0000
0100
0100
0010
,
0010
0000
1000
0000
0001
1000
0001
1000
,
0001
0000
0010
0000
0200
0000
0000
2300
,
0000
0000
3002
0000
0000
0203
0000
0000
,
0310
0000
2000
0000
0000
3002
0000
0000
,
0023
0000
0000
0230
0000
0000
1300
0001
,
1000
1001
0001
0100
,
0010
0000
0001
0000
0010
0100
0020
0000
,
0000
1030
0001
0010
,
0100
0000
0001
0000
0100
0010
0200
0000
,
0000
1300
0001
0100
,
0010
0000
0001
0000
0010
0100
0010
0000
,
1000
0000
0001
0000
0100
0020
0000
0000
,
1030
0000
0100
0020
0000
0000
0031
0000
,
0100
0020
0030
0000
1001
0000
1001
0000
,
1001
0000
1000
0001
0000
1000
0000
0010
,
0000
0010
0000
0000
1000
0001
1000
0000
,
0001
0000
1000
0001
0000
0010
0000
0100
,
0000
0100
0000
0000
2000
0000
0000
3200
,
0000
0000
0000
0302
0000
0000
0103
0000
,
1000
0001
0000
0000
2000
0000
0000
3020
,
0000
0000
0000
0032
0000
0000
0013
0000
,
1000
0001
0000
0000
1001
0000
1001
0000
,
1001
0000
0001
1000
0000
0001
0000
0010
,
0000
0010
0000
0000
0200
0000
0000
2300
,
0000
0000
0000
3002
0000
0000
0203
0000
,
0000
0000
0000
0000
0310
0000
0000
0000
1000
0000
0000
0010
0000
0000
0000
0000
,
0001
0000
0000
0010
0000
0000
0000
0000
1000
0000
0000
0100
0000
0000
0000
0000
,
0001
0000
0000
0100
0000
0000
0000
0000
1001
0000
0000
0000
0000
0000
0110
0000
,
0000
2002
0000
0000
,
0000
0000
3003
0000
0002
0000
0000
0203
,
0000
0320
0000
0130
,
0001
1000
0001
0000
2000
0000
0000
3200
,
0000
0320
0000
0130
,
1000
1000
0001
0100
,
0000
0010
1000
0000
0002
0000
0000
0023
,
0000
0000
0130
0000
1000
0001
2000
0000
,
0000
0000
3001
0000
0100
0000
0010
0100
,
0010
0010
1000
0001
,
0000
0010
0100
0000
2000
0000
0000
3002
,
0000
0000
0103
0000
0010
0100
0020
0000
,
0000
0000
1030
0000
0001
0000
0010
0100
,
0010
0010
0001
1000
,
0010
0100
0010
0000
0200
0000
0000
0320
,
0000
0000
1030
0000
0001
1000
0002
0000
,
0000
0013
0000
0100
0000
1000
0000
0001
,
0100
0010
1000
0001
,
0010
0100
0010
0000
0200
0000
0000
2300
,
0000
0000
3001
0000
0100
0010
0100
0010
,
0000
0000
1000
0000
1001
0000
0000
0110
,
0000
2002
0000
0000
,
0000
0000
0000
0000
,
3003
0000
0000
0000
;

//---------------dance-double - ----------------
#NOTES:
     dance-double:
     :
     Medium:
     9:
     0.340061,0.428477,0.119021,0.494397,0.027466,260.000000,247.000000,13.000000,54.000000,0.000000,0.000000,0.340061,0.428477,0.119021,0.494397,0.027466,260.000000,247.000000,13.000000,54.000000,0.000000,0.000000:
00000000
00000000
00000000
00000000
,
00000000
00000000
00000000
00000000
,
00000000
00000000
00000000
00000000
,
00000000
00000000
00000000
00000000
,
00000000
00000000
00000000
00000000
,
00000000
00000000
00000000
00000000
,
00000000
00000000
00000000
00000000
,
00000000
00000000
00000000
00000000
,
00000000
00000000
10000000
00000000
00010000
00000000
00000000
00100000
,
01000000
00000000
00020000
00000000
00000000
00032000
00000000
00000000
,
00003010
00000001
00000002
00000000
,
00001003
00000100
00000010
00001000
,
00000010
00000000
00000001
00000000
00001000
00000000
00000000
00000010
,
00000100
00000000
00002000
00000000
00000000
00023000
00000000
00000000
,
00130000
10000000
20000000
00000000
,
30010000
00100000
00100000
00100000
,
00100000
01000000
00010000
01000000
,
00010000
00001000
00100000
00001000
,
00001000
00000100
00001000
00000100
,
00001000
00010000
00000010
00010000
,
00010000
00002000
00000000
00203000
,
00000000
02300000
00000000
23000000
,
00000000
00000000
30010000
00000000
01000000
00100000
01000000
00000000
,
00100000
00010000
00001000
00000200
,
00000000
00000000
00000000
00000000
00000301
00000000
00000000
00000000
00001000
00000000
00000000
00000000
00000100
00000000
00000000
00000010
,
00000000
00000000
00000000
00000000
00001000
00000000
00000000
00000000
00010000
00000000
00000000
00000000
00001000
00000000
00000000
00100000
,
00000000
00010000
00010000
10000000
,
10000000
00000000
00100000
00000000
00010000
00001000
00010000
00001000
,
00010000
00000000
00001000
00000000
00000200
00000000
00000000
00000302
,
00000000
00000000
00002003
00000000
00000000
00003200
00000000
00000000
,
00000310
00000000
00002000
00000000
00000000
00023000
00000000
00000000
,
02030000
00000000
00000000
03200000
00000000
00000000
00310000
10000000
,
00010000
10010000
10000000
01000000
,
00001000
00010000
00000010
00000002
,
00000000
00001003
00000001
00000100
,
00010000
00001000
00100000
20000000
,
00000000
30010000
10000000
00100000
,
00001000
00010000
00000100
00000001
,
00001000
00000000
00000100
00000000
00000010
00000100
00000000
00000000
,
00010000
00000000
00001000
01000000
00000000
00000000
00100000
00000000
,
10000000
00020000
00030000
00000000
10010000
00000000
10010000
00000000
,
10010000
00000000
10000000
01000000
00000000
00010000
00000000
00001000
,
00000000
00010000
00000000
00000000
00000010
00001000
00000010
00000000
,
00000100
00000000
00000001
00000100
00000000
00001000
00000000
00010000
,
00000000
00001000
00000000
00000000
00020000
00000000
00000000
02030000
,
00000000
00000000
00000000
23000000
00000000
00000000
30010000
00000000
,
01000000
00001000
00000000
00000000
00020000
00000000
00000000
00032000
,
00000000
00000000
00000000
00003200
00000000
00000000
00000301
00000000
,
00001000
00000001
00000000
00000000
00001001
00000000
00001001
00000000
,
00001001
00000000
00000001
00000010
00000000
00001000
00000000
00010000
,
00000000
00001000
00000000
00000000
00020000
00000000
00000000
02030000
,
00000000
00000000
00000000
23000000
00000000
00000000
30020000
00000000
,
00000000
00000000
00000000
00000000
10030000
00000000
00000000
00000000
00100000
00000000
00000000
00010000
00000000
00000000
00000000
00000000
,
00001000
00000000
00000000
00000010
00000000
00000000
00000000
00000000
00001000
00000000
00000000
00010000
00000000
00000000
00000000
00000000
,
01000000
00000000
00000000
00010000
00000000
00000000
00000000
00000000
00011000
00000000
00000000
00000000
00000000
00000000
00010010
00000000
,
00000000
00000220
00000000
00000000
,
00000000
00000000
00000330
00000000
00000002
00000000
00000000
00000203
,
00000000
00002300
00000000
00013000
,
01000000
00000000
01000000
00000000
20000000
00000000
00000000
32000000
,
00000000
03020000
00000000
00031000
,
00000100
00000100
00000001
00001000
,
00000000
00000100
00000010
00000000
00002000
00000000
00000000
00023000
,
00000000
00000000
01030000
00000000
10000000
00010000
20000000
00000000
,
00000000
00000000
30010000
00000000
00100000
00000000
01000000
00100000
,
01000000
01000000
10000000
00010000
,
00000000
01000000
00100000
00000000
00020000
00000000
00000000
00032000
,
00000000
00000000
00003100
00000000
00000001
00001000
00000002
00000000
,
00000000
00000000
00001003
00000000
00000001
00000000
00000100
00000010
,
00000100
00000100
00000001
00001000
,
00000100
00000010
00000100
00000000
00000020
00000000
00000000
00002030
,
00000000
00000000
00013000
00000000
01000000
00100000
02000000
00000000
,
00000000
13000000
00000000
00010000
00000000
01000000
00000000
02000000
,
00000000
03100000
10000000
00010000
,
00100000
01000000
00100000
00000000
02000000
00000000
00000000
03020000
,
00000000
00000000
00031000
00000000
00000010
00000100
00000010
00000100
,
00000000
00000000
00001000
00000000
00001001
00000000
00000000
00000110
,
00000000
00002002
00000000
00000000
,
00000000
00000000
00000000
00000000
,
00003003
00000000
00000000
00000000
;

//---------------dance-single - ----------------
#NOTES:
     dance-single:
     :
     Easy:
     6:
     0.279897,0.349053,0.082399,0.146488,0.000000,214.000000,205.000000,9.000000,16.000000,0.000000,0.000000,0.279897,0.349053,0.082399,0.146488,0.000000,214.000000,205.000000,9.000000,16.000000,0.000000,0.000000:
0000
0000
0000
0000
,
0000
0000
0000
0000
,
0000
0000
0000
0000
,
0000
0000
0000
0000
,
0000
0000
0000
0000
,
0000
0000
0000
0000
,
0000
0000
0000
0000
,
0000
0000
0000
0000
,
0000
0001
0001
0000
,
1000
0000
0010
0000
0000
0020
0000
0000
,
0000
0130
0100
0000
,
0001
1000
0100
0010
,
0000
0001
0001
0000
,
1000
0000
0010
0000
0000
0020
0000
0000
,
0000
0130
0100
0000
,
0001
1000
1000
1000
,
1000
0100
0000
0010
,
0000
0001
1000
0001
,
0100
0010
0000
0100
,
0000
0001
1000
0001
,
0010
0200
0300
2000
,
3000
0002
0003
0200
,
0300
0010
0001
0010
,
1000
0001
0010
0100
,
0100
1000
0001
0100
,
0010
1000
0001
0010
,
0100
1000
1000
0001
,
0001
0100
0010
0100
,
0100
0000
0000
0001
0000
0000
1000
0000
,
0000
0001
0000
0000
1000
0000
0100
0000
,
0010
0000
0001
0000
0000
1000
0000
0000
,
0001
0000
0000
1000
0000
0000
0020
0000
,
0000
0130
0000
1001
,
0000
0001
0010
0100
,
0000
1000
0000
1001
,
0000
1000
0010
0100
,
0000
0001
0000
1001
,
0000
0001
0010
0100
,
0000
0000
1000
0000
0000
1000
0000
0000
,
0001
0000
0000
0001
0000
0000
1000
0000
,
0000
1000
0000
0000
0001
0000
1000
0000
,
1001
0000
0001
0010
,
0100
0100
1000
0001
,
1001
0000
1000
0010
,
0100
0100
0002
0000
,
1003
0000
0100
0001
,
0100
0100
2000
0000
,
3001
0000
0100
1000
,
0100
0100
0001
1000
,
1001
0000
0001
0010
,
0100
0000
0100
0000
1000
0000
0000
0001
,
0000
0000
0000
1000
0000
0000
0002
0000
,
0000
0000
1003
0010
,
0001
0010
1000
0100
,
0001
0000
0100
0000
1000
0000
0000
0001
,
0000
2002
0000
0000
,
3003
0000
0000
0000
1000
0000
0000
1000
,
0000
1000
0000
0010
,
0110
0000
0000
0000
0001
0000
0000
0001
,
0000
0001
0000
0010
,
0100
0100
1000
1000
,
0000
0000
0010
0000
0100
0000
0000
0200
,
0000
0000
0310
0010
,
0000
0001
1000
0010
,
0100
0100
0001
0001
,
0000
0000
1000
0000
0100
0000
0000
0200
,
0000
0000
0310
0010
,
0000
0001
1000
0010
,
0100
0100
0100
0001
,
1000
0000
0100
0000
0010
0000
0000
0020
,
0000
0031
1000
1000
,
0000
0010
0000
0010
0000
0010
0000
0010
,
0000
1000
0001
0010
,
0100
0000
1000
0000
0001
0000
0000
0002
,
0000
0103
0010
1000
,
0001
0000
0000
0000
0010
0000
0000
0100
,
0000
0110
0000
0000
;

//---------------dance-double - ----------------
#NOTES:
     dance-double:
     :
     Easy:
     6:
     0.266817,0.349053,0.054933,0.146488,0.000000,204.000000,198.000000,6.000000,16.000000,0.000000,0.000000,0.266817,0.349053,0.054933,0.146488,0.000000,204.000000,198.000000,6.000000,16.000000,0.000000,0.000000:
00000000
00000000
00000000
00000000
,
00000000
00000000
00000000
00000000
,
00000000
00000000
00000000
00000000
,
00000000
00000000
00000000
00000000
,
00000000
00000000
00000000
00000000
,
00000000
00000000
00000000
00000000
,
00000000
00000000
00000000
00000000
,
00000000
00000000
00000000
00000000
,
00000000
00000001
00000001
00000000
,
00000100
00000000
00000010
00000000
00000000
00000020
00000000
00000000
,
00000000
00010030
00010000
00000000
,
00001000
00000000
00010000
01000000
,
01000000
10000000
10000000
00000000
,
00100000
00000000
01000000
00000000
00000000
02000000
00000000
00000000
,
00000000
03001000
00001000
00000000
,
00010000
00001000
00001000
00001000
,
00001000
00010000
00001000
00000010
,
00000000
00001000
00000010
00000001
,
00000100
00001000
00010000
00100000
,
00000000
00010000
00100000
10000000
,
01000000
00020000
00030000
00002000
,
00003000
00000020
00000030
00000002
,
00000003
00001000
00000010
00000100
,
00000000
00001000
00010000
00002000
,
00000000
00013000
00000000
01000000
,
01000000
00100000
00000000
00001000
,
00001000
00010000
00000000
00000010
,
00000000
00000100
00001000
00010000
,
00010000
00000000
00000000
00001000
00000000
00000000
00010000
00000000
,
00000000
00001000
00000000
00000000
00010000
00000000
00000000
00000000
,
00001000
00000000
01000000
00000000
00000000
00100000
00000000
00000000
,
01000000
00000000
00000000
00100000
00000000
00000000
10000000
00000000
,
10000000
10010000
00000000
00010000
,
00000000
00100000
01000000
00010000
,
00000000
00001000
00000000
00000010
,
00000000
00000100
00000010
00001000
,
00000000
00010000
00000000
00001000
,
00000000
01000000
00100000
00010000
,
00000000
00000000
00001000
00000000
00000000
00010000
00000000
00000000
,
00001000
00000000
00000000
00010000
00000000
00000000
00000100
00000000
,
00000000
00000010
00000000
00000000
00000001
00000000
00001000
00000000
,
00001001
00000000
00000001
00000100
,
00001000
01000000
00010000
10000000
,
10010000
00000000
10000000
01000000
,
00010000
00000100
00002000
00000000
,
00003001
00000000
00000100
00001000
,
01000000
00000000
00020000
00000000
,
10030000
00000000
01000000
00010000
,
00000100
00000000
00001000
00000001
,
00001001
00000000
00000001
00000010
,
00001000
00000000
00100000
00000000
00010000
00000000
00000000
10000000
,
00000000
00000000
00000000
00010000
00000000
00000000
20000000
00000000
,
00000000
00000000
30010000
01000000
,
00100000
00010000
00000010
00000100
,
00001000
00000000
00000000
00000000
00010000
00000000
00000000
00001000
,
00000000
00022000
00000000
00000000
,
00033000
00000000
00000000
00000000
00001000
00000000
00000000
00010000
,
00000000
01000000
00000000
00100000
,
00001000
00000000
00000000
00000000
00010000
00000000
00000000
00001000
,
00000000
00000100
00000000
00000010
,
00010000
00010000
00001000
00001000
,
00000000
00000000
00100000
00000000
01000000
00000000
00000000
02000000
,
00000000
00000000
13000000
10000000
,
00000000
00010000
01000000
00100000
,
00010000
00010000
00001000
00001000
,
00000000
00000000
00000100
00000000
00000010
00000000
00000000
00000020
,
00000000
00000000
00001030
00001000
,
00000000
00000100
00000010
00001000
,
00010000
00010000
01000000
00100000
,
00010000
00000000
10000000
00000000
00100000
00000000
00000000
00200000
,
00000000
01300000
00001000
00001000
,
00000000
00010000
00000000
00010000
00000000
00010000
00000000
00010000
,
00000000
00000100
00000010
00000001
,
00001000
00000000
00000010
00000000
00000100
00000000
00000000
00000200
,
00000000
00000310
00010000
00001000
,
00100000
00000000
00000000
00000000
00010000
00000000
00000000
10000000
,
00000000
10010000
00000000
00000000
;

//---------------dance-single - ----------------
#NOTES:
     dance-single:
     :
     Beginner:
     3:
     0.162183,0.244337,0.054933,0.054933,0.000000,124.000000,118.000000,6.000000,6.000000,0.000000,0.000000,0.162183,0.244337,0.054933,0.054933,0.000000,124.000000,118.000000,6.000000,6.000000,0.000000,0.000000:
0000
0000
0000
0000
,
0000
0000
0000
0000
,
0000
0000
0000
0000
,
0000
0000
0000
0000
,
0000
0000
0000
0000
,
0000
0000
0000
0000
,
0000
0000
0000
0000
,
0000
0000
0000
0000
,
0000
0000
0000
1000
,
0000
0001
0000
0001
,
0000
0000
0000
0100
,
0000
0010
0000
0010
,
0000
0000
0000
1000
,
0000
0001
0000
0001
,
0000
0000
0000
0010
,
0000
0100
0000
0100
,
0000
0110
0000
0000
,
0000
0001
0000
1000
,
0000
0010
0000
0000
,
0000
1000
0000
0001
,
0000
0010
0000
0010
,
0000
0100
0000
0100
,
0000
1000
0000
0000
,
0000
0001
0000
1000
,
0000
0001
0000
0100
,
0000
1000
0000
0100
,
0000
0001
0000
0010
,
0000
1000
0000
0010
,
0000
0001
0000
0001
,
0000
1000
0000
1000
,
0000
0010
0010
0000
,
0100
0100
0000
0010
,
0000
1001
0000
0000
,
0000
1000
0000
1000
,
0000
1001
0000
0000
,
0000
0001
0000
0001
,
0000
1001
0000
0000
,
0000
1000
0000
1000
,
0000
0001
0000
0100
,
0000
0010
0000
1000
,
0000
0000
0000
0000
,
0001
0000
0010
0000
,
0100
0100
0000
0000
,
1000
0000
0010
0000
,
0100
0100
0000
0000
,
0001
0000
1000
0000
,
1001
0000
0000
0000
,
0001
0000
1000
0000
,
1001
0000
0001
0000
,
1000
0000
0100
0000
,
0010
0010
0000
0000
,
0001
0000
1000
0000
,
0001
0000
0200
0000
,
0300
0000
0020
0000
,
0030
0000
2000
0000
,
0000
3001
0000
0000
,
1000
0000
0200
0000
,
0000
0000
0310
0000
,
0001
0000
0200
0000
,
0000
0000
0310
0000
,
1000
0000
0100
0000
,
0010
0000
0001
0000
,
0001
0000
0000
0000
,
0100
0000
0010
0000
,
0010
0000
1000
0000
,
0001
0000
0010
0000
,
0010
0000
0000
0000
,
0100
0000
1000
0000
,
1000
0000
0001
0000
,
0100
0000
0010
0000
,
0010
0000
1000
0000
,
0010
0000
0100
0000
,
0100
0000
0001
0000
,
0010
0000
0100
0000
,
0100
0000
1000
1000
,
0000
0000
0002
0000
,
0000
1003
0000
0000
;

//---------------dance-double - testdp----------------
#NOTES:
     dance-double:
     :
     Edit:
     6:
     0.266817,0.349053,0.054933,0.146488,0.000000,204.000000,198.000000,6.000000,16.000000,0.000000,0.000000,0.266817,0.349053,0.054933,0.146488,0.000000,204.000000,198.000000,6.000000,16.000000,0.000000,0.000000:
00000000
00000000
00000000
00000000
,
00000000
00000000
00000000
00000000
,
00000000
00000000
00000000
00000000
,
00000000
00000000
00000000
00000000
,
00000000
00000000
00000000
00000000
,
00000000
00000000
00000000
00000000
,
00000000
00000000
00000000
00000000
,
00000000
00000000
00000000
00000000
,
00000000
00000001
00000001
00000000
,
00000100
00000000
00000010
00000000
00000000
00000020
00000000
00000000
,
00000000
00010030
00010000
00000000
,
00001000
00000000
00010000
01000000
,
01000000
10000000
10000000
00000000
,
00100000
00000000
01000000
00000000
00000000
02000000
00000000
00000000
,
00000000
03001000
00001000
00000000
,
00010000
00001000
00001000
00001000
,
00001000
00010000
00001000
00000010
,
00000000
00001000
00000010
00000001
,
00000100
00001000
00010000
00100000
,
00000000
00010000
00100000
10000000
,
01000000
00020000
00030000
00002000
,
00003000
00000020
00000030
00000002
,
00000003
00001000
00000010
00000100
,
00000000
00001000
00010000
00002000
,
00000000
00013000
00000000
01000000
,
01000000
00100000
00000000
00001000
,
00001000
00010000
00000000
00000010
,
00000000
00000100
00001000
00010000
,
00010000
00000000
00000000
00001000
00000000
00000000
00010000
00000000
,
00000000
00001000
00000000
00000000
00010000
00000000
00000000
00000000
,
00001000
00000000
01000000
00000000
00000000
00100000
00000000
00000000
,
01000000
00000000
00000000
00100000
00000000
00000000
10000000
00000000
,
10000000
10010000
00000000
00010000
,
00000000
00100000
01000000
00010000
,
00000000
00001000
00000000
00000010
,
00000000
00000100
00000010
00001000
,
00000000
00010000
00000000
00001000
,
00000000
01000000
00100000
00010000
,
00000000
00000000
00001000
00000000
00000000
00010000
00000000
00000000
,
00001000
00000000
00000000
00010000
00000000
00000000
00000100
00000000
,
00000000
00000010
00000000
00000000
00000001
00000000
00001000
00000000
,
00001001
00000000
00000001
00000100
,
00001000
01000000
00010000
10000000
,
10010000
00000000
10000000
01000000
,
00010000
00000100
00002000
00000000
,
00003001
00000000
00000100
00001000
,
01000000
00000000
00020000
00000000
,
10030000
00000000
01000000
00010000
,
00000100
00000000
00001000
00000001
,
00001001
00000000
00000001
00000010
,
00001000
00000000
00100000
00000000
00010000
00000000
00000000
10000000
,
00000000
00000000
00000000
00010000
00000000
00000000
20000000
00000000
,
00000000
00000000
30010000
01000000
,
00100000
00010000
00000010
00000100
,
00001000
00000000
00000000
00000000
00010000
00000000
00000000
00001000
,
00000000
00022000
00000000
00000000
,
00033000
00000000
00000000
00000000
00001000
00000000
00000000
00010000
,
00000000
01000000
00000000
00100000
,
00001000
00000000
00000000
00000000
00010000
00000000
00000000
00001000
,
00000000
00000100
00000000
00000010
,
00010000
00010000
00001000
00001000
,
00000000
00000000
00100000
00000000
01000000
00000000
00000000
02000000
,
00000000
00000000
13000000
10000000
,
00000000
00010000
01000000
00100000
,
00010000
00010000
00001000
00001000
,
00000000
00000000
00000100
00000000
00000010
00000000
00000000
00000020
,
00000000
00000000
00001030
00001000
,
00000000
00000100
00000010
00001000
,
00010000
00010000
01000000
00100000
,
00010000
00000000
10000000
00000000
00100000
00000000
00000000
00200000
,
00000000
01300000
00001000
00001000
,
00000000
00010000
00000000
00010000
00000000
00010000
00000000
00010000
,
00000000
00000100
00000010
00000001
,
00001000
00000000
00000010
00000000
00000100
00000000
00000000
00000200
,
00000000
00000310
00010000
00001000
,
00100000
00000000
00000000
00000000
00010000
00000000
00000000
10000000
,
00000000
10010000
00000000
00000000
;
