#VERSION:0.83;
#TITLE:Endless Journey;
#SUBTITLE:;
#ARTIST:vanishing act;
#TITLETRANSLIT:;
#SUBTITLETRANSLIT:;
#ARTISTTRANSLIT:;
#GENRE:;
#ORIGIN:;
#CREDIT:;
#BANNER:Endless Journey.png;
#BACKGROUND:Endless Journey-bg.png;
#PREVIEWVID:;
#JACKET:Endless Journey-jacket.png;
#CDIMAGE:;
#DISCIMAGE:;
#LYRICSPATH:;
#CDTITLE:;
#MUSIC:Endless Journey.ogg;
#OFFSET:1.648462;
#SAMPLESTART:26.308041;
#SAMPLELENGTH:13.150684;
#SELECTABLE:YES;
#BPMS:0.000=146.000;
#STOPS:;
#DELAYS:;
#WARPS:;
#TIMESIGNATURES:0.000=4=4;
#TICKCOUNTS:0.000=4;
#COMBOS:0.000=1;
#SPEEDS:0.000=1.000=0.000=0;
#SCROLLS:0.000=1.000;
#FAKES:;
#LABELS:0.000=Song Start;
#BGCHANGES:;
#KEYSOUNDS:;
#ATTACKS:
;

//---------------dance-single - ----------------
#NOTEDATA:;
#CHARTNAME:;
#STEPSTYPE:dance-single;
#DESCRIPTION:;
#CHARTSTYLE:;
#DIFFICULTY:Hard;
#METER:13;
#RADARVALUES:0.492461,0.600535,0.249573,0.296368,0.183280,442.000000,410.000000,32.000000,38.000000,0.000000,0.000000,0.000000,0.000000,0.000000,0.492461,0.600535,0.249573,0.296368,0.183280,442.000000,410.000000,32.000000,38.000000,0.000000,0.000000,0.000000,0.000000,0.000000;
#CREDIT:Daniel Van Eden;
#NOTES:
0000
0000
0000
0000
,
0000
0000
0000
0000
,
0000
0000
0000
0000
,
0000
0000
0000
0000
,
0000
0000
0000
0000
,
0000
0000
0000
0000
,
0000
0000
0000
0000
,
0000
0000
0000
0000
,
0000
0000
0000
0000
,
1001
0000
0000
0000
0001
0000
1000
0000
0100
0000
0000
0010
0100
0000
1000
0000
,
0010
0000
0010
0100
1000
0100
0001
0010
,
0100
0000
0020
0030
0020
0030
0200
0300
2000
3000
0000
0200
0310
0000
0001
0000
,
1000
0000
0010
0000
0001
0000
0010
0000
0100
0000
0000
0001
0010
0000
0100
0000
,
1000
0000
0000
0000
1000
0000
0001
0000
0010
0000
0000
0100
0010
0000
0001
0000
,
1000
0000
1000
0010
0100
1000
0100
0001
,
0010
0000
0000
0100
1000
0000
0001
0000
0100
0000
0010
0000
0001
0000
0010
0000
,
1000
0000
0000
0100
0010
0000
0001
0000
0010
0000
1000
0000
0010
0000
0100
0000
,
1100
0000
0100
0000
1000
0100
0000
0000
0010
0000
0100
0000
0010
0000
0001
0000
,
0100
0000
0100
0000
0001
0100
0000
0000
0010
0000
0100
0000
0010
0000
1000
0000
,
0001
0000
0001
0000
0010
0001
0000
0000
0010
0000
1000
0000
0010
0000
0001
0000
,
1000
0000
0000
0000
0101
0000
0000
0000
0001
0000
0000
0001
1000
0000
0100
0000
,
0010
0000
0010
0000
0001
0010
0000
0000
0100
0000
0010
0000
0100
0000
1000
0000
,
0010
0000
0010
0000
1000
0010
0000
0000
0001
0000
0010
0000
1000
0000
0001
0000
,
0010
0000
1000
0000
0010
0100
0000
0000
1000
0000
0100
0000
0001
0000
0100
0000
,
1000
0000
0000
0000
0011
0000
0000
0000
0001
0000
0000
0001
0010
0000
0100
0000
,
0220
0000
0000
0000
,
0030
0000
0000
0000
0000
0000
0010
0000
0010
0000
0000
1000
0000
0000
2300
0000
,
0000
0000
0000
3010
0001
1000
0100
0001
,
0010
0100
0002
0000
0000
0000
0103
1000
,
0010
0000
0000
0010
0000
0000
1000
0000
0001
0000
0000
0000
0010
0000
0001
0000
,
0010
0000
0000
0010
0000
0000
0001
0000
0010
0000
0000
0100
0000
1000
0001
0000
,
0100
0000
0000
0100
0000
0000
0001
0000
1000
0000
0000
0000
0100
0010
0001
0000
,
1000
0000
0000
0010
0000
0000
1000
0000
0001
0000
0100
0000
0001
0000
1000
0000
,
0100
0000
0000
0100
0000
0000
1000
0000
0001
0000
0000
0000
0100
0000
0001
0000
,
0100
0000
0000
0100
0000
0000
0001
0000
0100
0000
0000
0010
0000
1000
0001
0000
,
0020
0000
0000
1030
0001
0100
1000
0010
,
0001
1000
0200
0000
0302
0000
1003
0000
,
1010
0000
0000
1000
0010
0000
0100
0000
0010
0000
0000
0000
0100
0000
0001
0000
,
0100
0000
0000
0100
0001
0000
0010
0000
0100
0000
0000
0100
0010
0001
1000
0000
,
0001
0000
0000
0100
0001
0000
0100
0000
0010
0000
0000
0000
0100
0001
1000
0000
,
0100
0000
0000
0010
0001
0000
0100
0000
0001
0000
0010
0000
1000
0000
0010
0000
,
0100
0000
0000
0100
1000
0000
0010
0000
1000
0000
0000
0000
0101
0000
0001
0000
,
0100
0000
0000
0100
0001
0000
0010
0000
0001
0000
0100
0000
1000
0000
0100
0000
,
0001
0000
1010
0010
0001
1000
0100
0001
,
0010
1000
0020
0000
0032
0000
1003
0000
,
2002
0000
0000
0000
,
0000
0000
0000
0000
,
0000
0000
0000
0000
,
3003
0000
0000
0000
,
2000
0000
3000
0000
,
0000
0010
0020
0000
0030
0000
2000
0000
,
3002
0003
0002
0000
0003
0000
0000
0000
,
0020
0032
0103
0110
,
1001
0000
0000
0000
1100
0000
0000
0100
0000
0100
1000
0000
0010
0000
1000
0000
,
0001
0010
0010
0001
1000
0001
0101
0000
,
0110
0000
1010
0010
1000
0100
0002
0103
,
1000
0012
1003
2010
,
3001
0000
0000
0000
0001
0010
0100
0000
2000
0000
3100
0000
0010
0000
0010
0000
,
1000
0010
0010
0001
0100
1000
0001
0010
,
1000
0000
0001
0000
0010
0000
0000
0100
0000
0100
0010
0000
0001
1000
0001
0000
,
0101
0110
1010
1100
,
1001
0000
0001
0000
0100
0000
0010
0100
0000
0100
0001
0000
0010
0000
0001
0000
,
1000
0100
0100
1000
0010
0100
1001
0000
,
0101
0000
1100
1000
0001
0100
2000
3100
,
0001
2010
3100
0012
,
1003
0000
0010
0000
1000
0100
0010
0000
0002
0000
0013
0000
0100
0000
0100
0000
,
0001
0100
0100
1000
0010
0001
1000
0100
,
0001
0000
0010
0000
0100
0000
1000
0010
0000
0010
1000
0000
0001
0010
0001
0000
,
0101
1010
0011
1100
,
1001
0000
0000
0000
0001
1000
0001
0010
,
0001
1000
0000
0000
0001
0100
0001
1000
,
0001
0100
0000
0000
0010
1000
0010
0100
,
0002
0010
0023
0230
,
1300
0000
0000
0000
1000
0010
1000
0001
,
1000
0010
0000
0000
0001
0010
1000
0001
,
0010
0100
0000
0000
0010
0001
0010
0100
,
2000
3020
0230
0302
,
0003
0000
0000
0000
;

//---------------dance-single - ----------------
#NOTEDATA:;
#CHARTNAME:;
#STEPSTYPE:dance-single;
#DESCRIPTION:;
#CHARTSTYLE:;
#DIFFICULTY:Beginner;
#METER:2;
#RADARVALUES:0.125901,0.215257,0.070192,0.000000,0.000000,113.000000,104.000000,9.000000,0.000000,0.000000,0.000000,0.000000,0.000000,0.000000,0.125901,0.215257,0.070192,0.000000,0.000000,113.000000,104.000000,9.000000,0.000000,0.000000,0.000000,0.000000,0.000000,0.000000;
#CREDIT:Daniel Van Eden;
#NOTES:
// measure 0
0000
0000
0000
0000
,  // measure 1
0000
0000
0000
0000
,  // measure 2
0000
0000
0000
0000
,  // measure 3
0000
0000
0000
0000
,  // measure 4
0000
0000
0000
0000
,  // measure 5
0000
0000
0000
0000
,  // measure 6
0000
0000
0000
0000
,  // measure 7
0000
0000
0000
0000
,  // measure 8
0000
0000
0000
0000
,  // measure 9
1000
0000
0010
0000
,  // measure 10
1000
0000
0100
0100
,  // measure 11
0100
0000
0000
0000
,  // measure 12
0010
0000
0001
0000
,  // measure 13
0001
0000
0010
0000
,  // measure 14
0001
0000
0100
0100
,  // measure 15
0100
0000
0010
0000
,  // measure 16
1000
0000
0001
0000
,  // measure 17
1001
0000
0010
0010
,  // measure 18
0010
0000
0010
0010
,  // measure 19
0010
0000
0100
0100
,  // measure 20
0100
0000
0100
0000
,  // measure 21
1000
0000
0001
0001
,  // measure 22
0001
0000
1000
1000
,  // measure 23
1000
0000
0010
0010
,  // measure 24
0010
0000
0010
0000
,  // measure 25
1001
0000
0000
0000
,  // measure 26
0000
0000
0000
0000
,  // measure 27
0000
0000
0000
0000
,  // measure 28
0000
0000
0000
0000
,  // measure 29
1000
0000
0000
0000
,  // measure 30
0010
0000
0000
0000
,  // measure 31
0100
0000
0000
0000
,  // measure 32
0001
0000
0000
0000
,  // measure 33
0010
0000
0000
0000
,  // measure 34
0100
0000
0000
0000
,  // measure 35
0010
0000
0010
0000
,  // measure 36
0100
0000
0100
0000
,  // measure 37
0110
0000
0010
0000
,  // measure 38
0001
0000
0001
0000
,  // measure 39
0100
0000
0010
0000
,  // measure 40
1000
0000
1000
0000
,  // measure 41
0010
0000
1000
0000
,  // measure 42
0010
0000
0010
0000
,  // measure 43
0100
0000
0001
0000
,  // measure 44
1000
0000
0001
0000
,  // measure 45
1001
0000
0000
0000
,  // measure 46
0000
0000
0000
0000
,  // measure 47
0000
0000
0000
0000
,  // measure 48
0000
0000
0000
0000
,  // measure 49
0000
0000
0000
0000
,  // measure 50
0000
0000
0000
0000
,  // measure 51
0000
0000
0000
0000
,  // measure 52
0000
0000
0000
0000
,  // measure 53
1001
0000
0001
0000
,  // measure 54
0010
0000
0001
0000
,  // measure 55
1000
0000
0010
0000
,  // measure 56
1000
1000
1000
0000
,  // measure 57
1001
0000
0001
0000
,  // measure 58
0100
0000
0001
0000
,  // measure 59
1000
0000
0100
0000
,  // measure 60
0010
0010
0010
0000
,  // measure 61
0110
0000
0100
0000
,  // measure 62
1000
0000
0001
0000
,  // measure 63
0100
0000
0010
0000
,  // measure 64
0100
0100
0100
0000
,  // measure 65
0110
0000
0100
0000
,  // measure 66
0001
0000
0010
0000
,  // measure 67
0001
0000
1000
0000
,  // measure 68
0001
0001
0001
0000
,  // measure 69
1001
0000
0000
0000
;

//---------------dance-single - ----------------
#NOTEDATA:;
#CHARTNAME:;
#STEPSTYPE:dance-single;
#DESCRIPTION:;
#CHARTSTYLE:;
#DIFFICULTY:Easy;
#METER:6;
#RADARVALUES:0.219491,0.276870,0.077992,0.124787,0.000000,197.000000,187.000000,10.000000,16.000000,0.000000,0.000000,0.000000,0.000000,0.000000,0.219491,0.276870,0.077992,0.124787,0.000000,197.000000,187.000000,10.000000,16.000000,0.000000,0.000000,0.000000,0.000000,0.000000;
#CREDIT:Daniel Van Eden;
#NOTES:
0000
0000
0000
0000
,
0000
0000
0000
0000
,
0000
0000
0000
0000
,
0000
0000
0000
0000
,
0000
0000
0000
0000
,
0000
0000
0000
0000
,
0000
0000
0000
0000
,
0000
0000
0000
0000
,
0000
0000
0000
0000
,
1000
0000
0010
1000
,
0001
0000
0010
0100
,
0020
0000
0130
1000
,
0010
1000
0001
1000
,
0001
0000
0010
0001
,
1000
0000
0010
1000
,
0002
1003
1000
0010
,
2000
3001
0010
0000
,
1001
0001
1000
0000
,
1010
0010
1000
0000
,
1100
0100
1000
0000
,
1000
0001
0001
1000
,
1001
1000
0001
0000
,
0101
0100
0001
0000
,
0011
0010
0001
0000
,
0010
0100
0100
1000
,
0002
0000
0000
0000
,
0000
0000
0010
0000
,
0023
0000
0230
0000
,
2300
0001
0000
0000
,
3001
0000
0010
0000
,
0001
0001
1000
0000
,
0010
0000
1000
0000
,
0100
0100
0010
0001
,
1000
0000
0001
0000
,
0001
0000
1000
0010
,
1000
0000
0001
0010
,
0100
1000
0010
1000
,
1001
1000
0001
0000
,
0010
0010
0001
0100
,
0001
0001
1000
0000
,
0010
1000
0001
0100
,
0010
0010
1000
0001
,
0010
0010
0100
1000
,
0001
0001
1000
0010
,
0100
0001
0010
0001
,
2002
0000
0000
0000
,
0000
0000
0000
0000
,
0000
0000
0000
0000
,
3003
0000
0000
0000
,
1000
0000
0000
0000
,
0000
0001
0001
0000
0000
0000
0001
0000
,
1000
1000
0000
0000
,
0010
0010
0010
1000
,
1001
0000
1000
0000
0001
0000
0000
0001
,
1000
0000
0000
1000
0001
0000
0020
0000
,
0100
0130
1000
0010
,
2000
0010
0010
0001
,
3100
0000
0100
0000
1000
0000
0000
1000
,
0001
0000
0000
0001
1000
0000
0010
0000
,
0100
0100
0001
0010
,
0002
0010
1000
0010
,
0103
0000
0010
0000
0100
0000
0000
0100
,
0010
0000
0000
0010
0100
0000
0001
0000
,
1000
1000
0100
0010
,
0200
0010
0010
1000
,
0310
0000
0001
0000
0100
0000
0000
0100
,
0010
0000
0000
0010
0100
0000
0001
0000
,
1000
0100
0010
0010
,
0200
1000
1000
0310
,
0220
0000
0000
0000
,
0000
0000
0000
0000
,
0330
0000
0000
0000
;

//---------------dance-single - ----------------
#NOTEDATA:;
#CHARTNAME:;
#STEPSTYPE:dance-single;
#DESCRIPTION:;
#CHARTSTYLE:;
#DIFFICULTY:Medium;
#METER:11;
#RADARVALUES:0.402214,0.478868,0.132586,0.140385,0.070192,361.000000,344.000000,17.000000,18.000000,0.000000,0.000000,0.000000,0.000000,0.000000,0.402214,0.478868,0.132586,0.140385,0.070192,361.000000,344.000000,17.000000,18.000000,0.000000,0.000000,0.000000,0.000000,0.000000;
#CREDIT:Daniel Van Eden;
#NOTES:
0000
0000
0000
0000
,
0000
0000
0000
0000
,
0000
0000
0000
0000
,
0000
0000
0000
0000
,
0000
0000
0000
0000
,
0000
0000
0000
0000
,
0000
0000
0000
0000
,
0000
0000
0000
0000
,
0000
0000
0000
0000
,
0001
0000
0000
1000
0010
0000
1000
0000
,
0001
0000
0000
0001
0010
0000
0100
0010
,
0200
0000
1000
0000
1300
0000
0010
1000
,
0010
0000
0100
0010
0100
0000
0001
0000
,
1000
0000
0000
0001
0010
0000
0100
0000
,
1000
0000
0000
1000
0010
0000
0100
0010
,
0100
0000
0001
0000
0001
0000
0010
0100
,
0010
0000
0001
1000
0001
0000
0010
0000
,
0001
0000
0101
0000
0001
1000
0100
0010
,
0100
1000
0000
0000
1000
0001
1000
0010
,
1000
0100
0000
0000
0010
0001
0010
0100
,
2000
3001
0002
1003
,
0100
0000
0110
0000
0010
0001
0010
0100
,
0010
0001
0000
0000
0100
0010
1000
0001
,
1000
0100
0000
0000
0010
0100
1000
0001
,
2000
3010
0020
0130
,
2002
0000
0000
0000
,
3003
0000
0000
0000
0000
0000
0001
0000
0010
0000
0000
0100
0000
0000
1000
0000
,
0000
0000
0000
0010
1000
0001
0010
0100
,
1000
0100
0010
0000
0000
0000
0000
0000
,
0010
0000
0000
0010
0000
0000
0001
0000
1000
0000
0000
0000
0001
0000
1000
0000
,
0001
0000
0000
0001
0000
0000
1000
0000
0001
0000
0000
1000
0000
0000
0010
0000
,
0100
0000
0000
0100
0000
0000
0001
0000
1000
0000
0000
0000
0100
0000
1000
0000
,
0100
0000
0000
0010
0000
0000
0001
0000
1000
0000
0001
0000
1000
0000
0000
0000
,
0010
0000
0000
0010
0000
0000
1000
0000
0001
0000
0000
0000
1000
0000
0001
0000
,
1000
0000
0000
1000
0000
0000
0001
0000
1000
0000
0000
0001
0000
0000
0100
0000
,
0010
0000
0000
1000
0100
0010
0001
0010
,
0100
1000
0002
0000
2003
0000
3001
0000
,
0010
0000
0000
0010
0000
0000
0100
0000
1000
0000
0000
0000
1000
0000
0001
0000
,
1000
0000
0000
1000
0000
0000
0010
0000
0100
0000
0000
0001
0000
0000
1000
0000
,
0001
0000
0000
0010
0000
0000
0001
0000
0100
0000
0000
0000
0001
0000
0010
0000
,
0100
0000
0000
0010
0000
0000
0100
0000
1000
0000
0001
0000
1000
0000
0000
0000
,
0001
0000
0000
0001
0000
0000
1000
0000
0010
0000
0000
0000
1000
0000
0001
0000
,
1000
0000
0000
1000
0000
0000
0010
0000
0100
0000
0010
0000
1000
0000
0000
0000
,
0001
0000
0000
0001
0010
0100
1000
0001
,
1000
0100
0020
0000
0032
0000
1003
0000
,
2002
0000
0000
0000
,
0000
0000
0000
0000
,
0000
0000
0000
0000
,
3003
0000
0000
0000
,
0000
0000
0000
0000
1000
0100
1000
0001
,
1000
0100
0000
0000
1000
0100
1000
0001
,
1000
0100
0000
0000
0010
0001
0010
0100
,
2000
0001
3001
0110
,
1001
0000
0000
0000
0000
0000
1000
0000
0010
0000
0000
0100
0000
0000
0001
0000
,
0010
0001
0000
1000
0100
1000
0001
0000
,
1000
0000
1000
0001
0010
0100
0000
1000
,
0010
1010
1000
1001
,
0001
0000
0020
0000
0130
0000
1000
1000
,
0010
1000
0000
0001
0010
0100
1000
0010
,
1000
0000
0100
0000
0010
0000
0000
0100
0000
0000
0100
0000
0010
0000
0001
0000
,
1000
0101
0010
1100
,
1001
0000
0001
0000
0010
0001
0010
1000
,
0010
0001
1000
0000
0010
1000
0010
0001
,
0010
1000
0001
0000
0100
1000
0100
0001
,
1000
1100
0001
0101
,
0100
0000
1010
0000
0100
1000
0100
0001
,
0100
1000
0010
0000
0001
0010
1000
0001
,
0010
0100
0001
0000
0100
1000
0100
0010
,
0001
1010
0010
0110
,
1001
0000
0000
0000
0001
1000
0001
0010
,
0001
1000
0000
0000
0001
1000
0001
0010
,
0001
1000
0000
0000
0100
1000
0100
0010
,
0002
1000
1000
0203
,
0310
0000
0000
0000
1000
0010
1000
0001
,
1000
0010
0000
0000
0100
0001
0100
0010
,
1000
0001
0000
0000
0010
0001
0010
0100
,
2000
0010
0001
3010
;
