#TITLE:EZ DO DANCE;
#SUBTITLE:;
#ARTIST:Prizmmy☆;
#TITLETRANSLIT:;
#SUBTITLETRANSLIT:;
#ARTISTTRANSLIT:;
#GENRE:IDOL TECHNO;
#CREDIT:;
#BANNER:EZ DO DANCE.png;
#BACKGROUND:EZ DO DANCE-bg.png;
#LYRICSPATH:;
#CDTITLE:;
#MUSIC:EZ DO DANCE.ogg;
#OFFSET:0.002766;
#SAMPLESTART:73.322113;
#SAMPLELENGTH:12.000000;
#SELECTABLE:YES;
#BPMS:0.000000=144.000000
;
#STOPS:
;
#BGCHANGES:0.000=EZ DO DANCE.mp4=1.000=1=0=1===CrossFade==,
99999=-nosongbg-=1.000=0=0=0 // don't automatically add -songbackground-
;
#KEYSOUNDS:;
#ATTACKS:;

//---------------dance-single - ----------------
#NOTES:
     dance-single:
     :
     Challenge:
     12:
     0.590878,0.731770,0.034468,0.034468,0.517018,480.000000,476.000000,4.000000,4.000000,80.000000,0.000000,0.590878,0.731770,0.034468,0.034468,0.517018,480.000000,476.000000,4.000000,4.000000,80.000000,0.000000:
0000
0000
0000
0000
,
0000
0000
0000
0000
,
0000
0000
0000
0000
,
0000
0000
0000
0000
,
1000
0000
0000
0100
0000
0000
0010
0000
0000
0100
0000
0100
1000
0000
0001
0000
,
1000
0000
0000
0010
0000
0000
0100
0000
0000
0010
0000
0010
1000
0000
0001
0000
,
1000
0000
0000
0100
0000
0000
0001
0000
0000
0100
0000
0100
0010
0000
0001
0000
,
1000
0010
0100
0001
0000
0000
MMMM
0000
,
1000
0000
0100
0000
0010
0000
0000
0000
0001
0000
1000
0001
0100
0000
0000
0000
,
0001
0000
0010
0100
1000
0000
0100
0000
1000
0000
0001
0100
0010
0000
0000
0000
,
0100
0000
0000
0001
0000
0000
0010
0000
0000
0001
0000
0100
0001
0000
1000
0000
,
0100
0010
0100
0000
1000
0001
MMMM
0000
,
1000
0000
0010
0000
0100
0000
0000
0000
0010
1000
0010
1000
0001
0000
0000
0000
,
1000
0100
1000
0100
0010
0000
0001
0000
1000
0000
0001
1000
0100
0000
0000
0000
,
1000
0000
0000
0010
0000
0000
0100
0000
0000
0010
0000
0010
1000
0000
0001
0000
,
1000
0100
0001
0100
0000
0000
MMMM
0000
,
1000
0000
0000
0010
0000
0000
0100
0000
0000
0010
0000
0010
1000
0000
0001
0000
,
0010
0000
0000
0100
0000
0000
0010
0000
0000
0001
0000
0001
1000
0000
0001
0000
,
1000
0000
0000
0010
0000
0000
0100
0000
0000
1000
0000
1000
0100
0000
0010
0000
,
1000
0100
0010
0001
1000
0001
0100
0100
,
0001
0000
0000
0010
0000
0000
0100
0000
0000
0010
0000
0010
0001
0000
1000
0000
,
0010
0000
0000
0100
0000
0000
0010
0000
0000
1000
0000
1000
0001
0000
1000
0000
,
0001
0000
0000
0010
0000
0000
0100
0000
0000
0001
0000
0001
0100
0000
0010
0000
,
0001
0100
0010
1000
0001
1000
MMMM
0000
,
1000
0000
0010
1000
0000
0001
1000
0000
0001
0000
0100
0000
0010
0000
0100
0000
,
0001
0000
0010
0001
0000
1000
0001
0000
0100
0000
0010
0000
0100
0000
0001
0000
,
0010
0000
0100
1000
0000
0100
0010
0000
0001
0000
0100
0000
1000
0000
0100
0000
,
0010
0100
0001
1000
0100
0010
0001
0001
,
1000
0000
0100
1000
0000
0001
1000
0000
0001
0000
0010
0000
0100
0000
0010
0000
,
0001
0000
0100
0001
0000
1000
0001
0000
0010
0000
0100
0000
0010
0000
0001
0000
,
0100
0000
0010
1000
0000
0010
0100
0000
0001
0000
0010
0000
1000
0000
0010
0000
,
0001
0100
0010
1000
0010
0100
0001
1000
0001
MMMM
0000
0000
,
1000
0000
0000
0000
0010
0000
0000
0000
0100
0000
0000
0010
1000
0000
MMMM
0000
,
0001
0000
0000
0000
0010
0000
0000
0000
0100
0000
0000
0010
0001
0000
MMMM
0000
,
1000
0000
0000
0000
0010
0000
0000
0000
0001
0000
0000
0010
1000
0000
MMMM
0000
,
0001
0000
0000
0000
0100
0000
0000
0000
1000
0000
0000
0100
0001
0000
MMMM
0000
,
1000
0000
0010
0000
0100
0000
0010
0000
1000
0000
0100
0010
0001
0000
MMMM
0000
,
0001
0000
0100
0000
0010
0000
0100
0000
0001
0000
0010
0100
1000
0000
MMMM
0000
,
1000
0010
0001
0010
0100
0001
1000
0010
,
1000
0000
0100
0000
0001
0000
0100
0000
1000
0001
1000
0001
1000
0001
1000
0001
,
2000
0000
0000
0010
0000
0000
0100
0000
0000
3010
0000
0000
MMMM
0000
0000
0000
,
0002
0000
0000
0010
0000
0000
0100
0000
0000
0013
0000
0000
MMMM
0000
0000
0000
,
1000
0000
0000
0100
0000
0000
0001
0000
0000
0010
0000
0000
1000
0000
0001
0000
,
1000
0000
0000
0000
0100
0000
0000
0000
1000
0000
0000
0000
0001
0000
0000
0100
0000
0000
0001
0000
0000
0100
0000
0000
0010
0000
0000
0000
0000
0000
0000
0000
0000
0000
0000
0000
MMMM
0000
0000
0000
0000
0000
0000
0000
0000
0000
0000
0000
,
0001
0100
0010
0100
0001
0010
0100
0010
,
0001
0000
0001
1000
0000
1000
0010
0000
0100
0000
0001
0000
1000
0000
0000
0000
,
0001
0010
1000
0010
0100
1000
0001
0100
,
0010
1000
0001
0000
1000
0100
0001
0100
,
1000
0010
0100
0010
1000
0100
0010
0100
,
1000
0000
1000
0001
0000
0001
0100
0000
0010
0000
1000
0000
0001
0000
0000
0000
,
1000
0100
0001
0100
0010
0001
1000
0010
,
0100
0001
1000
0000
0001
0010
1000
0010
,
0001
0000
0000
0001
0100
0000
0010
0000
1000
0000
0001
0000
MMMM
0000
0000
0000
,
1000
0000
0000
1000
0100
0000
0010
0000
0001
0000
1000
0000
MMMM
0000
0000
0000
,
0001
0000
0000
0001
0100
0000
1000
0000
0100
0000
0010
0000
1000
0000
0002
0000
,
0000
1000
0100
0000
0010
0000
1003
0000
,
0001
0000
1000
0100
0000
1000
0001
0000
0100
0000
0010
0000
MMMM
0000
0000
0000
,
1000
0000
0001
0100
0000
0001
1000
0000
0100
0000
0010
0000
MMMM
0000
0000
0000
,
0001
0000
0010
0001
0000
0100
0001
0000
1000
0000
0100
0000
0001
0000
0100
0000
,
1000
0010
0200
0000
0001
0001
1300
0000
,
0100
0000
0000
0010
0000
0000
1000
0000
0100
0010
0000
0010
0100
0000
0100
1000
,
0001
0000
0000
0100
0000
0000
0010
0000
0100
0001
0000
0001
1000
0000
MMMM
0000
,
0001
0000
0000
0010
0000
0000
1000
0000
0010
0100
0000
0100
1000
0000
0001
0000
,
1000
0010
1000
0000
0001
0100
0001
0000
1000
0001
1000
0000
MMMM
0000
0000
0000
,
1100
0000
0000
0100
1000
0000
0001
0000
0100
0010
0000
0010
0100
0000
0001
0000
,
0101
0000
0000
0001
0010
0000
0100
0000
0010
0001
0000
0001
1000
0000
0010
0000
,
1010
0000
0010
0100
0000
0001
1000
0000
0011
0000
0010
0100
0000
1000
0001
0000
,
1000
0010
1000
0000
0001
0100
0001
0000
1000
0001
1000
0000
0001
0010
0100
1000
;

//---------------dance-single - ----------------
#NOTES:
     dance-single:
     :
     Hard:
     11:
     0.512095,0.526389,0.241275,0.387764,0.327445,416.000000,388.000000,28.000000,45.000000,0.000000,0.000000,0.512095,0.526389,0.241275,0.387764,0.327445,416.000000,388.000000,28.000000,45.000000,0.000000,0.000000:
0000
0000
0000
0000
,
0000
0000
0000
0000
,
0000
0000
0000
0000
,
0000
0000
0000
0000
,
2000
3000
0000
0001
0000
0000
0100
0000
0000
0010
0000
0000
0100
0000
0001
0000
,
2000
3000
0000
0100
0000
0000
0010
0000
0000
0100
0000
0000
1000
0000
0001
0000
,
0200
0300
0000
0010
0000
0000
0100
0000
0000
0001
0000
0000
1000
0000
0100
0000
,
2000
3020
0230
0302
0003
0000
1001
0000
,
0001
0010
0100
0000
0100
0010
0011
0000
,
0001
0100
1000
0100
0010
1000
0001
0000
,
1000
0000
0000
0100
0000
0000
0010
0000
0000
0100
0000
0000
1000
0000
0001
0000
,
0100
0010
0100
0000
0001
1000
1001
0000
,
1000
0100
0001
0000
1000
0010
0001
0000
,
1000
0010
0100
1000
0100
0001
1000
0000
,
0001
0000
0000
0010
0000
0000
0100
0000
0000
0010
0000
0000
0001
0000
1000
0000
,
0002
0203
0320
2030
3000
0000
1001
0000
,
1000
0000
0000
0100
0000
0000
0010
0000
0000
0100
0000
0000
1000
0000
0001
0000
,
1000
0000
0000
0010
0000
0000
0100
0000
0000
0010
0000
0000
1000
0000
0001
0000
,
1000
0000
0000
0100
0000
0000
0001
0000
0000
0100
0000
0000
0010
0000
0001
0000
,
1000
0000
0000
0010
0000
0000
0100
0000
0001
0000
0000
1000
0000
0000
0100
0000
,
1000
0000
0000
0010
0000
0000
0100
0000
0000
0010
0000
0000
1000
0000
0001
0000
,
1000
0000
0000
0100
0000
0000
0010
0000
0000
0100
0000
0000
1000
0000
0001
0000
,
1000
0000
0000
0010
0000
0000
0001
0000
0000
0010
0000
0000
0100
0000
0001
0000
,
1000
0000
0000
0100
0000
0000
0010
0000
0001
0000
1000
0000
1001
0000
0000
0000
,
2000
0000
0000
0010
0000
0000
0001
0000
0000
0010
0000
0000
3001
0000
1000
0000
,
0002
0000
0000
0010
0000
0000
1000
0000
0000
0010
0000
0000
1003
0000
0001
0000
,
2000
0000
0000
0100
0000
0000
0001
0000
0000
0100
0000
0000
3001
0000
1000
0000
,
0001
0000
0000
0100
0000
0000
1000
0000
0001
0000
0000
0010
0000
0000
0100
0000
,
0002
0000
0000
0010
0000
0000
1000
0000
0000
0100
0000
0000
0013
0000
0001
0000
,
2000
0000
0000
0010
0000
0000
0001
0000
0000
0100
0000
0000
3010
0000
1000
0000
,
0002
0000
0000
0010
0000
0000
1000
0000
0000
0100
0000
0000
0013
0000
0001
0000
,
1000
0000
1000
0001
0000
0001
1000
0100
0010
0001
0000
0000
,
1000
0000
0000
0000
0010
0000
0000
0000
0100
0000
0000
0100
0001
0000
1000
0000
,
0001
0000
0000
0000
0010
0000
0000
0000
0100
0000
0000
0100
1000
0000
0001
0000
,
0100
0000
0000
0000
0010
0000
0000
0000
1000
0000
0000
1000
0001
0000
0010
0000
,
0100
0000
0000
0000
0010
0000
0000
0000
0001
0000
0000
0001
1000
0000
0010
0000
,
1010
0000
0000
0000
0101
0000
0000
0000
1010
0000
0000
0010
1000
0000
0001
0000
,
1000
0100
1000
0100
0010
1000
0010
1000
,
0001
0100
0001
0100
0010
0001
0010
0001
,
1000
0010
0001
0010
1000
0100
0001
0100
,
2100
0000
3001
0000
,
0102
0000
1003
0000
,
2001
0000
0000
0000
0100
0100
0100
3100
,
2002
0000
3000
0003
,
1000
0000
0010
0000
0001
0000
0010
0000
0100
0000
0000
0101
0000
0000
0001
0000
,
1000
0000
0000
1100
0000
0000
0100
0000
1000
0000
0001
0000
0010
0000
0000
0000
,
0001
0100
0010
0100
1000
0100
0001
0010
,
0100
1000
0002
0000
0010
0000
1003
0000
,
0001
0000
0010
0000
1000
0000
0010
0000
0100
0000
0000
1100
0000
0000
1000
0000
,
0001
0000
0000
0101
0000
0000
0100
0000
0001
0000
1000
0000
0010
0000
0000
0000
,
1000
0100
0010
0100
0001
0100
1000
0010
,
0100
0001
2000
0000
0010
0000
3001
0000
,
1000
0000
0000
1000
0010
0000
0100
0000
0010
0000
1000
0000
0001
0000
0000
0000
,
0010
0000
0000
0010
0100
0000
0010
0000
0001
0000
1000
0000
1001
0000
0000
0000
,
0001
0000
0000
0001
0100
0000
1000
0000
0100
0000
0001
0000
0010
0000
0200
0000
,
0000
1000
1000
0000
0310
0000
1001
0000
,
0001
0000
0000
0001
0010
0000
0100
0000
0010
0000
0001
0000
1000
0000
0000
0000
,
0010
0000
0000
0010
0100
0000
0010
0000
1000
0000
0001
0000
1001
0000
0000
0000
,
1000
0000
0000
1000
0100
0000
0001
0000
0100
0000
1000
0000
0010
0000
0200
0000
,
0000
0001
0001
0000
0310
0000
1001
0000
,
0001
0000
0000
0010
0000
0000
0100
0000
0000
0010
0000
0010
0001
0000
1000
0000
,
0010
0000
0000
0100
0000
0000
1000
0000
0000
0100
0000
0100
0010
0000
1000
0000
,
0001
0000
0000
0010
0000
0000
1000
0000
0000
0010
0000
0010
0100
0000
1000
0000
,
2200
3300
0022
0033
0202
0303
2020
3030
,
2000
3000
0000
0100
0000
0000
0010
0000
0000
0100
0000
0100
1000
0000
0001
0000
,
0200
0300
0000
0010
0000
0000
0001
0000
0000
0010
0000
0010
0100
0000
0001
0000
,
2000
3000
0000
0100
0000
0000
0001
0000
0000
0100
0000
0100
0010
0000
0001
0000
,
0022
0033
2200
3300
2020
3030
0202
0303
;

//---------------dance-single - ----------------
#NOTES:
     dance-single:
     :
     Beginner:
     3:
     0.201883,0.233520,0.068936,0.000000,0.000000,164.000000,156.000000,8.000000,0.000000,0.000000,0.000000,0.201883,0.233520,0.068936,0.000000,0.000000,164.000000,156.000000,8.000000,0.000000,0.000000,0.000000:
0000
0000
0000
0000
,
0000
0000
0000
0000
,
0000
0000
0000
0000
,
0000
0000
0000
0000
,
1000
0000
0000
0000
,
0001
0000
0000
0000
,
0010
0000
0100
0000
,
1001
0000
0000
0000
,
1000
1000
1000
0000
,
0001
0001
0001
0000
,
0010
0000
0100
0000
,
1000
0000
1001
0000
,
0001
0001
0001
0000
,
1000
1000
1000
0000
,
0010
0000
0100
0000
,
1001
0000
0000
0000
,
1000
1000
1000
0000
,
0100
0000
0010
0000
,
0001
0001
0001
0000
,
0100
0000
0010
0000
,
1000
1000
1000
0000
,
0001
0000
0010
0000
,
0100
0100
0100
0000
,
0010
0000
0001
0000
,
1000
1000
1000
0000
,
0010
0000
0100
0000
,
1000
1000
1000
0000
,
0100
0000
0001
0000
,
0010
0010
0010
0000
,
0100
0000
1000
0000
,
0001
0001
0001
0000
,
0100
0000
0010
0000
,
1000
1000
1000
0000
,
0001
0001
0001
0000
,
0010
0000
0100
0000
,
1000
1000
1000
0000
,
0001
0001
0001
0000
,
1000
1000
1000
0000
,
0010
0000
0100
0000
,
0010
0010
0010
0000
,
1001
0000
0000
0000
,
0110
0000
0000
0000
,
1001
0000
1001
0000
,
1001
0000
0000
0000
,
1000
1000
1000
0000
,
0100
0000
0010
0000
,
0001
0001
0001
0000
,
0100
0000
0010
0000
,
1000
1000
1000
0000
,
0001
0000
0010
0000
,
0100
0100
0100
0000
,
0010
0000
0001
0000
,
0100
0100
0100
0000
,
0010
0010
0010
0000
,
1000
0000
0001
0000
,
0010
0000
0100
0000
,
1000
1000
1000
0000
,
0001
0001
0001
0000
,
0100
0000
0010
0000
,
1000
0000
0001
0000
,
0010
0010
0010
0000
,
0100
0100
0100
0000
,
1000
1000
1000
0000
,
0001
0001
0001
0000
,
0100
0100
0100
0000
,
0010
0010
0010
0000
,
1000
1000
1000
0000
,
0001
0001
0001
0001
;

//---------------dance-single - ----------------
#NOTES:
     dance-single:
     :
     Easy:
     6:
     0.295439,0.292439,0.094787,0.017234,0.000000,240.000000,229.000000,11.000000,2.000000,0.000000,0.000000,0.295439,0.292439,0.094787,0.017234,0.000000,240.000000,229.000000,11.000000,2.000000,0.000000,0.000000:
0000
0000
0000
0000
,
0000
0000
0000
0000
,
0000
0000
0000
0000
,
0000
0000
0000
0000
,
1000
0100
0010
0001
,
1000
0010
0100
0001
,
1000
0010
0001
0010
,
2002
0000
0000
3003
,
0001
0010
0001
0001
,
1000
0010
1000
1000
,
0001
0100
1000
0100
,
0010
0000
1001
0000
,
1000
0100
1000
1000
,
0001
0100
0001
0001
,
0010
0000
0100
0000
,
1000
0001
1001
0000
,
0001
0100
0010
0100
,
0001
0010
0100
0010
,
0001
0100
1000
0100
,
0010
1000
0001
0000
,
1000
0100
0010
0100
,
1000
0010
0100
0010
,
1000
0100
0001
0100
,
1000
0010
0100
1001
,
0001
0100
0010
0100
,
0001
1000
0100
1000
,
0001
0100
0010
0100
,
0001
0010
0100
1000
,
0001
0100
0010
0100
,
0001
0010
0100
1000
,
0010
0100
0001
0100
,
0010
1000
0001
1001
,
1000
0100
1000
0000
,
0001
0100
0001
0000
,
1000
0100
0001
0100
,
1000
0001
1000
0000
,
0010
0010
0100
0100
,
0001
1000
0001
0000
,
0010
0010
0100
0100
,
1000
0001
1000
0001
,
0100
0000
0000
0000
,
0010
0000
0000
0000
,
1000
0000
0001
0000
,
1001
0000
0000
0000
,
1000
0100
0001
0100
,
0010
0100
1000
0001
,
1000
0010
0100
0010
,
0001
0010
1000
0001
,
1000
0100
0001
0010
,
0001
0100
1000
0001
,
1000
0010
0001
0100
,
0001
0010
1000
0001
,
1000
0100
1100
0000
,
0001
0100
0101
0000
,
1000
0010
0001
0010
,
0100
0001
1000
0100
,
0010
0001
0101
0000
,
0010
1000
1100
0000
,
1000
0100
0001
0100
,
0010
0001
1000
1001
,
0001
0100
1000
1000
,
0100
0010
1000
0001
,
1000
0100
0001
0001
,
0100
0010
0001
1000
,
0001
0010
1000
1000
,
0010
0100
1000
0001
,
1000
0010
0001
0001
,
0010
0000
0100
0000
0001
0000
1000
1000
;

//---------------dance-single - ----------------
#NOTES:
     dance-single:
     :
     Medium:
     9:
     0.437004,0.467902,0.163723,0.172339,0.043085,355.000000,336.000000,19.000000,20.000000,0.000000,0.000000,0.437004,0.467902,0.163723,0.172339,0.043085,355.000000,336.000000,19.000000,20.000000,0.000000,0.000000:
0000
0000
0000
0000
,
0000
0000
0000
0000
,
0000
0000
0000
0000
,
0000
0000
0000
0000
,
1000
0100
0010
0000
0001
0000
1000
0000
,
0001
0100
0010
0000
1000
0000
0001
0000
,
1000
0100
0001
0000
0001
0100
1000
0000
,
0001
0100
0010
2000
0000
0000
3001
0000
,
1000
0100
0010
0000
0010
0100
1000
0000
,
0001
0100
0010
0000
0010
0100
0001
0000
,
1000
0100
0001
0100
,
0010
0001
1000
0000
2100
0000
3001
0000
,
1000
0010
0100
0000
0100
0010
1000
0000
,
0100
0010
0001
0000
0001
0010
0100
0000
,
2000
3010
0200
0301
,
1000
0100
0010
0002
0000
0000
1003
0000
,
0001
0000
0100
0000
0010
1000
0001
0000
,
1000
0000
0100
0000
0010
0001
1000
0001
,
1000
0000
0010
0000
0100
0001
0100
0001
,
0010
0100
1000
1001
,
1000
0000
0010
0000
0001
0010
0001
0010
,
0100
0000
0001
0000
1000
0100
1000
0100
,
0010
0000
1000
0000
0001
0100
0001
0100
,
1000
0010
0100
1001
,
1000
0000
0010
0000
0100
0001
1000
0000
,
0001
0000
0010
0000
0100
1000
0001
1000
,
0001
0000
0100
0000
0010
1000
0010
1000
,
0100
0010
0001
1001
,
0001
0000
0100
0000
1000
0100
1000
0100
,
0010
0000
1000
0000
0001
0010
0001
0010
,
0100
0000
0001
0000
1000
0010
1000
0010
,
0001
0100
0010
1001
,
2000
0010
3001
1000
,
0002
0010
1003
0001
,
2000
3100
0002
0103
,
1000
0010
0100
0001
1000
0000
1001
0000
,
0001
0010
0100
0000
0010
0100
1000
0000
,
0100
1000
0001
0000
1000
0001
0100
0000
,
0001
0100
0010
0000
0100
0010
1000
0000
,
0010
1000
0001
0000
1000
0001
0100
0010
,
0200
0000
0310
0000
,
2000
0000
3001
0000
,
1100
0000
0011
0000
,
0002
0203
0320
1030
,
0010
1000
0100
0000
0010
0001
0100
0000
,
0010
1000
0001
1000
0100
0000
1001
0000
,
0100
0001
0010
0000
0100
1000
0010
0000
,
0100
0001
0010
0001
1000
0000
1001
0000
,
0001
0100
1000
0000
1000
0100
0010
0000
,
1000
0100
0010
0001
1000
0000
1001
0000
,
1000
0010
0001
0000
0001
0010
0100
0000
,
0001
0010
0100
1000
0001
1000
1001
0000
,
1000
0000
0000
0100
0000
0000
0010
0000
0100
0000
0000
0000
1000
0000
0000
0000
,
0001
0000
0000
0100
0000
0000
0010
0000
0100
0000
0000
0000
0001
0000
0000
0000
,
1000
0100
0010
0000
0010
0001
0100
0000
,
0100
1000
0001
0010
0100
0001
1000
0000
,
0001
0000
0000
0010
0000
0000
0100
0000
0010
0000
0000
0000
0001
0000
0000
0000
,
1000
0000
0000
0010
0000
0000
0100
0000
0010
0000
0000
0000
1000
0000
0000
0000
,
0001
0010
0100
0000
0100
1000
0010
0000
,
0010
0001
1000
0100
0010
1000
0001
0000
,
1000
0000
0000
0100
0000
0000
0010
0000
0002
0000
0000
0000
1003
0000
0000
0000
,
0001
0000
0000
0100
0000
0000
0010
0000
2000
0000
0000
0000
3001
0000
0000
0000
,
1000
0000
0000
0100
0000
0000
0001
0000
0200
0000
0000
0000
0310
0000
0000
0000
,
0011
1100
0101
1010
,
0001
0000
0000
0010
0000
0000
0100
0000
2000
0000
0000
0000
3001
0000
0000
0000
,
1000
0000
0000
0010
0000
0000
0100
0000
0002
0000
0000
0000
1003
0000
0000
0000
,
0001
0000
0000
0010
0000
0000
1000
0000
0020
0000
0000
0000
0130
0000
0000
0000
,
1100
0000
0011
0000
1010
0000
0100
0001
;
