#VERSION:0.83;
#TITLE:EPHMR;
#SUBTITLE:;
#ARTIST:aran;
#TITLETRANSLIT:;
#SUBTITLETRANSLIT:;
#ARTISTTRANSLIT:;
#GENRE:;
#CREDIT:;
#MUSIC:EPHMR.ogg;
#BANNER:EPHMR-bn.png;
#BACKGROUND:EPHMR-bg.png;
#CDTITLE:;
#SAMPLESTART:88.861;
#SAMPLELENGTH:15.000;
#SELECTABLE:YES;
#OFFSET:0.248;
#BPMS:0.000=202.000
,148.000=101.000
,216.000=202.000
;
#STOPS:;
#SPEEDS:0.000=1.000=0.000=0,
200.000=1.330=16.000=0,
320.000=1.780=16.000=0
;
#SCROLLS:0.000=1.000,
80.000=0.000,
80.500=1.000,
81.000=0.000,
81.500=1.000,
82.000=0.000,
82.500=1.000,
112.000=0.000,
112.500=1.000,
113.000=0.000,
113.500=1.000,
114.000=0.000,
114.500=1.000,
148.000=1.500,
216.000=0.750,
230.000=0.380,
232.000=0.750,
296.000=0.560
;
#BGCHANGES:;
#FGCHANGES:;

//--------------- dance-single - ----------------
#NOTEDATA:;
#STEPSTYPE:dance-single;
#DESCRIPTION:;
#DIFFICULTY:Hard;
#METER:13;
#RADARVALUES:0,0,0,0,0;
#CREDIT:Talkion;
#NOTES:
0000
0000
0000
0000
,
0000
0000
0000
0000
,
0000
0000
0000
0000
,
0000
0000
0000
0000
,
0000
0000
0000
0000
,
0000
0000
0000
0000
,
0000
0000
0000
0000
,
0000
0000
0000
0000
,
0000
0000
0000
0000
,
1001
0000
2000
0000
0000
3100
0010
0002
,
0000
0000
0203
0000
0000
0310
0000
0000
,
2010
0000
0001
0000
0000
3100
0000
0100
,
0010
0000
0000
0020
0000
0000
0000
0000
0031
0000
0000
0000
0000
0000
0000
0000
,
1001
0000
2000
0000
3010
0100
0010
2000
,
0001
0000
3200
0000
0310
0002
0000
0003
,
1001
0000
1000
0010
0100
0000
0001
0010
,
0200
0001
0320
0030
,
1001
0000
0001
0100
0100
0000
0100
0000
,
2001
0010
3100
0000
,
1001
0000
1000
0100
0110
0000
0210
0000
,
000M
000M
000M
0300
,
1001
0000
0001
0100
0010
0002
0000
0013
,
0100
0000
0001
0010
0100
0002
0000
0103
,
0010
0000
0001
0100
0010
0002
0000
0013
,
0100
0000
0100
0000
0010
1000
0100
0000
,
1001
0000
1000
0010
0100
2000
0000
3100
,
0010
0000
1000
0100
0010
2000
0000
3010
,
0100
0000
1000
0010
0100
1000
0100
0010
,
1000
1001
0011
2100
,
3001
0000
1000
0010
0010
0000
1010
0000
,
0101
0000
0001
1000
0010
1000
0100
0200
,
0000
0001
0000
1300
0000
0001
0100
0200
,
0000
1000
0000
0301
0000
1000
0100
0010
,
0001
0000
1000
0010
0010
0000
1020
0000
,
0130
0001
0010
0000
0011
0000
1000
0001
,
1000
0100
0020
0001
0000
0100
0000
1030
,
0001
0100
0010
0001
1000
0001
0100
0000
,
M210
0000
0301
0000
2000
0100
0100
0000
3002
0000
0103
0100
0020
0000
1030
0001
,
2000
0100
0100
0000
3002
0000
0103
0010
2000
0100
0100
0000
3001
0010
0001
0010
,
0200
0000
0301
0000
0200
0010
0010
0000
2300
0000
3010
0010
0200
0000
0301
1000
,
0002
0000
0010
0000
0010
0000
0000
0000
2003
0000
0000
0000
3010
0000
0100
0000
0002
0000
0010
0000
0010
0000
0000
0000
1003
0000
0000
1000
0000
0000
0010
0000
,
0200
0000
0302
0000
0000
0103
0010
2000
0000
0000
3200
0000
0310
0000
0000
0001
,
1000
0000
0020
0000
0000
0000
0130
0000
2000
0000
0000
0000
3100
0000
0001
0000
0010
0000
0000
0010
0000
0000
0000
0000
0110
0000
0000
0000
0001
0000
1000
0000
,
0100
0000
0000
0100
0000
0000
0010
0000
0000
0001
0000
0000
1002
0000
0000
0000
0103
0000
0000
0100
0000
0000
0010
0000
0000
1000
0000
0000
2001
0000
0000
0000
,
3100
0010
0001
0100
0010
1000
0100
0010
1000
0001
0100
0010
,
0002
0000
0000
0000
0203
0000
0010
0300
,
0002
2003
3200
2300
,
3020
0230
0302
2003
,
3200
0000
0000
0000
0000
0000
0310
0001
2000
0000
0000
0000
3000
0000
0010
0100
,
0020
0000
0000
0000
1030
0000
0100
0010
0012
0000
0000
0000
2003
0000
0000
3000
,
1002
0203
0320
0230
,
2300
0000
0000
0000
3002
0000
0000
0000
0023
0000
0000
0000
2030
0000
0000
3000
,
1001
0000
0000
0100
0100
0000
1100
0000
0011
0000
1001
0000
0101
0000
0000
0100
,
0010
0000
0020
0000
0030
1000
0001
2000
0000
3100
0000
0100
0010
0000
0000
0000
,
0021
0000
0100
0000
0100
0000
0130
2000
,
0001
0001
0001
3001
,
0201
0310
1200
0310
,
1000
0010
0100
0010
M002
0000
0003
0000
,
2010
0000
0001
0000
3100
0010
0100
0002
,
0000
0103
1000
0000
0001
1000
0010
0002
,
0000
0013
1000
0000
0001
1000
0100
0002
,
0000
0103
1000
0000
0001
0100
0020
0000
,
1030
0000
0001
0010
0010
0000
0011
0000
,
1100
0000
1001
0000
1010
0000
0010
0100
,
0001
0000
1000
0100
0100
0000
0100
0011
,
0000
0011
2000
0000
3010
0000
1001
0000
,
0012
0000
1000
0000
0103
0010
0100
2000
,
0000
3100
0001
0000
1000
0100
0001
2000
,
0000
3010
0001
0000
1000
0010
0001
2000
,
0000
3100
0001
0000
1000
0100
0010
2000
,
0001
0000
0000
3010
0010
0000
0021
0000
,
0130
1000
0010
0000
1010
0000
0001
1000
,
0001
0100
0010
0100
0001
0010
0001
0100
,
0020
0001
0230
0300
,
0110
0000
0000
0000
,
0000
0000
0000
0000
,
1001
0000
0002
0000
0000
0013
0100
2000
,
0000
0000
3020
0000
0000
0030
0000
0000
,
0100
0001
0000
0001
,
1000
0000
0100
0000
0000
0000
0100
0010
,
0001
0000
2000
0000
0000
3010
0100
0002
,
0000
0000
0013
0000
0100
0000
0100
1000
,
0001
0100
0010
1000
0100
0010
0001
1001
,
0000
0000
0101
0000
0000
0000
1010
0000
0000
0000
1000
0001
1000
0000
0000
0000
,
0100
1000
0001
1000
0010
0000
0100
1000
,
0000
0001
0010
0100
0001
0000
1000
0100
,
0010
0001
0100
0010
0100
0001
1000
1100
,
0000
0011
0000
1001
0000
0101
0002
0000
,
0013
0100
1000
0001
0100
0000
0010
0001
,
0000
1000
0100
0010
1000
0000
0001
0010
,
0100
1000
0010
0100
0010
1000
0100
0010
,
0001
0100
0010
0001
0010
0100
0001
0000
,
1001
0000
1000
0100
0100
0000
1200
0000
,
0310
0001
0100
0000
0101
0000
1000
0001
,
1000
0100
0010
0001
0100
2000
0000
0000
,
3001
0010
1000
0100
0010
0001
1000
0000
,
1001
0000
0000
0000
;

//--------------- dance-single - ----------------
#NOTEDATA:;
#STEPSTYPE:dance-single;
#DESCRIPTION:;
#DIFFICULTY:Challenge;
#METER:15;
#RADARVALUES:0,0,0,0,0;
#CREDIT:Talkion;
#NOTES:
0000
0000
0000
0000
,
0000
0000
0000
0000
,
0000
0000
0000
0000
,
0000
0000
0000
0000
,
0000
0000
0000
0000
,
0000
0000
0000
0000
,
0000
0000
0000
0000
,
0000
0000
0000
0000
,
0000
0000
0000
0000
,
1001
0000
2000
0000
0000
3100
0010
0002
,
0000
0000
0203
0000
0000
0310
0000
0000
,
1010
0000
1000
0001
1000
0100
0000
0010
,
0010
0000
0000
0020
0000
0000
0000
0000
0031
0000
0000
0000
0000
0000
0000
0000
,
1001
0000
2000
0000
3010
0100
0010
2000
,
0001
0000
3200
0000
0310
0002
0000
1003
,
1010
0000
0001
0010
0110
0000
1000
0010
,
0120
0001
0230
0300
,
1001
0000
0001
0010
0010
0000
0010
0000
,
2001
0100
3010
0000
,
1001
0000
0001
0100
0110
0000
0120
0000
,
M000
M000
M000
0030
,
1001
0000
1000
0100
0010
1002
0000
0103
,
0101
0000
0001
0100
0010
2001
0000
3100
,
1100
0000
1000
0100
0010
1002
0000
0103
,
0101
0000
1001
0000
2000
0100
3001
0000
,
0011
0000
0010
0100
1000
0012
0000
1003
,
1010
0000
0010
0100
0001
2010
0000
3001
,
0011
0000
0010
0100
1000
0010
0100
0001
,
1001
0110
1001
1200
,
0310
0000
0001
0010
0010
0000
0011
0000
,
1100
0000
1000
0001
0010
0001
0100
0200
,
0000
0000
1000
0000
0000
0000
0001
0000
0000
0000
1300
0000
0100
0000
0001
1000
,
0001
0000
0020
0000
0000
0000
1000
0000
0000
0000
0031
0000
0001
0000
1000
0010
,
0100
0000
0001
0100
0100
0000
0201
0000
,
0310
0000
1010
0000
1000
0000
0000
0000
1001
0000
0000
0000
0001
0000
0010
0100
,
0010
0000
0001
0000
1000
0000
0010
0000
1000
0000
0100
0000
1000
0000
0010
0100
,
0001
0000
1002
0000
0013
0010
0010
0000
,
M002
0000
0103
0000
0110
0010
0020
0000
0230
0000
0301
1000
0200
0000
1300
0001
,
0100
0100
0200
0000
0320
0000
1030
0001
0010
0010
0020
0000
0130
1000
0001
0010
,
2000
0000
0001
0000
3010
0010
0020
0000
0230
0000
1300
0001
0200
0000
0301
1000
,
0100
0000
0100
0000
0200
0000
0000
0000
0320
0000
0000
0000
0031
0000
1000
0000
0010
0000
0010
0000
0020
0000
0000
0000
0130
0000
0000
0001
0000
0000
1000
0100
,
0020
0000
0032
0000
0103
0010
0100
0002
1000
0000
0023
0000
0130
0000
0000
1000
,
0001
0000
0200
0000
0000
0000
0310
0000
0002
0000
0000
0000
0013
0000
1000
0000
0100
0000
0000
0100
0000
0000
0010
0000
1001
0000
0000
0000
0001
0000
0100
0010
,
2000
0000
0000
0001
0000
0000
0100
0000
0000
0001
0000
0000
3010
0000
0000
0000
0012
0000
0000
1000
0000
0000
0100
0000
0000
1000
0000
0000
0013
0000
0000
0000
,
2010
0010
3001
0012
0010
1003
1200
0010
0301
0201
0010
1300
,
2001
0000
0000
0000
3020
0000
0100
0030
,
2000
3002
0023
0032
,
0203
0320
2030
3002
,
0023
0000
0000
0000
0000
0000
0130
1000
0002
0000
0000
0000
0003
0000
0100
0010
,
0200
0000
0000
0000
0301
0000
0010
0100
2100
0000
0000
0000
3002
0000
0000
0003
,
2001
3020
0230
0320
,
0032
0000
0000
0000
2003
0000
0000
0000
3200
0000
0000
0000
0302
0000
0000
0003
,
1001
0000
0000
0010
0010
0000
0011
0000
1100
0000
1001
0000
1010
0000
0000
0010
,
0100
0000
0100
0000
0001
0010
0010
0020
0000
0100
0000
0031
1000
0000
0000
0000
,
2001
0000
0010
0000
0010
0000
3010
0200
,
0001
0001
0001
0301
,
1002
0013
2001
3010
,
0110
1000
0110
0001
M220
0000
0330
0000
,
1001
1000
0010
1000
0001
0010
0200
0302
,
1003
0010
0100
0010
0001
1000
0020
0230
,
1300
0100
0010
1000
0001
0010
0200
0302
,
0103
0000
0010
0000
0100
0000
1000
0000
0001
0000
0000
0000
1000
0010
1000
0010
,
2000
0000
3001
0010
0010
0000
0011
0000
,
1100
0000
1000
0001
0100
0001
0010
0100
,
1000
0000
0001
0100
0100
0000
0100
1010
,
0000
0000
1010
0000
0001
0000
0010
0100
0010
0000
0000
0000
0110
0000
0000
0000
,
1001
0001
0010
0001
1000
0010
0200
2300
,
3001
0010
0100
0010
1000
0001
0020
2030
,
3001
1000
0010
0001
1000
0010
0002
2003
,
3001
0010
1000
0001
0010
0200
0320
2030
,
3001
0000
0000
0100
0100
0000
1200
0000
,
0310
0000
0011
0000
0001
0000
0000
0000
1001
0000
0000
0000
1000
0000
0010
0100
,
0010
1000
0001
0010
0001
0100
0001
0010
,
0200
0001
0320
0030
,
0110
0000
0000
0000
,
0000
0000
0000
0000
,
1001
0000
0002
0000
0000
0103
0010
2000
,
0000
0000
3200
0000
0000
0310
0000
0010
,
0001
1000
0001
0100
0000
0100
0010
1000
,
0001
0000
1000
0000
0100
0000
0010
0000
0000
0000
0010
0000
0001
0000
1000
0010
,
0200
0000
0302
0000
0013
0100
0010
0002
,
1000
0000
0103
0000
0010
0100
0010
1000
,
0001
0010
0001
0000
1000
0010
1000
0000
0001
0010
0001
0000
1000
0010
0100
0000
,
0000
0000
0011
0000
0000
0000
1010
0000
0000
0000
0010
1000
0100
0000
0000
0000
,
1000
0001
1000
0000
0010
0000
0100
0000
0001
0000
0010
0000
0100
0000
0001
0000
,
1000
0010
0100
1000
0010
0100
0010
1000
,
0001
0000
0010
0000
1000
0000
0010
0000
0001
0000
1000
0000
0010
0100
0001
0000
,
0000
0101
0000
1001
0000
1100
0200
0000
,
0310
0000
0001
0010
0001
0000
1000
0000
0001
0000
0100
0000
0010
0000
0001
0000
,
1000
0100
0010
1000
0100
0010
0100
1000
,
1001
0001
0100
0010
1001
1000
0100
0010
,
0001
1000
0001
0000
0100
0010
0100
0000
0001
1000
0001
0000
0010
0000
0000
0000
,
1001
0000
0001
0100
0100
0000
0201
0000
,
0310
0000
1010
0000
1000
0000
0000
0000
1001
0000
0000
0000
0001
0000
0010
0100
,
0010
0001
1000
0010
1000
0100
1000
0010
,
0100
2000
3100
0002
0013
2000
3001
0000
,
1001
0000
0000
0000
;
