#TITLE:EMERALD♡KISS;
#SUBTITLE:-jun Side-;
#ARTIST:jun with Aimee;
#TITLETRANSLIT:;
#SUBTITLETRANSLIT:;
#ARTISTTRANSLIT:;
#GENRE:;
#CREDIT:;
#MUSIC:EMERALDKISS -jun Side-.ogg;
#BANNER:EMERALDKISS -jun Side--bn.png;
#BACKGROUND:EMERALDKISS -jun Side--bg.png;
#CDTITLE:;
#SAMPLESTART:36.388;
#SAMPLELENGTH:15.000;
#SELECTABLE:YES;
#OFFSET:-0.064;
#BPMS:0.000=185.000;
#STOPS:;
#BGCHANGES:;
#FGCHANGES:;

//--------------- dance-single - ----------------
#NOTES:
     dance-single:
     :
     Hard:
     13:
     0,0,0,0,0:
0000
0000
0000
0000
,
0000
0000
0000
0000
,
0000
0000
0000
0000
,
0000
0000
0000
0000
,
1000
0010
0100
0002
0000
0013
0100
2000
,
0000
3010
0100
0002
0000
0013
0100
0010
,
0001
0100
0010
2000
0000
3100
0010
0002
,
0000
0103
0010
2000
0000
3001
1001
0000
,
0001
0010
0100
2000
0000
3010
0100
0002
,
0000
0013
0100
2000
0000
3010
0100
0010
,
1000
0100
0010
0002
0000
0103
0010
2000
,
0000
3100
0010
0002
0000
0000
0003
0000
,
2002
0000
0000
0003
,
0200
0000
0000
3300
,
2002
3000
0020
0003
,
0230
0320
0032
0203
,
0310
1000
1100
0000
0010
0001
0101
0000
,
0001
0100
1000
0100
0001
0000
0010
0000
,
1100
0000
0101
0000
0100
0010
1000
0002
,
0000
0013
0100
0001
0100
0000
1000
0000
,
1010
0011
0101
1100
,
0001
0010
0110
0000
1000
0010
0110
0000
,
0100
0000
0010
0000
0100
0000
0002
0000
0000
0003
0001
0000
0010
0000
0000
0000
,
0100
1000
1010
0000
0011
0000
0101
0000
,
0100
0010
1000
0200
0000
0302
0000
0103
,
1000
0010
0100
2000
0000
3200
0000
0301
,
0022
0000
0033
1000
2020
0000
3030
0000
,
1001
1000
0000
0001
1001
0000
0101
0000
,
0100
0010
1000
0100
0001
0100
1000
0000
,
2010
3100
0012
0103
,
0010
0100
0001
0000
0010
0100
1000
0000
,
0010
1000
0100
0001
0100
0000
0010
0001
,
0200
0000
0320
0000
0130
0001
0010
0000
,
0100
1000
0010
0000
0110
0000
1001
0000
,
2020
0000
3030
0000
1000
0100
0010
0002
,
0000
0000
0000
0103
0101
0000
1001
0000
,
1100
0010
0001
0100
1000
0100
0001
0000
,
0012
0103
2010
3100
,
0010
0100
1000
0000
0010
0100
0001
0000
,
0011
0002
0000
1003
1200
0000
0301
0000
,
0200
0000
0320
0000
0130
1000
0010
0000
,
0100
0001
0010
1000
0001
0100
1000
0000
,
0120
0000
0000
0130
0110
0000
0000
0000
,
1000
2001
0000
3001
1001
0000
0110
0000
,
0001
0010
0100
2000
0000
3010
0100
0002
,
0000
0013
0100
2000
0000
3010
0100
0010
,
1000
0100
0010
0002
0000
0103
0010
2000
,
0000
3100
0010
0002
0000
1003
1001
0000
,
1000
0010
0100
0100
0001
0010
0100
0100
,
1000
0001
0100
0100
0001
1000
0100
0100
,
1000
0010
0001
0010
1000
0100
0001
0100
,
1000
0010
0100
0001
2002
0000
3003
0000
,
1200
0000
0000
1000
0000
0010
0000
0001
,
0000
0010
0000
1000
0000
0000
0310
0100
,
0201
0000
0000
0010
0000
1000
0000
0010
,
0000
0001
0001
0000
0020
0000
0330
0000
,
1000
0100
0001
0200
0000
2300
0000
3010
,
1000
0100
0001
0200
0000
2300
0000
3010
,
1020
0000
0030
0100
0021
0000
0000
0030
,
0000
2001
0000
3100
0110
0000
1001
0000
,
0001
0100
1000
0200
0000
0310
1000
0200
,
0000
0310
0012
0000
1000
0000
0013
0000
,
0201
0000
0000
0000
0310
0000
0200
0000
0000
0300
0100
0000
0010
0000
1010
0000
,
0000
0011
0000
0101
0000
0100
0001
0010
,
0100
1000
0010
0000
0100
0001
0010
0000
,
1100
1010
0101
0011
,
0210
0000
0000
0000
0310
0001
0100
2000
,
0000
3200
0000
0310
0110
0000
1001
0000
,
0001
0010
0001
0100
1000
0100
0001
0000
,
0012
0103
2010
3100
,
0010
0100
1000
0000
0010
0100
0001
0000
,
0010
0001
0100
1000
0100
0000
0010
0000
,
1010
0000
0021
0000
0130
1000
0100
0000
,
0010
0001
0100
1000
0001
0010
1000
0001
,
0021
0000
0000
0130
2020
0000
3030
0000
,
0110
1001
1100
0101
,
0011
0001
0101
0000
1010
1000
1100
0000
,
1100
0100
0210
0000
0001
0000
0310
0000
,
0001
0100
1000
0200
0000
0310
1000
0200
,
0000
0310
0001
0200
0000
0310
0110
0000
,
0100
0001
0011
0000
0100
1000
1010
0000
,
0120
0000
1030
0000
0120
0000
0031
0100
,
0110
0010
1000
1002
0000
0013
0100
0210
,
0000
0301
1001
0000
1100
0000
0202
0000
,
0000
0000
0000
0303
;

//--------------- dance-single - ----------------
#NOTES:
     dance-single:
     :
     Challenge:
     16:
     0,0,0,0,0:
0000
0000
0000
0000
,
0000
0000
0000
0000
,
0000
0000
0000
0000
,
0000
0000
0000
0000
,
1000
0010
0100
0021
0000
0130
1000
1020
,
0000
0130
0001
0021
0000
0230
1000
1300
,
0001
0100
0010
1200
0000
0310
0001
0201
,
0000
0000
0310
0000
1000
0000
1200
0000
0000
0000
0310
0000
0001
0000
0100
0010
,
0100
0001
0010
0120
0000
1030
0010
0210
,
0000
0301
0010
0120
0000
1030
0010
1000
,
0100
0010
0001
0100
0010
1000
0100
0010
,
0001
0100
0001
0010
0100
1000
0010
1000
0100
0000
0010
0000
0101
0000
0000
0000
,
0100
0020
1000
2030
3200
0310
0000
0100
,
0001
1000
0010
0001
1000
0000
0000
0000
,
0000
0002
0010
0023
0100
0230
1000
1300
,
0000
0000
0010
0000
0100
0000
0001
0000
1001
0000
0000
0000
0110
0000
0001
0010
,
0100
2000
0010
3010
0100
0002
0010
0013
,
0100
1000
0010
0100
0001
0000
0010
0001
,
2000
0000
3010
0100
0010
0000
0000
0000
2000
0000
3100
0010
0100
0000
0000
0000
,
1000
0000
0001
0100
0010
0000
1000
0100
0010
0000
0001
0100
0010
0000
0000
0000
,
0100
0001
0021
0100
0130
1000
1020
0130
,
0110
0010
1010
1000
1100
0000
0010
0001
,
0100
0010
0100
0010
1000
0000
0000
0000
0100
0010
0100
0010
0001
0000
0000
0000
,
0101
0010
1010
0000
0110
0000
1001
0000
,
1000
0010
0100
0021
0000
0230
0000
1300
,
0001
0100
0010
1200
0000
0320
0000
0031
,
0100
0010
1010
0000
0100
0010
0011
0000
,
1010
1001
0000
1001
0011
0000
0110
0000
,
1000
0000
0010
1000
0100
0000
0001
0000
0100
0000
0010
0001
0100
0000
1000
0000
,
0200
0010
0000
0000
0320
1000
0000
0000
2030
0001
0000
0000
3002
0010
0000
0000
,
0013
0000
0001
0000
0100
0000
1000
0000
0100
0010
0100
0010
1000
0000
0100
0000
,
0010
0100
1000
0000
0010
1000
0100
0000
0110
0000
0010
0000
1001
0000
0000
0000
,
1000
0000
0200
0000
0010
0000
0010
0300
0001
0000
0200
0000
0010
0000
0310
0000
,
0100
0001
0010
0000
0100
1000
0010
0000
0100
0010
1000
0000
0100
0010
0001
0000
,
0010
0001
0101
0000
0010
1000
1100
0000
,
0200
0000
0310
0000
0020
0000
0031
0000
0101
0000
0100
0010
1000
0000
0000
0000
,
0001
0000
0010
0001
0100
0000
1000
0000
0100
0000
0010
1000
0100
0000
0001
0000
,
0200
0010
0000
0000
0320
0001
0000
0000
0032
1000
0000
0000
2003
0010
0000
0000
,
3010
0000
1000
0000
0100
0000
0001
0000
0100
0010
0100
0010
0001
0000
0100
0000
,
0010
0100
0001
0000
0010
0001
0100
0000
0110
0000
0010
0000
1001
0000
0000
0000
,
0001
0000
0200
0000
0010
0000
0010
0300
1000
0000
0200
0000
0010
0000
0310
0000
,
0001
0000
0100
0010
0100
0000
0001
0000
1000
0000
0100
0010
0100
0000
1000
0000
,
1000
0100
1000
0100
0010
0001
0010
0001
1000
0100
1000
0100
0010
0001
1000
0100
,
0010
0001
0101
0100
0110
0000
1001
0000
,
1000
0000
0100
0000
0010
0000
0002
0000
0000
0000
0103
0010
0100
0000
0002
0000
,
0000
0000
0013
0100
0010
0000
0002
0000
0000
0000
0013
0000
0100
0000
1000
0000
,
0001
0000
0100
0000
0010
0000
2000
0000
0000
0000
3100
0010
0100
0000
2000
0000
,
0000
0000
3010
0100
0010
0000
2000
0000
0000
0000
3100
0001
0100
0000
0010
0000
,
0001
1000
0010
0100
0001
1000
0100
0010
,
1000
0000
0010
0000
0001
0000
0100
0000
1000
0100
0010
1000
0100
0010
0001
0100
,
0010
1000
1100
0000
0010
0001
0101
0000
,
0100
0001
0100
0001
0010
0001
0010
0001
0100
0001
0010
0100
1000
0000
0000
0000
,
0020
0000
0000
1000
0000
1000
0000
0100
,
0000
0001
0000
0100
0130
0000
0010
1000
,
0100
0010
0002
0100
0000
0100
0000
0010
,
0000
0103
0010
0000
1001
0000
0000
0000
,
1000
0000
0100
0010
0200
0000
1000
0000
0000
0000
0001
0000
0000
0000
0310
0000
,
0001
0000
0100
0010
0200
0000
0001
0000
0000
0000
1000
0000
0000
0000
0310
0000
,
2010
0000
0000
0000
0000
0000
3100
0000
0012
0000
0000
0000
0000
0003
0000
0000
,
0011
0002
0000
0103
0110
0000
1001
0000
,
0220
0000
0000
0000
0000
0330
0000
2001
,
0000
0010
3020
0000
0230
0000
0001
0301
,
0021
0000
0100
0100
0000
0130
1000
1010
,
0000
0011
0000
1010
0000
1000
0100
0010
,
0011
0000
1000
0010
1000
0000
0100
0000
0001
0000
1000
0000
0010
0000
0001
0000
,
1010
0000
0001
0010
0001
0000
0000
0000
0101
0000
0100
0000
0110
0000
0000
0000
,
0100
0010
1000
0100
0001
1000
0010
0001
,
0100
0010
0100
0010
0001
0000
1000
0000
0100
0000
0001
0000
0011
0000
0000
0000
,
1000
0000
0010
1000
0100
0000
0001
0000
0100
0000
0010
0001
0100
0000
1000
0000
,
0200
0010
0000
0000
0320
1000
0000
0000
2030
0001
0000
0000
3002
0010
0000
0000
,
0013
0000
0001
0000
0100
0000
1000
0000
0100
0010
0100
0010
1000
0000
0100
0000
,
0010
0100
1000
0100
0010
0001
0100
0001
0010
0100
1000
0000
1001
0000
0000
0000
,
0001
0000
0100
0010
0100
0000
0100
0000
0001
0000
0010
0100
0010
0000
0010
0000
,
0100
0000
1000
0010
1000
0000
0001
0010
0001
0000
0100
0010
1000
0000
0100
0010
,
0001
0100
1000
0100
1000
0001
0010
1000
,
0100
1000
0100
1000
0001
0010
0001
0010
0100
1000
0001
0100
1000
0100
0010
1000
,
0001
0000
0010
0001
0100
0000
1000
0000
0100
0000
0010
1000
0100
0000
0001
0000
,
0200
0010
0000
0000
0320
0001
0000
0000
0032
1000
0000
0000
2003
0010
0000
0000
,
3010
0000
1000
0000
0100
0000
0001
0000
0100
0010
0100
0010
0001
0000
0100
0000
,
0010
0000
1000
0100
1000
0000
0001
0100
0001
0000
0010
0100
1000
0000
1010
0000
,
0012
1000
0010
0103
2010
0001
0010
3100
,
0012
0100
0010
2003
0010
0100
0010
3001
,
0101
0000
0100
0010
1000
0000
1200
0000
0000
0000
0310
0000
0001
0000
1001
0000
,
0000
1001
0011
1010
1100
0000
0202
0000
,
0000
0000
0000
0303
;
