#TITLE:Drive-Thru Danger;
#SUBTITLE:;
#ARTIST:Nicolas Tremblay;
#TITLETRANSLIT:;
#SUBTITLETRANSLIT:;
#ARTISTTRANSLIT:;
#GENRE:;
#CREDIT:;
#BANNER:Drive-Thru Danger.png;
#BACKGROUND:Drive-Thru Danger-bg.png;
#LYRICSPATH:;
#CDTITLE:cdtitle.png;
#MUSIC:Drive-Thru Danger.ogg;
#OFFSET:0.000000;
#SAMPLESTART:43.993999;
#SAMPLELENGTH:10.667000;
#SELECTABLE:YES;
#DISPLAYBPM:180.000000;
#BPMS:0.000000=180.000000
,8.000000=179.000000
,9.000000=180.000000
,27.000000=181.000000
,28.000000=178.000000
,29.000000=180.000000
,39.000000=179.000000
,40.000000=181.000000
,41.000000=180.000000
,58.000000=181.000000
,59.000000=179.000000
,60.000000=180.000000
,67.000000=178.000000
,68.000000=180.000000
,100.000000=179.000000
,101.000000=180.000000
,128.000000=178.000000
,129.000000=180.000000
,130.000000=181.000000
,131.000000=190.000000
,132.000000=180.000000
,195.000000=178.000000
,196.000000=180.000000
;
#STOPS:
;
#BGCHANGES:;
#KEYSOUNDS:;
#ATTACKS:;

//---------------dance-single - MEGAtive----------------
#NOTES:
     dance-single:
     :
     Beginner:
     2:
     0.140369,0.203834,0.000000,0.209061,0.000000,94.000000,94.000000,0.000000,20.000000,0.000000,0.000000,0.140369,0.203834,0.000000,0.209061,0.000000,94.000000,94.000000,0.000000,20.000000,0.000000,0.000000:
// measure 0
0000
0000
0000
0000
,  // measure 1
0000
0000
0000
0000
,  // measure 2
0000
0000
0000
0000
,  // measure 3
0000
0000
0000
0000
,  // measure 4
1000
0000
0000
0000
,  // measure 5
0001
0000
0000
0000
,  // measure 6
0100
0000
0000
0000
,  // measure 7
0010
0000
0000
0000
,  // measure 8
2000
0000
0000
0000
,  // measure 9
3001
0000
0000
0000
,  // measure 10
0020
0000
0030
0000
,  // measure 11
0100
0000
0000
0000
,  // measure 12
2000
0000
0000
0000
,  // measure 13
3010
0000
0000
0000
,  // measure 14
0200
0000
0300
0000
,  // measure 15
0001
0000
0000
0000
,  // measure 16
0020
0000
0030
0000
,  // measure 17
0200
0000
0300
0000
,  // measure 18
2000
0000
3000
0000
,  // measure 19
0002
0000
0003
0000
,  // measure 20
0200
0000
0300
0000
,  // measure 21
0020
0000
0030
0000
,  // measure 22
2000
0000
3000
0000
,  // measure 23
0002
0000
0003
0000
,  // measure 24
0020
0000
0030
0000
,  // measure 25
0200
0000
0300
0000
,  // measure 26
0020
0000
0030
0000
,  // measure 27
0002
0000
0003
0000
,  // measure 28
1000
0000
1000
0000
,  // measure 29
0001
0000
0001
0000
,  // measure 30
0100
0000
0100
0000
,  // measure 31
0010
0000
0010
0000
,  // measure 32
1000
0000
0000
0000
,  // measure 33
1000
0000
1000
0000
,  // measure 34
0001
0000
0100
0100
,  // measure 35
0100
0000
0000
0000
,  // measure 36
0020
0000
0030
0000
,  // measure 37
0100
0000
0100
0000
,  // measure 38
0010
0000
1000
1000
,  // measure 39
1000
0000
0000
0000
,  // measure 40
0002
0000
0003
0000
,  // measure 41
1000
0000
1000
0000
,  // measure 42
0001
0000
0010
0010
,  // measure 43
0010
0000
0000
0000
,  // measure 44
0200
0000
0300
0000
,  // measure 45
0010
0000
0010
0000
,  // measure 46
0100
0000
1000
1000
,  // measure 47
1000
0000
0000
0000
,  // measure 48
0002
0000
0003
0000
,  // measure 49
1000
0000
0010
0000
,  // measure 50
1000
0000
0010
0000
,  // measure 51
0100
0000
0001
0000
,  // measure 52
0100
0000
0001
0000
,  // measure 53
1000
0000
0100
0000
,  // measure 54
1000
0000
0100
0000
,  // measure 55
0010
0000
0001
0000
,  // measure 56
0010
0000
0001
0000
,  // measure 57
0100
0000
0010
0000
,  // measure 58
0100
0000
0010
0000
,  // measure 59
1000
0000
0001
0000
,  // measure 60
1000
0000
0001
0000
,  // measure 61
0010
0000
0100
0000
,  // measure 62
0010
0000
0100
0000
,  // measure 63
1000
0000
0001
0000
,  // measure 64
1000
0000
0001
0000
,  // measure 65
1000
0000
0000
0000
;

//---------------dance-single - MEGAtive----------------
#NOTES:
     dance-single:
     :
     Easy:
     7:
     0.303138,0.339724,0.010453,0.292685,0.000000,203.000000,202.000000,1.000000,28.000000,0.000000,0.000000,0.303138,0.339724,0.010453,0.292685,0.000000,203.000000,202.000000,1.000000,28.000000,0.000000,0.000000:
0000
0000
0000
0000
,
0000
0000
0000
0000
,
0000
0000
0000
0000
,
0000
0000
0000
0000
,
1000
0100
0000
0100
,
1000
0010
0100
0001
,
1000
0100
0000
0100
,
1000
0010
0000
0010
,
0200
0000
0302
0000
,
1003
0100
0010
0001
,
0100
0010
0100
0000
,
0001
0100
0010
1000
,
0002
0000
0023
0000
,
0130
1000
0001
0100
,
0010
0100
0001
0000
,
1000
0100
0010
0001
,
2000
0000
3020
0000
,
0230
0000
0302
0000
,
0023
0000
0230
0000
,
0320
0000
0032
0000
,
2003
0000
3020
0000
,
0230
0000
0302
0000
,
2003
0000
3200
0000
,
0320
0000
0230
0000
,
2300
0000
3020
0000
,
0032
0000
0023
0000
,
2030
0000
3002
0000
,
0203
0000
2300
0000
,
3100
0010
0100
0010
,
1000
0001
1000
0001
,
0010
0100
0010
0100
,
1000
0001
1000
0001
,
1000
0000
0000
0000
,
1000
0100
0001
0100
,
1000
0100
0001
0100
,
1000
0000
0001
0001
,
0100
0010
1000
1000
,
0001
0010
1000
0010
,
0001
0010
1000
0010
,
0001
0000
1000
1000
,
0010
0000
0100
0000
0001
1000
0000
0001
,
1000
0010
0001
0010
,
1000
0010
0001
0010
,
1000
0000
0100
0100
,
1000
0001
0100
0100
,
0001
0100
1000
0100
,
0001
0100
1000
0100
,
0001
0000
0010
0010
,
0001
1000
0010
0010
,
0110
0000
1000
0001
,
0010
0100
0010
0001
,
1000
0000
0010
0100
,
0001
1000
0100
0010
,
0001
0000
0010
0100
,
1000
0001
0100
0010
,
0100
0000
0010
1000
,
0001
0010
0100
1000
,
0001
1000
0010
0100
,
0001
1000
0001
0010
,
0100
1000
0001
0100
,
0010
0100
0001
1000
,
0100
0010
0001
1000
,
0010
0100
0001
0010
,
0100
1000
0010
0100
,
0001
0010
0100
0010
,
0001
0000
0000
0000
;

//---------------dance-single - MEGAtive----------------
#NOTES:
     dance-single:
     :
     Medium:
     11:
     0.516679,0.475613,0.073171,0.606276,0.000000,346.000000,339.000000,7.000000,58.000000,0.000000,0.000000,0.516679,0.475613,0.073171,0.606276,0.000000,346.000000,339.000000,7.000000,58.000000,0.000000,0.000000:
0000
0000
0000
0000
,
0000
0000
0000
0000
,
0000
0000
0000
0000
,
0000
0000
0000
0000
,
1000
0000
0010
0100
0010
1000
0001
0000
,
1000
0100
1000
0100
0020
0000
0001
0000
,
0130
0100
0000
0010
0002
0000
1000
0000
,
0103
0100
0000
0010
2000
0000
0001
0000
,
3200
0000
0310
0001
0010
0100
2000
0000
,
3002
0000
0103
0010
0100
0000
0001
1000
,
0200
0000
0310
0001
1000
0010
0200
0000
,
0302
0000
1003
0100
0010
0000
0001
0100
,
0020
0000
0130
0001
0100
0010
2000
0000
,
3002
0000
0013
0100
0010
0000
0001
0100
,
0020
0000
1030
0001
0010
0100
2000
0000
,
3020
0000
0130
0001
1000
0100
1000
0100
,
2000
0000
0010
0000
3001
0010
0100
1000
,
0002
0000
0100
0000
1003
0001
0100
0010
,
0200
0000
0001
0000
0310
1000
0001
0010
,
0200
0000
0010
0000
1300
0001
0100
0001
,
2000
0000
0010
0000
3001
0100
0010
1000
,
0200
0000
0010
0000
1300
0001
0100
0010
,
2000
0000
0001
0000
3100
0010
0100
1000
,
0002
0000
0100
0000
1003
0010
0100
0010
,
0200
0000
0001
0000
0310
1000
0100
0010
,
0200
0000
1000
0000
0310
0001
1000
0010
,
0200
0000
0010
0000
0301
1000
0001
0010
,
0200
0000
0010
0000
1300
0001
0100
0010
,
1000
1010
0001
0011
,
1000
0000
1100
0000
0001
0100
0010
0000
,
0110
1000
1001
0001
,
0011
0000
1000
0000
1000
0100
0010
0001
,
2000
0000
0000
0000
,
3001
0100
1000
0000
1000
0100
0001
0000
,
0001
0100
1000
0000
1000
0100
0001
1000
,
0002
0000
0010
0000
1003
0100
1000
0000
,
0001
0100
0010
0000
1000
0100
0010
0001
,
1000
0010
0001
0000
0001
0010
1000
0000
,
1000
0010
0001
0000
0001
0010
2000
0000
,
3002
0000
0100
0000
1003
0001
0010
0000
,
0100
0010
0001
0000
1000
0010
0000
0100
,
0001
0010
1000
0000
1000
0010
0001
0000
,
0001
0010
1000
0000
1000
0010
0001
1000
,
0002
0000
0100
0000
1003
0010
0100
0000
,
0001
0010
0100
0000
1000
0010
0100
0001
,
1000
0100
0001
0000
0001
0100
1000
0000
,
1000
0100
0001
0000
0001
0100
2000
0000
,
3002
0000
0010
0000
1003
0100
0010
0000
,
0001
0100
0010
0100
0010
1000
0100
0010
,
0002
0010
2003
0010
,
3002
0100
2003
0100
,
3002
0010
2003
0010
,
3002
0100
2003
0100
,
3002
0010
0203
0010
,
0302
0010
2003
0100
,
3020
0100
2030
0100
,
3002
0000
0010
0000
2003
0100
0000
3100
,
2000
0000
0001
0000
3010
0100
0010
0000
,
2000
0000
0001
0000
3100
0010
0100
0010
,
0002
0000
1000
0000
0103
0010
0100
0000
,
0002
0000
1000
0000
0013
0100
0010
0100
,
2000
0000
0001
0000
3100
0010
0100
0000
,
2000
0000
0001
0000
3010
0100
0010
0100
,
0002
0000
1000
0000
0013
0100
0010
0000
,
0002
0000
1000
0000
0103
0010
0100
0010
,
0110
0000
0000
0000
;

//---------------dance-single - MEGAtive----------------
#NOTES:
     dance-single:
     :
     Hard:
     14:
     0.700353,0.883281,0.041812,0.815337,0.104530,469.000000,465.000000,4.000000,78.000000,0.000000,0.000000,0.700353,0.883281,0.041812,0.815337,0.104530,469.000000,465.000000,4.000000,78.000000,0.000000,0.000000:
0000
0000
0000
0000
,
0000
0000
0000
0000
,
0000
0000
0000
0000
,
0000
0000
0000
0000
,
1000
0100
0010
0100
1000
1000
0001
0100
,
0010
0000
0100
0000
1000
0000
0100
0000
0010
0100
0010
1000
0001
1000
0100
1000
,
0001
0000
0001
0000
0010
0000
0100
0000
1000
0001
0010
0001
1000
0100
0010
0100
,
1000
0000
1000
0000
0010
0000
0100
0000
0001
1000
0010
1000
0001
0100
0010
0100
,
0020
0000
1000
0000
1030
0000
0001
1000
0100
0000
0010
0000
0001
0000
0001
0000
,
0200
0010
0310
1000
0001
0010
0100
0100
,
0020
0000
0001
0000
0031
0000
1000
0001
0100
0000
0010
0000
0100
0010
0100
0000
,
0002
0000
0100
0000
0103
0000
0010
1000
0002
0000
1000
0000
1000
0000
0010
0000
,
0023
0000
0100
0000
0130
0000
0010
0001
1000
0000
0010
0000
0100
0000
0100
0000
,
0002
1000
1003
0100
0010
0001
0100
0100
,
0020
0000
1000
0000
1030
0000
0001
1000
0100
0000
0010
0000
0100
0010
0100
0000
,
2000
0000
0001
0000
3001
0000
1000
0001
0100
0000
0010
0000
0010
0000
0100
0000
,
0200
0010
0302
0000
1000
1000
1000
1003
,
0200
0010
2300
0000
0001
0001
0001
3001
,
0200
0010
0302
0000
1000
1000
1000
1003
,
0200
0010
2300
0000
0001
0001
0001
3001
,
0200
0010
0302
0000
0010
0010
0010
0013
,
0200
0010
2300
0000
0010
0010
0010
3010
,
2000
0100
3002
0000
0100
0100
0100
0103
,
0020
0100
2030
0000
0100
0100
0100
3100
,
1000
0010
0001
0010
0200
0010
0010
0001
,
0301
0010
1000
0010
0200
0010
0010
1000
,
1300
0010
0001
0010
0200
0010
0010
0001
,
0301
0010
1000
0010
0200
0010
0000
1000
,
1300
0010
0001
1000
0100
0010
0100
0001
,
1000
0100
0001
1000
0010
0010
0100
0100
,
1000
0001
0100
1000
0001
0010
0100
0001
,
1000
0100
0001
1000
0010
0010
0001
0001
,
2002
0000
0000
3003
,
1200
0010
1300
0001
0200
0010
0301
1000
,
0200
0010
1300
0001
0100
0200
0010
0301
,
1000
0100
1000
0100
0010
0001
0100
1000
,
0100
0001
0010
1000
0010
0001
0100
1000
,
0200
0010
0301
1000
0200
0010
1300
0001
,
0200
0010
0301
1000
0100
0200
0010
1300
,
0001
0100
0001
0100
0001
0010
1000
0010
,
0001
0100
0010
0001
0010
0100
0000
0001
,
0002
1000
0103
0001
2000
0100
3001
1000
,
0002
0100
1003
0001
1000
2000
0100
3001
,
0010
0100
0010
0100
1000
0010
0001
0010
,
1000
0100
0001
0100
1000
0001
0010
0100
,
2000
0010
3001
1000
0002
0010
1003
0001
,
2000
0010
3001
1000
0001
0002
0010
1003
,
0100
0010
0100
1000
0001
0100
1000
0100
,
0001
0010
0100
0001
0100
0010
0100
1000
,
1200
0000
0310
0001
0200
0000
0010
0000
,
0302
0000
0013
0100
2000
0000
0001
0000
,
3020
0000
0130
0001
0020
0000
0100
0000
,
0032
0000
0103
0010
2000
0000
0001
0000
,
3200
0000
1300
0001
0200
0000
0010
0000
,
0302
0000
1003
0100
0020
0000
0001
0000
,
0230
0000
1300
0010
0200
0000
0001
0000
,
0320
0000
1030
0100
0020
0001
0000
0100
,
0130
1000
0010
0100
0002
0010
0023
0000
,
0031
0010
0001
0100
0020
0100
0230
0001
,
0301
1000
0100
0010
0200
1000
2300
0000
,
3001
0010
0100
1000
0002
0100
0203
0010
,
0310
1000
0001
0010
0200
1000
2300
0000
,
3100
0010
0001
0100
0020
1000
2030
0001
,
3001
0100
0010
1000
0200
0010
0320
0000
,
0130
1000
0001
0100
0020
0100
0100
1030
,
1010
0000
0000
0000
;
