#TITLE:Downpour;
#SUBTITLE:;
#ARTIST:LAYZ;
#TITLETRANSLIT:;
#SUBTITLETRANSLIT:;
#ARTISTTRANSLIT:;
#GENRE:;
#CREDIT:;
#BANNER:Downpour-bn.png;
#BACKGROUND:Downpour-bg.png;
#LYRICSPATH:;
#CDTITLE:;
#MUSIC:Downpour.ogg;
#OFFSET:-0.050000;
#SAMPLESTART:33.612999;
#SAMPLELENGTH:15.000000;
#SELECTABLE:YES;
#BPMS:0.000000=150.000000
;
#STOPS:
;
#BGCHANGES:;
#KEYSOUNDS:;
#ATTACKS:;

//---------------dance-single - D0omsday----------------
#NOTES:
     dance-single:
     D0omsday:
     Beginner:
     2:
     0.168057,0.270660,0.185747,0.070761,0.000000,133.000000,112.000000,21.000000,8.000000,0.000000,0.000000,0.168057,0.270660,0.185747,0.070761,0.000000,133.000000,112.000000,21.000000,8.000000,0.000000,0.000000:
0000
0000
0000
0000
,
0000
0000
0000
0000
,
2002
0000
0000
0000
,
0000
0000
3003
0000
,
0001
0000
1000
0000
,
0001
0000
1000
0000
,
0010
0000
0010
0000
,
0100
0000
0100
0000
,
0001
0000
0001
0000
,
0010
0000
0010
0000
,
0110
0000
0001
0000
,
0100
0000
0010
0000
,
1000
0000
0010
0000
,
0100
0000
0001
0000
,
1000
0000
0000
0000
,
0100
0000
0000
0000
,
0001
0000
0000
0000
,
0010
0000
0000
0000
,
1000
0000
1000
0000
,
0001
0000
0001
0000
,
0010
0010
0010
0010
,
0010
0000
0000
0000
,
1001
0000
0001
0000
,
0001
0000
1000
0000
,
1000
0000
0010
0000
,
0010
0000
0100
0100
,
0110
0000
1000
0000
,
0001
0000
1000
0000
,
0100
0000
0010
0000
,
0100
0100
1000
0000
,
1001
0000
0000
0000
,
1001
0000
0010
0000
,
0110
0000
1000
0000
,
1001
0000
0100
0000
,
0010
0010
0010
0000
,
1001
0000
0010
0000
,
0110
0000
1000
0000
,
1001
0000
0001
0000
,
1000
0000
0000
0000
,
0010
0000
0000
0000
,
0001
0000
0000
0000
,
0100
0000
0000
0000
,
1000
0000
1000
0000
,
0001
0000
0001
0000
,
0010
0010
0010
0010
,
0010
0000
0000
0000
,
2002
0000
0000
0000
,
0000
0000
3003
0000
,
0220
0000
0000
0000
,
0000
0000
0330
0000
,
1001
0001
0000
0001
,
0000
1000
0000
1000
,
1000
0010
0000
0010
,
0100
0100
0100
0000
,
1001
0000
0000
0000
,
1000
0000
1001
0000
,
1000
0000
1001
0000
,
0100
0000
0110
0000
,
0010
0010
0010
0010
,
0001
0000
1001
0000
,
0010
0000
0110
0000
,
1000
0000
0001
0000
,
2002
0000
0000
0000
,
0000
0000
0000
0000
,
0000
0000
0000
0000
,
0000
0000
0000
0000
,
0000
0000
0000
0000
,
0000
0000
0000
0000
,
3003
0000
0000
0000
;

//---------------dance-single - DJEmbrace----------------
#NOTES:
     dance-single:
     DJEmbrace:
     Easy:
     5:
     0.247663,0.360880,0.300733,0.548396,0.000000,196.000000,162.000000,34.000000,62.000000,0.000000,0.000000,0.247663,0.360880,0.300733,0.548396,0.000000,196.000000,162.000000,34.000000,62.000000,0.000000,0.000000:
0000
0000
0000
0000
,
0000
0000
0000
0000
,
2002
0000
0000
0000
,
0000
0000
3003
0000
,
2000
3000
2000
3000
,
2000
3000
2000
3000
,
2002
3003
0002
0003
,
0020
0030
0020
0030
,
0200
0300
0200
0300
,
2000
3000
2000
3000
,
0001
0001
0001
0001
,
0100
0100
0100
0100
,
0010
0010
0010
0010
,
1000
1000
1000
1000
,
1100
0000
1000
0000
,
1100
0000
1000
0000
,
0011
0000
0001
0000
,
0011
0001
0002
0003
,
1001
1000
1000
1000
,
1001
0001
0001
0001
,
0100
0010
0100
0010
,
1010
0000
0002
0003
,
0220
0330
2000
3000
,
0220
0330
0002
0003
,
0220
0330
2000
3000
,
0110
0001
1000
0001
,
2002
3003
0020
0030
,
2002
3003
0200
0300
,
2002
3003
0020
0030
,
1001
0001
0010
0100
,
0220
0000
0000
0330
,
2000
3001
0000
0010
,
0002
0013
0000
0100
,
2000
3100
0000
0010
,
0001
1000
0100
0010
,
0002
1003
0000
0010
,
2000
3010
0000
0100
,
0002
0103
0100
0100
,
0101
0000
0001
0000
,
0101
0000
0001
0000
,
1100
0000
1000
0000
,
1100
1000
0200
0300
,
0110
0010
0010
0010
,
0110
0100
0100
0100
,
0110
0010
0001
1000
,
1001
0000
0002
0003
,
1001
0200
0300
0200
,
0300
0200
0300
0100
,
1001
0200
0300
0200
,
0300
0200
0300
0010
,
1001
0001
0010
0100
,
0000
1000
0010
0100
,
0100
0001
0010
0100
,
0000
2000
0001
3001
,
2002
0000
0000
3003
,
2000
0000
3001
0000
,
0020
0000
0130
0000
,
2000
0000
3010
0000
,
0100
0001
0100
0001
,
1002
0000
1003
0000
,
0210
0000
0310
0000
,
0102
0000
0103
0010
,
0220
0000
0000
0000
,
0000
0000
0000
0000
,
0000
0000
0000
0000
,
0000
0000
0000
0000
,
0000
0000
0000
0000
,
0000
0000
0000
0000
,
0330
0000
0000
0000
;

//---------------dance-single - DJEmbrace----------------
#NOTES:
     dance-single:
     DJEmbrace:
     Medium:
     8:
     0.414456,0.511247,0.398029,0.229972,0.000000,328.000000,283.000000,45.000000,26.000000,0.000000,0.000000,0.414456,0.511247,0.398029,0.229972,0.000000,328.000000,283.000000,45.000000,26.000000,0.000000,0.000000:
0000
0000
0000
0000
,
0000
0000
0000
0000
,
2002
0000
0000
0000
,
0000
0000
3003
0000
,
1000
0000
1000
0000
,
1000
0000
1000
0000
,
2001
0001
0001
0001
,
0100
0100
3100
0100
,
0010
0010
0010
0010
,
0001
0001
0001
0001
,
1001
1000
1001
1000
,
1010
0010
1010
0010
,
0110
0100
0110
0100
,
0101
0001
0101
0001
,
1001
1000
0000
0000
1000
0000
0000
0000
,
1001
1000
0000
0000
1000
0000
0000
0000
,
0011
0001
0000
0000
0001
0000
0000
0000
,
0011
0010
0002
0000
1000
0000
1003
0000
,
0101
0101
0101
0101
,
1100
1100
1100
1100
,
0001
0010
0001
0010
0001
0010
0001
0000
,
1010
0010
2000
0000
0001
0000
3001
0000
,
1001
0000
1000
0100
0010
0000
0001
0100
,
0010
0000
1000
0100
0010
0000
0001
0100
,
0010
0000
0100
0001
1000
0000
0100
0010
,
0001
1000
0001
1000
0001
0000
1001
0000
,
1000
0010
0100
0000
0001
0010
0100
0000
,
1000
0010
0100
0000
0001
0010
0100
0010
,
0001
1000
0100
0000
1000
0001
0100
0000
,
0010
0100
0001
1000
0001
1000
0100
0000
,
0020
0000
0000
0030
,
0210
0000
1300
0000
0001
0100
0010
0000
,
0210
0000
0301
0000
1000
0100
0010
0000
,
0120
0000
0031
0000
1000
0001
0100
0000
,
0010
1000
0100
0000
0010
0001
0100
0000
,
0120
0000
1030
0000
0001
0010
0100
0000
,
0120
0000
0031
0000
1000
0010
0100
0000
,
0210
0000
0301
0000
0001
1000
0001
0000
,
1001
0001
0000
0000
0001
0000
0000
0000
,
1001
0001
0000
0000
0001
0000
0000
0000
,
1100
1000
0000
0000
1000
0000
0000
0000
,
1100
0100
2000
0000
0001
0000
3001
0000
,
1010
0110
0101
1010
,
0011
0110
1100
0011
,
1000
0100
1000
0001
1000
0010
1000
0000
,
0101
0100
0002
0000
1003
1000
1000
1000
,
0200
0000
0310
0001
0000
0001
1000
0001
,
0000
0001
0100
0001
0000
0001
1000
0001
,
2000
0000
3100
1000
0000
1000
0001
1000
,
0000
1000
0010
1000
0000
1000
0002
0000
,
0103
0001
0010
0000
0100
1000
0010
0000
,
0100
0001
0010
0000
0100
1000
0001
1000
,
0010
1000
0100
0000
0010
0001
0100
0000
,
0010
1000
0001
1000
0001
1000
0100
0000
,
0020
0000
0000
0030
,
0100
2000
0100
0000
0001
0000
3001
0000
,
0100
0002
0100
0000
1000
0000
1003
0000
,
0100
2000
0100
0000
0001
0000
3001
0000
,
0001
0100
0010
1000
0010
0100
0001
0000
,
0010
0002
0010
0000
1000
0000
1003
0000
,
0010
2000
0010
0000
0001
0000
3001
0000
,
1000
0020
1000
0000
0100
0100
0130
0000
,
2002
0000
0000
0000
,
0000
0000
0000
0000
,
0000
0000
0000
0000
,
0000
0000
0000
0000
,
0000
0000
0000
0000
,
0000
0000
0000
0000
,
3003
0000
0000
0000
;

//---------------dance-single - DS FS DSFS- XO----------------
#NOTES:
     dance-single:
     D0omsday:
     Hard:
     13:
     0.492798,0.541320,0.097296,0.442255,0.203437,390.000000,379.000000,11.000000,50.000000,28.000000,0.000000,0.492798,0.541320,0.097296,0.442255,0.203437,390.000000,379.000000,11.000000,50.000000,28.000000,0.000000:
// measure 0
0000
0000
0000
0000
,  // measure 1
0000
0000
0000
0000
,  // measure 2
2001
3000
0200
0300
,  // measure 3
0020
0030
0200
0300
,  // measure 4
2000
3000
0020
0030
,  // measure 5
0200
0300
0002
0003
,  // measure 6
0011
0000
0010
0001
1000
0000
0010
0000
,  // measure 7
0110
0000
0100
0010
1000
0100
0010
0000
,  // measure 8
0011
0000
0001
0000
1000
0000
0010
0100
,  // measure 9
0001
1000
0100
0010
0001
1000
0100
0010
,  // measure 10
0001
0100
0010
0100
0001
0010
0100
0000
,  // measure 11
1000
0010
0100
1000
0100
0010
1000
0000
,  // measure 12
0001
0010
1000
0010
0001
1000
0010
0000
,  // measure 13
1000
0100
0001
0100
1000
0001
0100
0000
,  // measure 14
0002
0010
0000
0000
1003
0000
0000
0000
,  // measure 15
2000
0010
0000
0000
3100
0000
0000
0000
,  // measure 16
0200
0010
0000
0000
1300
0000
0000
0000
,  // measure 17
1000
0010
0100
0001
0010
0000
0110
0000
,  // measure 18
0002
0010
2003
0010
3002
0100
2003
0100
,  // measure 19
3002
1000
0203
0010
0302
1000
0023
0100
,  // measure 20
0031
0100
0010
1000
0001
0010
0100
0010
,  // measure 21
0001
0000
0101
0000
0001
1000
0100
0010
,  // measure 22
0100
0000
0010
0001
0100
00M0
0100
1000
,  // measure 23
0010
0M00
0010
0001
0010
0M00
0010
1000
,  // measure 24
0100
00M0
0100
0000
0010
0000
1000
0000
0100
00M0
0100
0000
0001
0000
0010
0000
,  // measure 25
0100
0001
0100
0010
0001
0000
1002
0000
,  // measure 26
0103
0000
0000
0000
0010
1000
0010
0000
1000
0000
0000
0000
0001
0010
0001
0000
,  // measure 27
0010
0000
0000
0000
0100
0010
0100
0000
0010
0000
0000
0000
0001
0000
1000
0000
,  // measure 28
0010
0000
0000
0000
0100
0001
0100
0000
0001
0000
0000
0000
1000
0100
1000
0000
,  // measure 29
0100
0010
1000
0010
0100
0000
0110
0000
,  // measure 30
2002
0000
0000
0000
0000
0000
0000
0000
0000
0000
0000
0000
3003
0000
0000
1000
,  // measure 31
0010
0000
0000
0000
0000
0000
0000
0000
0100
0000
0000
000M
0000
0000
0100
0000
1000
0000
0000
0000
0001
0000
0000
0000
0100
0000
0000
0000
0010
0000
0000
0000
,  // measure 32
1000
0000
0000
0000
0000
0000
0000
0000
0010
0000
0000
0M00
0000
0000
0010
0000
0001
0000
0000
0000
1000
0000
0000
0000
0010
0000
0000
0000
1000
0000
0000
0000
,  // measure 33
0100
0000
0000
0000
0000
0000
0000
0000
0010
0000
0000
000M
0000
0000
0010
0000
1000
0000
0000
0000
0100
0000
0000
0000
0010
0000
0000
0000
0100
0000
0000
0000
,  // measure 34
1000
0000
0001
0000
0010
0000
0001
0010
0001
0000
0100
0000
0010
0000
0100
0010
,  // measure 35
0100
0000
0000
0000
0000
0000
0000
0000
0010
0000
0000
M000
0000
0000
0010
0000
0001
0000
0000
0000
0010
0000
0000
0000
0100
0000
0000
0000
1000
0000
0000
0000
,  // measure 36
0010
0000
0000
0000
0000
0000
0000
0000
0100
0000
0000
000M
0000
0000
0100
0000
1000
0000
0000
0000
0001
0000
0000
0000
0010
0000
0000
0000
0001
0000
0000
0000
,  // measure 37
1000
0000
0000
0000
0100
0000
0000
0000
0010
0000
0000
000M
0000
0000
0010
0000
1000
0000
0000
0000
0001
0000
0000
0000
0010
0000
0M00
0000
0010
0000
0000
0000
,  // measure 38
2000
0100
0000
0000
3010
0000
0100
0000
,  // measure 39
0002
0010
0000
0000
0103
0000
0001
0000
,  // measure 40
0020
0100
0000
0000
0031
0000
0100
0000
,  // measure 41
0010
1000
0100
0010
0100
0000
0110
0000
,  // measure 42
0020
0100
0032
0010
0203
0010
0302
0010
,  // measure 43
2003
0100
3020
0100
2030
0100
3002
0010
,  // measure 44
0103
0010
1000
0100
0010
1000
0010
0100
,  // measure 45
1000
0000
0000
0000
0001
0001
0001
0001
,  // measure 46
0010
0000
0100
M000
0100
0000
0010
0000
0000
0000
0100
000M
0100
0000
0010
0100
,  // measure 47
0000
0000
0010
000M
0010
0000
0100
0000
0000
0000
0010
M000
0010
0000
0100
0010
,  // measure 48
0001
0000
0010
0M00
0010
0000
0100
0010
0000
0000
0100
000M
0100
0000
0010
0100
,  // measure 49
0000
0010
0001
0010
0M00
0010
2000
0000
,  // measure 50
3001
0000
0100
00M0
0100
0000
1000
0000
0010
0000
2000
0000
0100
0000
3001
0000
,  // measure 51
0010
0000
0001
0000
0010
0M00
0010
0000
0100
0000
0001
0000
1000
0000
1000
0010
,  // measure 52
1000
0000
0100
0000
0010
000M
0010
0000
0100
0000
0002
0000
0010
0000
1003
0000
,  // measure 53
0010
0100
1000
0100
0010
1000
0001
0000
,  // measure 54
2002
0000
0000
0000
0000
0000
0000
0000
0000
0000
0000
0000
3003
0000
0000
0001
,  // measure 55
0020
0000
0000
0000
0031
0000
0M00
0010
1000
0000
0001
0000
2000
0000
0010
0000
,  // measure 56
3200
0000
0000
0000
0310
0000
M000
0100
0001
0000
1000
0000
0020
0000
1000
0000
,  // measure 57
0230
0000
0000
0000
0301
0000
M000
0100
0010
0000
0001
0000
2000
0000
0010
0000
,  // measure 58
3100
0000
0010
0000
0001
0000
0100
0001
0100
0000
0010
0000
1000
0000
0100
1000
,  // measure 59
0200
0000
0000
0000
0310
0000
M000
0100
0001
0000
0010
0000
0002
0000
1000
0000
,  // measure 60
0203
0000
0000
0000
0310
0000
000M
0100
1000
0000
0001
0000
2000
0000
0100
0000
,  // measure 61
3001
0000
0010
0000
0100
0000
000M
0010
1000
0000
0010
0000
0100
0000
0002
0000
,  // measure 62
2000
0000
0000
0000
,  // measure 63
0000
0000
0000
0000
,  // measure 64
0000
0000
0000
0000
,  // measure 65
0000
0000
0000
0000
,  // measure 66
0000
0000
0000
0000
,  // measure 67
0000
0000
0000
0000
,  // measure 68
3003
0000
0000
0000
;

//---------------dance-single - DS FS DSFS XO----------------
#NOTES:
     dance-single:
     DJEmbrace & D0omsday:
     Challenge:
     15:
     0.596412,0.811980,0.070761,0.804904,0.508593,472.000000,464.000000,8.000000,91.000000,40.000000,0.000000,0.596412,0.811980,0.070761,0.804904,0.508593,472.000000,464.000000,8.000000,91.000000,40.000000,0.000000:
0000
0000
0000
0000
,
0000
0000
0000
0000
,
2002
3000
2000
3000
,
2000
3000
2000
3003
,
2000
3000
2000
3000
,
2000
0001
3001
0001
2000
0001
3001
0001
,
2000
0100
3001
0001
2000
0100
3001
0001
,
0200
0001
0310
0010
0200
0001
0310
0010
,
2000
0010
3001
0001
2000
0010
3001
0001
,
0020
0001
0130
0100
0020
0001
0130
0100
,
2000
0100
3001
1000
0002
0100
1003
0001
,
2000
0010
3001
1000
0002
0010
1003
0001
,
0200
0010
0301
0100
0020
1000
0130
0001
,
0020
0000
0001
0000
0130
0000
0010
0000
0200
0000
0010
0000
1300
0000
0100
00M0
,
0200
0000
0001
0000
0001
0000
0000
0000
0010
0000
0000
0000
0010
0000
0300
000M
,
0200
0000
1000
0000
1000
0000
0000
0000
0010
0000
0000
0000
0010
0000
0300
M000
,
0200
0000
0001
0000
0001
0000
0000
0000
0010
0000
0010
0000
0010
0000
0300
M000
,
0100
1000
0001
0100
2000
0000
3100
00M0
,
0200
0000
1300
00M0
0200
0000
0301
00M0
0200
0000
1300
00M0
0200
0000
0001
0000
,
0320
0000
1030
0M00
0020
0000
0031
0M00
0020
0000
1030
0M00
0020
0000
0031
0M00
,
0010
0010
1000
1000
0100
0100
0010
0010
,
0001
0001
1000
0100
0002
0100
0103
0000
,
2001
0000
3000
0000
0010
0100
0001
0100
0020
0000
0030
M000
0010
0100
1000
0100
,
0020
0000
0030
M000
0010
0100
0001
1000
0200
0000
0300
00M0
0100
0010
1000
0010
,
0200
0000
0310
000M
0010
0001
0100
0001
0020
0000
0100
0000
0130
1000
0010
1000
,
0100
0000
0010
0001
0100
0001
0010
0001
0100
0000
0010
1000
0200
0000
0000
0000
,
0310
000M
0020
0000
1030
0001
1000
0000
0010
0M00
0020
0000
0031
1000
0001
0000
,
0100
00M0
0200
0000
1300
0001
1000
0000
0100
00M0
0100
0000
0001
0000
1000
0010
,
0100
0000
0001
0000
0010
0001
0100
0000
0010
0000
1000
0000
0100
1000
0010
0000
,
0100
0000
0010
1000
0100
1000
0010
1000
0100
0000
0010
0001
0100
0000
0000
0000
,
2002
0000
0000
3003
,
0002
0100
0000
0000
1003
0000
0000
1000
0200
0000
0010
0000
0001
0000
0310
0100
,
2000
0100
0000
0000
3001
0000
0000
0001
0200
0000
0010
0000
1000
0000
0310
0100
,
0002
0100
0000
0000
1003
0000
0000
1000
0200
0000
0010
0000
0001
0000
0310
0001
,
1000
0000
0010
0M00
0010
0000
0001
1000
0001
0000
0010
0M00
0010
0000
1000
0001
,
2000
0010
0000
0000
3001
0000
0000
0001
0020
0100
0000
0000
1000
0000
0130
1000
,
0002
0100
0000
0000
1003
0000
0000
1000
0020
0000
0100
0000
0001
0000
0130
0001
,
1000
0000
0100
0000
0010
0000
0000
1000
0010
0000
0100
0000
1000
0000
1000
0001
,
0100
0100
0000
0000
0110
0000
0000
0000
,
0010
0010
0000
0000
1010
0000
0000
0000
,
1000
1000
0000
0000
1001
0000
0000
0000
,
0001
0001
0010
1000
0020
0000
0130
0000
,
1000
1000
0010
0010
0100
0100
1000
1000
,
0100
0100
0001
0001
0010
0010
0100
0100
,
1000
0010
0001
1000
0100
0001
1000
0100
,
0010
0000
0000
0000
0100
0100
0100
0100
,
2100
0000
0010
0000
0001
0000
3020
0000
0000
0000
0100
0000
0001
0000
0130
0001
,
0020
0000
0100
0000
1000
0000
0230
0000
0000
0000
0010
0000
1000
0000
0310
0001
,
0200
0000
0010
0000
1000
0000
0310
1000
0200
0000
0010
0000
0001
0000
0310
0100
,
0000
1000
0100
1000
0020
0000
0130
0001
0000
0010
0001
0100
0020
0000
0000
0000
,
0230
0000
0001
0000
0010
0000
1300
00M0
0200
0000
1000
0000
0010
0000
0301
00M0
,
0200
0000
0001
0000
0010
0000
1300
00M0
0200
0000
1000
0000
0310
000M
0010
1000
,
0020
0000
1000
0000
0100
0000
0031
0M00
0020
0000
0001
0000
0100
0000
1030
0M00
,
0010
0000
0100
0001
0010
0001
0100
0001
0010
0000
0100
1000
0010
0000
0000
0000
,
2002
0000
0000
0000
0000
0000
0000
0000
0000
0000
0000
0000
3003
0000
0000
1000
,
0001
0020
0000
0000
0130
0000
000M
0020
1000
0000
0100
0000
1030
0M00
0010
0001
,
1000
0020
0000
0000
0130
0000
M000
0020
0001
0000
0100
0000
0031
0M00
0010
1000
,
0001
0020
0000
0000
0130
0000
000M
0020
1000
0000
0100
0000
1030
0M00
0010
0001
,
1000
0000
0010
0M00
0010
0000
0001
1000
0001
0000
0010
0M00
0010
0000
1000
0001
,
1000
0200
0000
0000
0310
0000
M000
0200
0001
0000
0010
0000
0301
00M0
0100
1000
,
0001
0200
0000
0000
0310
0000
000M
0200
1000
0000
0010
0000
1300
00M0
0100
0001
,
1000
0001
0020
0000
0001
0000
0030
0100
0020
0000
0001
0000
0031
0000
1000
0002
,
2000
0000
0000
0000
,
0000
0000
0000
0000
,
0000
0000
0000
0000
,
0000
0000
0000
0000
,
0000
0000
0000
0000
,
0000
0000
0000
0000
,
3003
0000
0000
0000
;
