#TITLE:童話回廊;
#SUBTITLE:;
#ARTIST:DJ TOTTO;
#TITLETRANSLIT:Douwa kairou;
#SUBTITLETRANSLIT:;
#ARTISTTRANSLIT:;
#GENRE:;
#CREDIT:;
#MUSIC:Douwa kairou.ogg;
#BANNER:Douwa kairou.png;
#BACKGROUND:Douwa kairou-bg.png;
#CDTITLE:;
#SAMPLESTART:75.194;
#SAMPLELENGTH:15.000;
#SELECTABLE:YES;
#OFFSET:0.379;
#BPMS:0.000=262.000;
#STOPS:;
#BGCHANGES:-2.000=Douwa kairou.avi=1.000=1=0=0=StretchNoLoop====,
99999.000=-nosongbg-=1.000=0=0=0=StretchNoLoop====;
#FGCHANGES:;

//--------------- dance-single - chrononical ----------------
#NOTES:
     dance-single:
     chrononical:
     Beginner:
     3:
     0,0,0,0,0:
0000
0000
0000
0000
,
0000
0000
0000
0000
,
0000
0000
0000
0000
,
0000
0000
0000
0000
,
0000
0000
0000
0000
,
0000
0000
0000
0000
,
0002
0000
0000
0000
,
0000
2003
0000
0000
,
0000
0000
3200
0000
,
0000
0000
0000
0320
,
0000
0000
0000
0000
,
0032
0000
0000
0000
,
0000
0203
0000
0000
,
0000
0000
0320
0000
,
0000
0000
0000
2030
,
0000
0000
0000
0000
,
3002
0000
0000
0000
,
0000
0023
0000
0000
,
0000
0000
0230
0000
,
0000
0000
0000
2300
,
0000
0000
0000
0000
,
0000
3002
0000
0000
,
0000
0000
0000
0003
,
0000
0000
0000
0000
,
0000
1000
0000
0001
,
0000
1000
0000
0200
,
0000
0000
1300
0000
,
0000
1000
0000
0001
,
0000
1000
0000
0020
,
0000
0000
1030
0000
,
0000
1000
0000
0000
,
0001
0000
0000
0010
,
0000
0000
1000
0000
,
0000
0100
0000
0000
,
0100
0000
0000
0001
,
0000
1000
0000
1000
,
0000
0001
0000
1000
,
0000
0001
0000
0020
,
0000
0000
0031
0000
,
0000
0001
0000
1000
,
0000
0001
0000
0200
,
0000
0000
0301
0000
,
0000
0001
0000
0000
,
0100
0000
0000
1000
,
0000
0000
0010
0000
,
0000
0001
0000
0000
,
1000
0000
0000
2002
,
0000
0000
0000
0000
,
3003
2000
0000
0000
,
0000
0000
3200
0000
,
0000
0000
0000
0320
,
0000
0000
0000
0000
,
0032
0000
0000
0000
,
0000
2003
0000
0000
,
0000
0000
3020
0000
,
0000
0000
0000
0230
,
0000
0000
0000
0000
,
0302
0000
0000
0000
,
0000
0000
1003
0000
,
0000
0010
0000
0000
,
0001
0000
0000
0010
,
0000
0000
1000
0000
,
0000
0010
0000
0000
,
0100
0000
0000
0001
,
0000
0000
1000
0000
,
0000
0100
0000
0000
,
0001
0000
0000
0100
,
0000
0000
1000
0000
,
0000
0001
0000
0000
,
2002
0000
0000
0000
,
0000
3003
2000
0000
,
0000
0000
0000
0000
,
3002
0000
0000
0000
,
0000
0000
0023
0000
,
0000
0000
0000
0000
,
0230
0000
0000
0000
,
0000
0000
2300
0000
,
0000
0000
0000
0000
,
3020
0000
0000
0000
,
0000
0000
0130
0000
,
0001
0000
1000
0000
,
0002
0000
0000
2003
,
0000
0000
3001
0000
,
0000
0010
0000
0000
,
1000
0000
0000
0010
,
0000
0000
0001
0000
,
0000
0100
0000
0000
,
0010
0000
0000
1000
,
0000
0000
0001
0000
,
0000
0100
0000
0000
,
1000
0000
0000
0100
,
0000
0000
0002
0000
,
0000
0023
0000
0000
,
0230
0000
0000
1300
,
0000
0000
1000
0000
,
0000
0010
0000
0000
,
0100
0000
0000
0001
,
0000
0000
1000
0000
,
0000
0100
0000
0000
,
0001
0000
0000
0010
,
0000
0000
1000
0000
,
0000
0100
0000
0000
,
0010
0000
0000
0001
,
0000
0000
0001
0000
,
0000
1000
0000
0000
,
0100
0000
0000
1000
,
0000
0000
0001
0000
,
0100
0000
0010
0000
,
1000
0000
0100
0000
,
0010
0000
0001
0000
,
1000
0000
0001
0000
,
0100
0000
0010
0000
,
1000
0000
2002
0000
,
0000
0000
0000
0000
,
0000
0000
0000
0000
,
0000
0000
0000
0000
,
0000
0000
0000
0000
,
0000
3003
0000
0000
;

//--------------- dance-single - chrononical ----------------
#NOTES:
     dance-single:
     chrononical:
     Easy:
     8:
     0,0,0,0,0:
0000
0000
0000
0000
,
0000
0000
0000
0000
,
0000
0000
0000
0000
,
0000
0000
0000
0000
,
0000
0000
0000
0000
,
0000
0000
0000
0000
,
0002
0000
0000
0000
,
0000
2003
0000
0000
,
0000
0000
3200
0000
,
0000
0000
0000
0320
,
0000
0000
0032
0000
,
2003
0000
0000
0001
0000
0000
3020
0000
,
0000
0000
2030
0000
0000
0001
0000
0000
,
3200
0000
0320
0000
0032
0000
0000
1000
,
0000
0203
0000
0302
,
0000
1000
0000
0000
0013
0000
0100
0000
,
2000
0000
0000
0001
0000
0000
3200
0000
,
0000
0000
2300
0000
0000
0001
0000
0000
,
3020
0000
0230
0000
0302
0000
0000
1000
,
0000
0023
0000
0032
,
0000
1000
0000
0000
0103
0000
0010
0000
,
1000
0002
0000
0000
,
0000
0000
0000
0003
,
0000
0000
0000
0000
,
0000
1001
0000
1000
,
0000
0100
0000
0002
,
0000
0000
0103
0000
,
1000
0001
0000
1000
,
0000
0010
0000
0002
,
0000
0000
0013
0000
,
1000
0002
0000
0013
,
0200
0000
0301
0200
,
0000
1300
0002
0000
,
0103
0000
0020
0000
0000
0100
0000
0000
,
0130
0001
0000
1000
,
0100
1000
0001
0000
,
0001
1000
0000
0001
,
0000
0010
0000
2000
,
0000
0000
3010
0000
,
0001
1000
0000
0001
,
0000
0100
0000
2000
,
0000
0000
3100
0000
,
0001
2000
0000
3100
,
0010
0000
0010
0002
,
0000
0203
0000
0000
0320
0000
0000
0000
,
0000
2030
0000
3100
,
0010
0000
0010
0002
,
0000
0000
0000
0000
,
0000
0000
0203
0000
0000
0010
0000
0000
,
0302
0000
0000
0000
0023
0000
0000
0100
,
0000
0032
0203
0320
,
0000
0100
0000
0000
2030
0000
0000
0000
,
3200
0000
0000
0010
0000
0000
1300
0000
,
0001
0000
0200
0000
0000
1000
0000
0000
,
0302
0000
0000
0000
0023
0000
0000
1000
,
0000
0032
0203
0320
,
0000
0001
0000
0000
2030
0000
0000
0000
,
3200
0000
0000
0001
0000
0000
1300
0000
,
0000
0001
0100
0000
,
0100
1000
0000
1000
,
0010
0000
0010
0001
,
0000
0001
2000
0000
,
3100
0010
0000
0010
,
0001
0000
0100
0010
,
0000
1000
0100
0000
,
0100
0001
0000
0001
,
0010
0000
0010
1000
,
0000
1000
0002
0000
,
0103
0010
0000
0001
,
0020
0000
0000
0000
,
0000
0000
2030
0000
,
0000
0000
0000
0000
,
3002
0000
0000
0000
,
0000
0000
0023
0000
,
0000
0000
0000
0000
,
0230
0000
0000
0000
,
0000
0000
2300
0000
,
0000
0000
0000
0000
,
3020
0000
0000
0000
,
0000
0030
1000
0000
,
0100
0000
0001
0000
,
0200
0000
0000
0010
0000
0000
0320
0000
,
0000
0031
0100
0000
,
1000
0100
0000
0100
,
0001
0000
1000
0200
,
0000
0310
0001
0000
,
0100
0010
0000
1000
,
0001
0000
0010
0200
,
0000
1300
0010
0000
,
0001
0010
0000
0010
,
1000
0000
1000
0200
,
0000
0310
2000
0000
,
3001
0200
0000
1300
,
0001
0100
0001
0000
,
1000
0100
1000
0000
,
1000
0010
0000
1000
,
0100
0000
1000
0001
,
0000
1000
0100
0000
,
0100
0001
0000
0001
,
0100
0000
0100
2000
,
0000
0000
3002
0000
,
0103
0000
0010
0001
,
0000
0010
1000
0000
,
0002
0000
2003
0000
,
3001
0000
0010
0000
0000
0010
0000
0000
,
0100
0000
0000
0100
0000
0000
1000
0000
,
0001
0100
0001
0000
,
0100
2000
0000
3000
,
0001
0000
0010
1000
,
0000
0001
0010
0100
,
0010
0000
0001
0100
,
0010
0000
1000
0100
,
0010
0000
2002
0000
,
0000
0000
0000
0000
,
0000
0000
0000
0000
,
0000
0000
0000
0000
,
0000
0000
0000
0000
,
0000
3003
0000
0000
;

//--------------- dance-single - chrononical ----------------
#NOTES:
     dance-single:
     chrononical:
     Medium:
     13:
     0,0,0,0,0:
0000
0000
0000
0000
,
0000
0000
0000
0000
,
0000
0000
0000
0000
,
0000
0000
0000
0000
,
0000
0000
0000
0000
,
0000
0000
0000
0000
,
0001
0000
0000
0010
0000
0000
0010
0000
,
0001
0000
1000
0000
0000
0100
0000
0000
,
0100
0000
1000
0000
0001
0000
0000
0100
,
0000
0000
0100
0000
0001
0000
1000
0010
,
0000
0100
0010
0000
1000
0000
0001
0000
,
2000
0001
3100
0020
,
0032
2003
0001
3010
,
0200
0302
2003
0100
,
3001
0020
0230
2300
,
0010
0000
3001
0000
0100
0010
0100
0000
,
0002
1000
0013
0200
,
2300
3002
1000
0103
,
0020
2030
3002
0010
,
1003
0200
0320
0032
,
0100
0000
1003
0000
0010
1000
0001
0000
,
0100
0001
2000
0000
0000
0000
0000
0000
,
0000
0000
0000
3000
,
0000
0000
0000
0000
,
0000
0000
1001
0000
0000
1000
0100
0000
,
0010
0001
0100
2000
,
0000
3100
0010
0000
1000
0000
0100
0000
,
0010
0000
0001
0000
0000
1000
0010
0000
,
0100
0001
0010
2000
,
0000
3010
0100
0000
1000
0000
0010
0000
,
0100
1002
0000
0103
,
0010
1000
0100
2001
,
0000
3010
0100
0001
,
0010
0000
0110
0000
0000
1100
0000
0000
,
0100
0100
0100
1000
,
0001
0001
0100
0001
,
1000
0000
1001
0000
0000
0001
0010
0000
,
0100
1000
0010
0002
,
0000
0013
0100
0000
0001
0000
0010
0000
,
0100
0000
1000
0000
0000
0001
0100
0000
,
0010
1000
0100
0002
,
0000
0103
0010
0000
0001
0000
0100
0000
,
0010
0000
2001
0000
0000
3010
0100
0000
,
0001
0010
0100
0002
,
0000
0103
0000
0100
1000
0000
0001
0000
,
0100
0000
2000
0000
0000
0000
3100
0010
,
0100
0001
1000
2001
,
0000
0100
0000
0000
0001
0000
0000
0010
,
0000
3002
0010
1003
,
0002
0023
0230
0001
,
1300
0020
0230
0302
,
0100
1003
0002
0203
,
0320
0001
1030
0100
,
0100
2000
0100
3001
,
2000
3200
0320
1000
,
0031
0200
0320
2030
,
0010
3001
2000
3020
,
0230
1000
0301
1000
,
0100
0010
0100
0000
1000
0000
0010
0000
,
0010
1000
0001
0000
0010
0000
0010
0001
,
2000
3020
0230
2300
,
0100
0000
3100
0001
2000
0000
0010
0000
,
3010
0100
0001
0000
1000
0000
0100
1000
,
0002
0203
0320
0032
,
0010
0013
1000
0100
,
0100
1000
0001
0000
0100
0000
0100
0001
,
2000
3200
0320
2030
,
0010
0000
3010
0001
1000
0000
0010
0000
,
0100
0001
0010
0001
,
1002
0000
0000
1000
0000
0000
0100
0000
,
0000
0010
0000
0000
2003
0000
0000
0000
,
0000
0000
0000
0000
,
3200
0000
0000
0000
,
0000
0000
0320
0000
,
0000
0000
0000
0000
,
0032
0000
0000
0000
,
0000
0000
0203
0000
,
0000
0010
0010
0001
,
0302
0000
0000
0010
0000
0000
0100
0000
,
0000
0000
1003
0001
0100
0000
0001
0000
,
0010
0100
1000
0010
,
0100
0000
0010
0100
0000
0001
1000
0000
,
0100
0010
0002
1000
,
0203
0000
0320
0000
0000
0130
0001
1000
,
0001
0010
0100
2000
,
0001
0000
3010
0000
0100
0001
0000
1000
,
0100
0000
0010
0100
0010
0000
0001
0000
,
0200
2300
3002
0023
,
0100
0100
2030
0001
,
3200
0000
0320
0000
0000
0130
1000
0001
,
1000
0010
0100
0002
,
1000
0013
2001
0000
,
3010
0000
1002
0000
0000
0000
0013
0100
,
2000
3020
0230
2300
,
3200
0320
1030
1000
,
1000
0010
1000
1000
,
0100
1000
1000
0001
,
0001
0100
0010
0000
1000
0000
0001
0010
,
0000
0010
0002
0000
0203
0000
2300
0000
,
3002
0023
0230
0302
,
0010
0010
1003
0010
,
1000
0001
0010
0000
0020
0000
2030
0000
,
3020
0230
2300
3002
,
2003
0010
3002
0010
,
1003
0100
0010
0000
0100
0010
0001
0000
,
1000
0010
0100
0000
0100
0000
0001
0010
,
0100
0000
0100
0000
1000
0000
0010
1000
,
0010
0000
1000
0000
0100
1000
0100
0000
,
1000
0000
0001
0010
0001
0000
1000
0010
,
0100
0000
0001
0000
1000
0001
0100
0000
,
0100
0001
1000
0000
0001
1000
0100
0000
,
0100
1000
0001
0000
0100
0010
0100
0010
,
1000
0001
1000
0000
2002
0000
0000
0000
,
0000
0000
0000
0000
,
0000
0000
0000
0000
,
0003
0000
0000
0000
,
0000
0000
0000
0000
,
0000
3000
0000
0000
;

//--------------- dance-single - chrononical ----------------
#NOTES:
     dance-single:
     chrononical:
     Hard:
     15:
     0,0,0,0,0:
0000
0000
0000
0000
,
0000
0000
0000
0000
,
0000
0000
0000
0000
,
0000
0000
0000
0000
,
0000
0000
0000
0000
,
0000
0000
0000
0000
,
0001
0000
0010
0001
0000
1000
0001
0000
,
0001
0000
1000
0000
0010
1000
0000
0001
,
1000
0100
1000
0000
0001
0000
0100
0001
,
0000
1000
0001
0000
0001
1000
0100
0010
,
0000
0100
1000
0001
0100
0010
0100
0000
,
0002
0000
0103
0010
0000
0010
0200
0000
,
0302
0000
2003
0000
3100
0010
0000
0010
,
0100
1000
0002
0000
2003
0000
3010
0100
,
0000
0100
0020
0000
2030
0000
3200
0000
,
0310
0100
0000
0100
1000
0001
1000
0010
,
2000
0000
3001
0100
0000
0100
0020
0000
,
2030
0000
3002
0000
1003
0100
0000
0100
,
0010
0001
1000
0010
2000
0000
3001
0100
,
0000
0100
0020
0000
2030
0000
3002
0000
,
1003
0100
0000
0100
0010
0100
1000
0001
,
1000
0010
0200
0000
0000
0000
0000
0000
,
0000
0000
0000
0302
,
0000
0000
0000
0003
,
0000
0000
1001
0000
0000
0001
0100
0010
,
0100
0001
1000
0100
0010
0100
0002
0000
,
0000
0103
1000
0001
2000
0000
3020
0000
,
0230
0000
0302
0000
0000
0013
0100
0010
,
0001
1000
0010
0100
0001
0100
2000
0000
,
0000
3100
0010
1000
0002
0000
0023
0000
,
0230
2300
0000
3020
,
0032
2003
3200
0302
,
0000
0000
0103
0001
2000
0000
3200
0000
,
0320
0000
2030
0000
0000
3020
0000
0000
,
0032
0000
0103
0000
0100
0000
0100
0001
,
1000
0100
0010
0000
0010
0001
0000
0001
,
1000
0000
1001
0000
0000
1000
0100
0010
,
0100
1000
0001
0100
0010
0100
2000
0000
,
0000
3100
0010
1000
0002
0000
0023
0000
,
0230
0000
2300
0000
0000
3010
0100
0010
,
1000
0001
1000
0100
0010
0100
0002
0000
,
0000
0103
0010
0100
2000
0000
3020
0000
,
0230
0000
0302
0000
0000
1003
0010
0100
,
0001
1000
0100
0010
0001
1000
0020
0000
,
0000
0032
0000
0013
2000
0000
3200
0000
,
0320
0000
0230
0000
0001
0000
0310
0100
,
2000
3020
0230
0302
,
1000
1000
0100
0010
,
1000
0000
2003
0000
3100
0010
0000
0010
,
2000
0000
3020
0000
0032
0000
0103
0010
,
0000
0010
0001
0010
0200
0000
0302
0000
,
0013
0100
0000
0100
0002
0000
0203
0000
,
1300
0100
0010
0001
1000
0000
1000
0010
,
0100
0010
2000
0000
3001
0100
0000
0100
,
2000
0000
3200
0000
0302
0000
1003
0100
,
0000
0100
0001
0100
2000
0000
3002
0000
,
1003
0010
0000
0010
0002
0000
0023
0000
,
1030
0001
0010
0000
0010
0000
1001
0000
,
0001
0100
0010
1000
0001
0000
2100
0000
,
3001
0100
0001
0000
2100
0000
3001
0010
,
0002
0203
2300
3002
,
0013
0000
0010
1000
0002
0000
1000
0103
,
0010
0001
1000
0010
0100
0010
1000
0001
,
2000
3200
0320
0230
,
0001
1300
0001
2010
,
3001
0010
0001
0000
2010
0000
3001
0100
,
0002
0023
2030
3002
,
0103
0000
1000
0001
0200
0000
1000
0000
,
0301
0020
1000
0031
,
2001
0010
0100
0001
,
0010
0000
0100
0000
3002
0000
0000
1000
,
0000
0100
0100
0000
,
0023
0000
0000
0100
0000
0000
0001
0000
,
0001
0000
0000
0000
0230
0000
0000
0010
,
0000
1000
1000
0000
,
2300
0000
0000
0001
0000
0000
0010
0000
,
3010
0000
0100
0000
1001
0000
0000
1000
,
0100
0010
0100
1000
0100
0010
0001
1000
,
0002
0000
0000
0100
0000
0000
0100
0000
,
1003
0000
0001
1000
0020
0000
0001
0000
,
0001
0100
0100
1000
,
1030
0000
0100
0010
0000
0010
0001
1000
,
0010
0100
0001
1000
1002
0000
0010
0000
,
0103
0000
2001
0000
0010
0000
3100
0010
,
0200
0320
0031
0102
,
1003
0100
0010
0100
1000
0001
0100
0001
,
1000
0010
0100
0010
1000
0001
1000
0100
,
0020
2030
3002
0203
,
0010
1300
2001
0010
,
3100
0000
1002
0000
0100
0000
0013
0100
,
0020
0230
1300
2010
,
3001
0100
0010
0000
2001
0000
0100
0000
,
3001
0000
1002
0000
0100
0000
1003
0010
,
0200
2300
3002
0023
,
2030
3002
1003
1000
,
1000
0011
1000
1000
,
0101
1000
1000
0011
,
0001
1000
0100
0000
1001
0000
1000
0001
,
0000
0010
0002
0000
0023
0000
2030
0000
,
3002
0203
0320
0032
,
0010
1003
1001
0001
,
1000
0001
0200
0000
0320
0000
0032
0000
,
0023
2030
3200
0320
,
0032
0100
2003
0100
,
3001
1000
0010
0100
0010
1000
0001
0010
,
0100
1000
0100
0010
0001
1000
0010
0100
,
0002
0000
0013
0000
2001
0000
3100
0010
,
0100
0000
1002
0000
0103
0010
0100
0000
,
2001
0000
3100
0010
0100
1000
0001
0100
,
0010
0100
0001
1000
0100
0010
0001
1000
,
0010
1000
0001
0100
1000
0100
0010
0100
,
0001
1000
0001
0010
0100
0010
0100
1000
,
0100
0010
0001
0000
2002
0000
0000
0000
,
0000
0000
0000
0000
,
0000
0000
0000
0000
,
0003
0000
0000
0000
,
0000
0000
0000
0000
,
0000
3000
0000
0000
;

//--------------- dance-single - chrononical (non-judged) ----------------
#NOTES:
     dance-single:
     chrononical (non-judged):
     Edit:
     16:
     0,0,0,0,0:
0000
0000
0000
0000
,
0000
0000
0000
0000
,
0000
0000
0000
0000
,
0000
0000
0000
0000
,
0000
0000
0000
0000
,
0000
0000
0000
0000
,
0001
1000
0001
0100
0001
0010
0001
1000
,
0001
0000
1000
0001
1000
0010
1000
0100
,
1000
0001
1000
0000
0001
1000
0001
0010
,
0001
0000
0100
0000
0001
0000
1000
0000
0001
0000
0100
0010
0100
0000
0010
0000
,
0000
0000
0010
0000
1000
0000
0001
1000
0001
0000
0010
0000
0100
0000
1000
0000
,
0001
0100
0010
1000
0100
0010
0100
1000
,
0001
0000
1000
0010
0100
0001
0010
0100
,
0010
0001
1000
1000
0001
0010
0100
1000
,
0010
0100
0010
1000
0001
0000
1000
0100
,
0010
0100
1000
0001
1000
0010
0100
0001
,
1000
0010
0100
0010
1000
0100
0010
0001
,
1000
0000
0001
0100
0010
0100
0001
0010
,
0100
1000
0001
0000
1000
0100
0010
0100
,
1000
0010
0100
0001
1000
0000
0001
0010
,
0100
0010
0001
1000
0001
0100
0010
0100
,
0010
1000
0002
0000
0000
0000
0000
0000
,
0000
0000
0000
0000
0000
0000
0103
0001
1000
0002
0000
0000
,
0000
0000
0000
0003
,
0000
0000
1001
0000
1000
0100
0010
0100
,
0010
0001
1000
0010
0100
0010
0002
0000
,
0000
1003
0100
0010
2000
0000
3200
0000
,
0320
0000
0032
0000
1003
0010
0100
0010
,
0100
0001
1000
0100
0010
0100
0002
0000
,
0000
1003
0010
0100
2000
0000
3020
0000
,
0230
0302
0000
1003
,
1100
0100
0110
0020
,
0130
1000
0001
0100
0010
0000
1010
0000
,
1000
0000
1100
0000
0100
0010
0100
1000
,
0002
0000
0203
0000
0320
0000
1030
0001
,
0100
0010
0100
0001
1000
0100
0010
0100
,
1000
0001
1000
0000
0001
0100
0010
0100
,
0010
1000
0001
0010
0100
0010
2000
0000
,
0000
3001
0100
0010
0002
0000
0203
0000
,
0320
0000
2030
0000
3001
0010
0100
0010
,
0100
1000
0001
0100
0010
0100
2000
0000
,
0000
3001
0010
0100
0002
0000
0023
0000
,
0230
0000
0320
0000
0031
1000
0001
0100
,
0001
0010
0100
1000
0001
1000
0020
0000
,
0000
0032
0000
0013
1000
0001
0010
0100
,
1000
0001
2000
0000
0000
0000
3001
0010
,
2000
3002
0203
2300
,
3001
0000
0000
0100
0000
0000
0010
0000
0000
0100
0000
0000
0001
0000
1000
0000
0100
0000
0010
0000
0000
0001
0000
0000
,
1000
0001
1000
0010
0100
0001
0100
0010
,
1000
0001
1000
0000
0001
0010
0100
1000
,
0100
0010
0001
1000
0001
0001
1000
0010
,
0100
0001
0100
0010
1000
0001
1000
0000
,
0001
0000
0010
0100
0010
0000
0001
0000
1000
0000
0010
0000
0100
0000
0010
0000
,
1000
1000
0001
0010
0100
1000
0100
0010
,
0001
1000
0001
0000
1000
0010
0100
0001
,
0100
0010
1000
0001
1000
0000
0001
0010
,
0100
1000
0100
0010
0001
1000
0001
0000
,
1000
0100
0010
0000
0110
0000
0011
0000
,
0001
0100
0010
1000
0001
0000
2100
0000
,
3010
0100
0001
0000
2100
0000
3010
0100
,
0020
0032
2003
3200
,
0301
0100
0001
1000
0002
0000
1003
0001
,
0010
0100
0010
0001
1000
0001
0010
0100
,
0002
0000
0203
0000
2300
0000
3010
0100
,
0010
1000
0001
1000
0001
0000
2010
0000
,
3100
0010
0001
0000
2010
0000
3100
0010
,
0200
0302
2003
3020
,
0031
0001
1000
0100
2000
0000
3010
0100
,
0001
0100
0020
0000
1030
0100
0010
0001
,
2000
0000
3010
0100
0001
0100
0010
0000
,
1000
0000
0100
0000
0010
0000
0100
0000
0000
1000
0000
0000
0001
0000
0000
0000
0000
0000
0000
0000
0000
1000
0000
0000
,
0010
0100
0010
1000
0001
0010
0100
1000
,
0020
0000
0000
0000
,
0000
0000
1030
0001
0020
0000
0000
0000
,
0000
0000
0000
0000
0000
0000
0031
1000
,
0200
0000
0000
0000
,
0000
0000
0300
0000
2001
0000
0000
3001
,
0010
0100
0010
0001
1000
0010
0100
0001
,
0020
0000
0000
0000
,
0000
0000
0031
1000
0020
0000
0001
0000
,
0001
0100
0100
1000
,
1030
0000
0100
0010
0000
0010
0001
1000
,
0001
0100
0010
0100
0020
0000
0001
0000
,
1030
0000
0200
0010
0000
1000
1300
0001
,
0100
0110
0010
1001
,
1000
0010
0100
0010
0200
0000
1000
0000
,
0301
0010
0100
0010
0100
1000
0001
0100
,
0010
1010
1000
2001
,
0001
0010
3200
0001
,
1300
0000
0020
0100
0000
1000
1030
0001
,
0010
0110
0100
1001
,
1000
0010
0100
0000
2001
0000
0001
0000
,
3010
0000
1002
0000
0100
0000
0013
0100
,
2000
3020
0230
0302
,
0203
0310
1001
1000
,
1000
0011
1000
1000
,
0101
1000
1000
0011
,
0001
0010
0100
1000
0001
0000
0001
0010
,
0001
2000
3020
0032
,
2003
0000
3200
0000
0320
0000
1030
0100
,
0010
0001
1000
0000
1001
0000
0011
0000
,
0010
0100
1000
0000
0002
0000
0203
0000
,
2300
3002
0023
2030
,
3002
0010
2003
0010
,
3001
0000
1000
0100
1000
0100
0010
0001
,
1000
0010
1000
0010
0100
0001
1000
0100
,
0010
0000
0010
0000
1001
0000
1100
1000
,
0001
0000
1001
0000
0101
0001
0100
0000
,
1001
0000
1010
1000
0010
0000
1001
0000
,
0011
0001
0010
0100
1000
0001
0100
0001
,
1000
0010
0100
0010
0001
0010
0100
0010
,
1000
0000
0000
0001
0000
0000
0010
0000
0000
0100
0000
0000
1000
0000
0000
0001
0000
0000
0100
0000
0010
0000
1000
0000
,
0001
1000
0010
0000
2002
0000
0000
0000
,
0000
0000
0000
0000
,
0000
0000
0000
0003
,
3001
0010
0100
0010
0001
1000
0001
1000
,
0001
0000
1000
0001
0100
0010
0100
0001
,
1000
0001
2000
0000
0000
0000
0000
0000
,
0000
0000
0000
0000
,
0000
0000
0000
3000
;
