#TITLE:Devil Trigger;
#ARTIST:Casey Edwards feat. Ali Edwards;
#BANNER:Devil Trigger.png;
#BACKGROUND:Devil Trigger-bg.png;
#JACKET:Devil Trigger-jacket.png;
#CDTITLE:./CDTITLES/NONE.PNG;
#MUSIC:Devil Trigger.ogg;
#SAMPLESTART:73.5;
#SAMPLELENGTH:15;
#BPMS:0=160;

//---------------dance-single - t7r----------------
#NOTES:
     dance-single:
     t7r:
     Beginner:
     4:
     :
0000
0000
0000
0000
,
0000
0000
0000
0000
,
0000
0000
0000
0000
,
0000
0000
0000
0000
,
0000
0000
0000
0000
,
0000
0000
0000
0000
,
0000
0000
0000
0000
,
1000
0000
0000
0000
,
0001
0000
0000
0000
,
0100
0000
0000
0000
,
0010
0000
0000
0000
,
1000
0000
1000
0000
,
1000
0000
0000
0000
,
0001
0000
0001
0000
,
0001
0000
0000
0000
,
0000
1000
0000
1000
,
1000
0000
1000
0000
,
0000
0001
0000
0001
,
0001
0000
0001
0000
,
0100
0000
0100
0000
,
0100
0100
0000
0000
,
0010
0000
0010
0000
,
0010
0010
0000
0000
,
0000
1000
0000
1000
,
0000
1000
0000
0000
,
0000
0001
0000
0001
,
0000
0001
0000
0000
,
0000
0010
0000
0010
,
0000
0010
0000
0000
,
0100
0000
0000
0000
,
0100
0000
0100
0000
,
0010
0000
0000
0000
,
0001
0000
0000
0000
,
1000
0000
0000
0000
,
0010
0000
0000
0000
,
0100
0000
0100
0000
,
0100
0000
0000
0000
,
0001
0000
1000
0000
,
0001
0000
0001
0000
,
0000
1000
0000
1000
,
1000
0000
1000
0000
,
0000
0001
0000
0001
,
0001
0000
0001
0000
,
0000
0100
0000
0100
,
0100
0000
0100
0000
,
0010
0000
0010
0000
,
1000
0000
0001
0000
,
1000
0000
0000
0000
,
0000
0000
0000
0000
,
0000
0100
0000
0100
,
0100
0000
0100
0000
,
0000
0010
0000
0010
,
0010
0000
0010
0000
,
0001
0000
0000
1000
,
1000
0000
1000
0000
,
0010
0000
0000
0010
,
0010
0000
0000
0000
,
0100
0000
0100
0000
,
0100
0000
0000
0000
,
0010
0000
0010
0000
,
0010
0000
0000
0000
,
1000
0000
1000
0000
,
1000
0000
0000
0000
,
0001
0000
0001
0000
,
0001
0000
0000
0000
,
0000
0010
0000
0010
,
0010
0000
0010
0000
,
0000
0100
0000
0100
,
0100
0000
0100
0000
,
1000
0000
0000
1000
,
1000
0000
1000
0000
,
0000
0001
0000
0001
,
0001
0000
0001
0000
,
0100
0000
0100
0000
,
0010
0000
0010
0000
,
1000
0000
1000
0000
,
0001
0000
0001
0000
,
0010
0000
0010
0000
,
0100
0000
0100
0000
,
1000
0000
0010
0000
,
0100
0000
0001
0000
,
1000
0000
1000
0000
,
0001
0000
0001
0000
,
0100
0000
0100
0000
,
0010
0000
0010
0000
,
1000
0000
0000
0000
,
0001
0000
0000
0000
,
1001
0000
0000
0000
;

//---------------dance-single - t7r----------------
#NOTES:
     dance-single:
     t7r:
     Easy:
     6:
     :
0000
0000
0000
0000
,
0000
0000
0000
0000
,
0000
0000
0000
0000
,
0000
0000
0000
0000
,
0000
0000
0000
0000
,
0000
0000
0000
0000
,
0000
0000
0000
0000
,
1000
0000
0100
0000
,
0010
0001
1000
0000
,
0001
0000
0100
0000
,
0010
1000
0001
0000
,
1000
0010
0100
0010
,
1000
0002
0000
1003
,
0001
0010
0100
0010
,
0001
2000
3010
0100
,
0010
1000
0001
0000
,
0010
0001
1000
0000
,
0001
0100
0010
0000
,
1000
0100
0010
0000
,
0001
0100
0010
0100
,
0001
0020
0000
0130
,
1000
0010
0100
0010
,
1000
0200
0310
0110
,
0001
0100
0000
0010
,
1000
0001
0000
1000
,
0100
0010
0000
0100
,
1000
0001
0000
0100
,
0010
0100
0000
0001
,
0010
0001
0000
1000
,
0010
0000
0100
0000
,
0001
1000
1001
0000
,
1000
0100
0010
0100
,
1000
0010
0100
0000
,
0001
0010
0100
0010
,
0001
0100
0010
0000
,
1000
0001
0010
0001
,
1000
0001
0100
0000
,
0010
0000
0100
0000
,
0001
1000
1100
0000
,
1000
0100
0010
0100
,
0001
0100
1000
0000
,
0001
0100
0010
0100
,
1000
0100
0001
0000
,
1000
0010
0100
0010
,
0001
0010
1000
0000
,
0001
0010
0100
0010
,
1000
0010
0001
0000
,
0200
0000
0310
0000
,
1000
0001
2000
0000
,
3001
0010
0100
0010
,
0001
0100
0020
0000
,
1030
0010
0100
0010
,
1000
0100
0020
0000
,
0032
0000
0103
0000
,
0020
0000
1030
0000
,
0010
0000
0000
0010
0000
0000
0010
0000
,
2002
0000
0000
3003
,
1000
0100
0010
0100
,
1000
0001
0100
0010
,
0200
0000
0010
0010
,
0302
0000
0010
0010
,
1003
0010
0100
0010
,
1000
0001
0010
0100
,
0020
0000
0100
0130
,
2002
3003
0010
0110
,
1000
0010
0100
0001
,
0010
0100
1000
0001
,
0200
0000
1000
0010
,
0302
0000
0010
1000
,
0103
0001
0010
0100
,
1000
0010
0100
0001
,
0020
0000
1000
0100
,
0031
1000
0001
1001
,
1000
0001
0100
0010
,
1000
0000
0000
0100
0000
0000
0010
0000
,
0001
1000
0010
0100
,
0001
0000
0000
0010
0000
0000
0100
0000
,
1000
0001
0100
0010
,
1000
0000
0000
0100
0000
0000
0001
0000
,
0100
0010
0100
1000
,
0010
0000
0100
0110
,
0001
0010
0001
0001
,
1000
0010
1000
1000
,
0001
0100
0001
0001
,
1000
0100
1000
1000
,
0020
0000
0100
0130
,
0002
0000
1000
1003
,
2002
0000
0000
0000
,
0000
0000
0000
0000
,
3003
0000
0000
0000
;

//---------------dance-single - t7r----------------
#NOTES:
     dance-single:
     t7r:
     Medium:
     10:
     :
0000
0000
0000
0000
,
0000
0000
0000
0000
,
0000
0000
0000
0000
,
0000
0000
0000
0000
,
0000
0000
0000
0000
,
0000
0000
0000
0000
,
0000
0000
0000
0000
,
0001
0000
0100
0000
0001
0000
0010
0001
,
0000
0100
0010
1000
,
0100
0000
0010
0000
0001
0000
1000
0010
,
0000
0100
0010
1000
,
0001
0000
0010
0001
0010
0000
0001
0000
,
1000
0001
2000
0000
0000
0000
3100
0000
,
1000
0000
0010
1000
0010
0000
1000
0000
,
0001
1000
0002
0000
0000
0000
0103
0000
,
0001
0000
0010
0000
0100
0000
0010
0001
,
0000
0100
1000
0100
,
0010
0000
0100
0000
0001
0000
1000
0100
,
0000
0001
0100
1000
,
0010
0000
0100
0001
0100
0000
0010
0000
,
0100
1000
0200
0000
0000
0000
0310
0000
,
0100
0000
0001
0010
0001
0000
0010
0000
,
1000
0010
2000
0000
0000
0000
3010
0000
,
0001
0000
0100
0000
0000
0001
0010
0000
,
0001
0000
1000
0020
0000
0000
0130
0000
,
0010
0000
1000
0000
0000
0100
1000
0000
,
0100
0000
0010
0200
0000
0000
1300
0000
,
0100
0000
0010
0000
0000
0001
1000
0000
,
0010
0000
0100
0002
0000
0000
0013
0000
,
0002
0103
2000
3100
,
0010
0000
0000
0010
0000
0000
0000
0000
1000
0000
0000
0000
0001
0000
0000
0000
,
1000
0000
0100
0000
0010
0100
0010
0000
,
0100
0000
1000
0002
0000
0000
0103
0000
,
0001
0000
0100
0000
0010
0100
0010
0000
,
0100
0000
0001
2000
0000
0000
3100
0000
,
1000
0000
0010
0000
0100
0010
0100
0000
,
0010
0000
1000
0002
0000
0000
0013
0000
,
0002
0103
2000
3100
,
0001
0000
0000
0001
0000
0000
0000
0000
1000
0000
0000
0000
1001
0000
0000
0000
,
1000
0000
0100
0000
1100
0000
1000
0010
,
0000
1000
0000
0001
0100
0000
0100
0000
,
0001
0000
0100
0000
0101
0000
0001
0010
,
0000
0001
0000
1000
0100
0000
0100
0000
,
1000
0010
1000
0000
1010
0000
1000
0001
,
0000
0010
0000
0001
0100
0000
0100
0000
,
0001
0010
0001
0000
0011
0000
0001
1000
,
0010
0110
1000
1001
,
0010
0100
0210
0000
,
0301
0001
0100
0000
0020
0000
0000
0000
,
1030
0000
0100
0000
0000
1000
0001
0000
,
1000
0000
0100
1000
0000
1000
0000
0000
,
0001
0000
0100
0000
0000
0001
1000
0000
,
0001
0000
0100
0001
0000
0001
0000
0000
,
2000
0000
0000
3020
0000
0000
0230
0000
,
0000
0000
0301
0010
0001
2000
0000
0000
,
3020
0000
0030
0020
0000
0030
0010
0100
,
0002
0000
0000
0003
,
1000
0000
0100
0000
1000
0001
0100
0000
,
0001
0000
0010
0000
0001
1000
0100
0000
,
2000
0010
0002
3003
,
2002
0000
3003
0000
0001
0100
0010
1000
,
0001
0000
0010
0000
0001
1000
0010
0000
,
1000
0000
0100
0000
1000
0001
0010
0000
,
0002
0000
0103
0020
0000
0000
1030
0000
,
2002
0000
0000
0000
3003
0000
0000
0000
0000
0100
0000
0000
0110
0000
0000
0000
,
1000
0000
0100
0000
1000
1000
0010
0000
,
0100
0000
0001
0000
0010
0010
0001
0000
,
2000
0000
3010
0200
0000
0000
1000
0000
,
0020
0000
0330
0000
0100
0100
0001
1000
,
0001
0000
0010
0000
0001
0001
0100
0000
,
0010
0000
1000
0000
0100
0100
1000
0000
,
0002
0000
0103
0020
0000
0000
0001
0000
,
0130
0000
0000
0100
0000
0000
0100
0000
0010
0000
0000
0000
1001
0000
0000
0000
,
1100
0000
1000
0100
1000
0000
0010
1000
,
0020
0000
0000
0032
0000
0000
0013
0000
,
0100
0000
0001
0010
0001
0000
0010
1000
,
0020
0000
0000
2030
0000
0000
3010
0000
,
0100
0000
0010
0100
0010
0000
0001
0100
,
2000
0000
0000
3200
0000
0000
0320
0000
,
0130
0000
0100
0000
0010
1000
0001
0000
,
1000
0000
0000
1000
0000
0000
0001
0000
1000
0000
0000
0000
1001
0000
0000
0000
,
0000
0000
0001
0000
0100
0000
0001
0000
1000
0000
0000
1000
0000
0000
1000
0000
,
0000
0000
0001
0000
0010
0000
0001
0000
1000
0000
0000
1000
0000
0000
1000
0000
,
0000
0000
0001
0000
0100
0000
0001
0000
0010
0000
0000
0010
0000
0000
0010
0000
,
0000
0000
0001
0000
1000
0000
0001
0000
0100
0000
0000
0100
0000
0000
0100
0000
,
0020
0000
0000
0000
0130
0000
0000
0001
0000
0000
1000
0000
0001
0000
0000
0000
,
0200
0000
0000
0000
0310
0000
0000
1000
0000
0000
0001
0000
1000
0000
0000
0000
,
2002
0000
0000
0000
,
0000
0000
0000
0000
,
3003
0000
0000
0000
;

//---------------dance-single - t7r----------------
#NOTES:
     dance-single:
     t7r:
     Hard:
     13:
     :
0000
0000
0000
0000
,
0000
0000
0000
0000
,
0000
0000
0000
0000
,
0000
0000
0000
0000
,
0000
0000
0000
0000
,
0000
0000
0000
0000
,
0000
0000
0000
0000
,
1000
0000
1100
0000
1000
0010
0100
0010
,
0000
1000
0000
0100
0010
0000
0001
0000
,
1000
0000
0010
0100
0001
0000
0010
0000
,
0100
1000
0001
0000
0100
0010
1000
0000
,
0001
0010
0100
0010
0001
0000
1000
0010
,
0100
0010
2000
0000
0100
0000
3001
0000
,
1000
0100
0010
0001
0100
0000
0001
0010
,
0100
1000
0020
0000
0001
0000
0130
0000
,
0010
0000
1001
0000
1000
0100
0010
0100
,
0000
1000
0010
0100
0001
0000
0011
0000
,
0001
0100
0010
1000
0001
0010
0100
1000
,
0100
0010
0100
0001
0100
0010
0100
0000
,
1000
0010
0100
0010
0001
0000
1000
0100
,
0010
0100
0002
0000
0010
0000
1003
0000
,
0001
0010
0100
0010
1000
0000
0001
0100
,
0010
0010
0001
1000
0010
0000
0110
0000
,
1000
0000
1010
0000
1000
0100
0010
0100
,
0001
0000
0100
0010
0100
1000
0100
0000
,
0010
0001
1000
0000
0001
0100
0010
0100
,
1000
0000
0100
0010
0100
0001
1000
0000
,
0001
0000
0011
0000
0001
0100
0010
0000
,
1000
0010
0100
0010
0001
0010
1000
0000
,
0100
0000
0011
0000
0001
0100
0010
0000
,
1000
0000
0000
0100
0000
0000
0100
0000
0001
0000
0000
0000
0110
0000
0000
0000
,
1000
0010
0100
1000
0100
0010
1000
0000
,
0001
0010
0100
0002
0000
0103
1000
0000
,
0001
0100
0010
0001
0010
0100
0001
0000
,
1000
0100
0010
2000
0000
3010
0100
0000
,
1000
0010
0100
1000
0100
0001
0010
0000
,
1000
0010
0100
0020
0000
0031
1000
0000
,
0100
0000
1010
0000
1000
0100
0010
0000
,
0001
0000
0000
0100
0000
0000
0100
0000
1000
0000
0000
0000
0110
0000
0000
0000
,
1000
0100
0010
0000
1100
0000
0001
1000
,
0000
0000
0001
0000
0100
0000
0010
0000
1000
0000
0000
0001
0000
0000
0010
0000
,
0001
0100
0010
0000
0101
0000
1000
0001
,
0000
0000
1000
0000
0100
0000
0010
0000
0001
0000
0000
1000
0000
0000
0001
0000
,
0010
0100
0001
0100
0010
0001
0010
0100
,
0000
0000
1000
0000
0010
0000
0100
0000
0010
0000
0000
1000
0000
0000
0001
0000
,
0100
0010
1000
0010
0100
1000
0100
0010
,
1000
0000
0001
0000
0010
0000
0100
0000
0010
0000
0001
1000
0001
0000
1000
0000
,
0020
0000
0130
0000
,
0001
0000
1000
0100
1000
0000
0000
0000
0020
0000
0000
0000
0000
0000
0000
0000
,
0130
0000
1010
0000
1000
1000
0100
0010
,
1000
0000
0010
0100
0000
0100
1000
0000
,
0001
0100
0010
0000
0001
0001
0010
0100
,
0001
0000
0010
0100
0000
0100
1000
0000
,
0002
0000
0103
2000
0000
3100
0020
0000
,
1030
0100
0010
0100
0001
0100
1000
0000
,
0020
0000
1030
0020
0000
0031
0010
0100
,
0220
0000
0000
0330
,
1000
0000
1001
0000
1000
0100
0010
0100
,
1000
0000
0110
0000
0001
0100
0010
0100
,
0001
0000
0110
0000
1000
0010
0100
0010
,
2000
0000
3001
0100
0001
0001
0010
0100
,
1000
0000
1010
0000
1000
0010
0100
0001
,
0010
0000
1001
0000
0001
0010
0100
0010
,
0002
0000
0103
2000
0000
3001
0020
0000
,
1030
0000
0000
0000
0100
0000
1000
0000
0010
0100
0000
0000
1001
0000
0000
0000
,
1000
0000
1100
0000
0100
0100
0001
0100
,
0010
0000
0101
0000
0100
0100
1000
0100
,
0010
0000
1100
0000
0100
0100
0001
0100
,
1000
0000
0101
0000
0100
0100
0010
0000
,
1001
0000
0011
0000
0010
0010
1000
0010
,
0100
0000
1010
0000
0010
0010
0001
0010
,
0100
0000
1001
0000
0010
0010
1000
0010
,
0001
0000
0010
0100
0000
0000
0110
0000
0001
1000
0000
0000
0110
0000
0000
0000
,
1000
0000
0001
0100
0010
0100
1000
0100
,
0020
0000
1030
0200
0000
0301
0100
0010
,
0001
0000
1000
0010
0100
0010
0001
0010
,
0200
0000
0301
0020
0000
1030
0010
0100
,
1000
0000
0001
0010
1000
0010
0001
0100
,
0020
0000
1030
0200
0000
0301
0100
1000
,
0001
0000
1000
0010
0001
0010
1000
0100
,
0001
0000
0100
1000
0000
0001
0100
0000
0010
0100
0000
0000
1001
0000
0000
0000
,
1000
0000
0100
0000
0010
0000
0100
0000
0001
0000
0000
0100
0010
0000
0100
0000
,
1000
0000
0010
0000
0100
0000
0010
0000
0001
0000
0000
0010
0100
0000
0010
0000
,
1000
0000
0100
0000
0010
0000
1000
0000
0010
0000
0000
0100
1000
0000
0010
0000
,
0100
0000
1000
0000
0100
0000
0010
0000
0100
0000
0000
0001
0010
0000
0001
0000
,
0200
0000
0000
0000
0310
0000
0100
1000
0000
0100
0001
0000
0100
0000
0010
0000
,
2000
0000
0000
0000
3100
0000
0001
0100
0000
0010
0100
0000
1000
0000
0001
0000
,
2002
0000
0000
0000
,
0000
0000
0000
0000
,
3003
0000
0000
0000
;

//---------------dance-double - t7r----------------
#NOTES:
     dance-double:
     t7r:
     Easy:
     6:
     :
00000000
00000000
00000000
00000000
,
00000000
00000000
00000000
00000000
,
00000000
00000000
00000000
00000000
,
00000000
00000000
00000000
00000000
,
00000000
00000000
00000000
00000000
,
00000000
00000000
00000000
00000000
,
00000000
00000000
00000000
00000000
,
01000000
00010000
00100000
00000000
,
00001000
00010000
00000100
00000000
,
00001000
00000010
00000100
00000000
,
00000001
00000010
00000100
00001000
,
00000001
00000100
00000100
00001000
,
00010000
00020000
00000000
00030000
,
00001000
00010000
00010000
00100000
,
10000000
20000000
00000000
30000000
,
01000000
10000000
00100000
01000000
,
00010000
00100000
00001000
00000000
,
00010000
00000010
00001000
00000010
,
00000100
00000001
00001000
00000001
,
00000010
00001000
00001000
00010000
,
00001000
00002000
00000000
00003000
,
00010000
01000000
01000000
10000000
,
00100000
00200000
00000000
01300000
,
00100000
10010000
00000000
10000000
,
01000000
00100000
00000000
01000000
,
10000000
00010000
00000000
01000000
,
00001000
00010000
00000000
00000100
,
00001000
00000001
00000000
00000100
,
00000001
00000010
00000000
00000100
,
00002000
00000000
00003001
00000000
,
00000100
00001000
00010000
00010000
,
00001000
00010000
00000000
00100000
,
01000000
00010000
00000000
10000000
,
01000000
00010000
00000000
00001000
,
00000010
00000100
00000000
00000010
,
00000001
00001000
00000000
00000001
,
00000100
00000010
00000000
00001000
,
00000100
00000000
00010000
00000000
,
00001000
00010000
00010000
00001000
,
00010000
01000000
00100000
00000000
,
00010000
10000000
00010000
00000000
,
10000000
00100000
00010000
00000000
,
00001000
00010000
00001000
00000000
,
00010000
00001000
00000010
00000000
,
00000100
00000010
00000100
00000000
,
00000010
00000001
00001000
00000000
,
00000001
00000100
00001000
00010000
,
00001000
00000000
00012000
00000000
,
01003000
01000000
00200000
00000000
,
10300000
01000000
00100000
01000000
,
10000000
00010000
01000000
00000000
,
00010000
00100000
00001000
00010000
,
00001000
00000100
00000010
00000000
,
00000100
00000000
00000000
00000100
00000000
00000000
00000100
00000000
,
00000000
00000001
00000010
00001000
,
00010000
00000000
00000000
00010000
00000000
00000000
00010000
00000000
,
00022000
00000000
00000000
00033000
,
00010000
01000000
10000000
00010000
,
20000000
00000000
30100000
00000000
,
10000000
00100000
01000000
00010000
,
00200000
00000000
00301000
00000000
,
00010000
00000100
00001000
00000010
,
00000200
00000000
00000301
00000000
,
00000010
00000100
00001000
00000001
,
00000100
00000100
00001000
00010000
,
00001000
00001000
00010000
00100000
,
02000000
00000000
03010000
00000000
,
10000000
10000000
01000000
10000000
,
00020000
00000000
01030000
00000000
,
00001000
00001000
00010000
00001000
,
00000020
00000000
00000130
00000000
,
00000010
00000000
00000001
00000000
,
00000100
00000100
00001000
00010000
,
00011000
00001000
00010000
01000000
,
10000000
00000000
00000000
00100000
00000000
00000000
01000000
00000000
,
00100000
00100000
10000000
01000000
,
00010000
00000000
00000000
00001000
00000000
00000000
00010000
00000000
,
00001000
00001000
00000100
00000010
,
00000100
00000000
00000000
00000001
00000000
00000000
00001000
00000000
,
00000001
00000001
00000010
00001000
,
00010000
00010000
00001000
00011000
,
00001000
00010000
00100000
00100000
,
00010000
00001000
00000010
00000010
,
00001000
00010000
01000000
01000000
,
00010000
00001000
00000100
00000100
,
00002000
00000000
00013000
00010000
,
02000000
00000000
13000000
00010000
,
20020000
00000000
00000000
00000000
,
00000000
00000000
00000000
00000000
,
30030000
00000000
00000000
00000000
;

//---------------dance-double - t7r----------------
#NOTES:
     dance-double:
     t7r:
     Medium:
     10:
     :
00000000
00000000
00000000
00000000
,
00000000
00000000
00000000
00000000
,
00000000
00000000
00000000
00000000
,
00000000
00000000
00000000
00000000
,
00000000
00000000
00000000
00000000
,
00000000
00000000
00000000
00000000
,
00000000
00000000
00000000
00000000
,
00010000
00000000
00000100
00000000
00001000
00000000
00000001
00000100
,
00000000
00000001
00000010
00000100
,
00010000
00000000
00001000
00000000
01000000
00000000
00010000
10000000
,
00000000
01000000
00100000
00001000
,
00010000
00000000
00000100
00001000
00000100
00000000
00010000
00000000
,
00001000
01000000
00002000
00000000
00000000
00000000
00013000
00000000
,
00001000
00000000
00010000
00000010
00010000
00000000
00001000
00000000
,
00100000
00001000
00200000
00000000
00000000
00000000
00310000
00000000
,
10000000
00000000
01000000
00000000
10000000
00000000
00100000
01000000
,
00000000
00010000
00100000
00001000
,
00010000
00000000
00001000
00000000
00000010
00000000
00000001
00000100
,
00000000
00000001
00001000
00000100
,
00010000
00000000
00001000
00010000
00001000
00000000
00010000
00000000
,
01000000
10000000
02000000
00000000
00000000
00000000
13000000
00000000
,
00100000
00000000
00010000
00001000
00010000
00000000
00001000
00000000
,
00000100
00000001
00000200
00000000
00000000
00000000
00000310
00000000
,
00001001
00000000
00000001
00000000
00000000
00000100
00000001
00000000
,
00000010
00000000
00000100
00020000
00000000
00000000
00031000
00000000
,
00010000
00000000
01000000
00000000
00000000
10000000
00100000
00000000
,
10000000
00000000
01000000
00200000
00000000
00000000
00310000
00000000
,
10000000
00000000
00100000
00000000
00000000
00010000
00001000
00000000
,
00000100
00000000
00000010
00000200
00000000
00000000
00000301
00000000
,
00000020
00000130
00020000
00031000
,
00010000
00000000
00000000
00010000
00000000
00000000
00000000
00000000
01000000
00000000
00000000
00000000
10000000
00000000
00000000
00000000
,
00100000
00000000
10000000
00000000
00010000
00100000
00010000
00000000
,
10000000
00000000
01000000
00200000
00000000
00000000
00310000
00000000
,
10000000
00000000
01000000
00000000
10000000
00010000
10000000
00000000
,
00100000
00000000
00010000
00002000
00000000
00000000
00003010
00000000
,
00000001
00000000
00000100
00000000
00000000
00000001
00001000
00000000
,
00000001
00000000
00000010
00002000
00000000
00000000
00013000
00000000
,
00002000
01003000
00200000
01300000
,
00010000
00000000
00000000
00010000
00000000
00000000
00000000
00000000
10000000
00000000
00000000
00000000
10010000
00000000
00000000
00000000
,
10000000
00000000
01000000
00000000
11000000
00000000
10000000
00100000
,
00000000
10000000
00000000
01000000
00100000
00000000
00001000
00000000
,
00010000
00000000
00001000
00000000
00011000
00000000
00010000
00000010
,
00000000
00000100
00000010
00001010
,
00001000
00000000
00000001
00000000
00001001
00000000
00000001
00000010
,
00000000
00001000
00010000
00000000
00001000
00000000
00011000
00000000
,
00010000
00000000
01000000
00000000
01100000
00000000
00100000
00010000
,
01000000
01100000
10000000
10010000
,
10000000
01000000
00020000
00000000
,
00031000
00001000
00010000
00000000
00002000
00000000
00000000
00000000
,
00003100
00000000
00000010
00000000
00000000
00000100
00000001
00000000
,
00000010
00000000
00000100
00010000
00000000
00010000
00000000
00000000
,
00001000
00000000
01000000
00000000
00000000
00010000
10000000
00000000
,
01000000
00000000
00100000
00001000
00000000
00001000
00000000
00000000
,
00020000
00000000
00000000
02030000
00000000
00000000
23000000
00000000
,
00000000
00000000
30100000
01000000
00100000
20000000
00000000
00000000
,
32000000
00000000
00000000
03020000
00000000
00000000
00031000
00010000
,
00002000
00000000
00000000
00003000
,
00010000
00000000
00001000
00000000
00000100
00000010
00000100
00000000
,
00000001
00000000
00000010
00000000
00000100
00010000
00000100
00000000
,
00020000
01000000
00002000
00033000
,
00022000
00000000
00033000
00000000
00010000
01000000
10000000
00000000
,
00100000
00000000
10000000
00000000
00010000
00100000
00010000
00000000
,
10000000
00000000
00100000
00000000
00010000
00001000
00010000
00000000
,
00002000
00000000
00003100
00000020
00000000
00000000
00000130
00000000
,
00002002
00000000
00000000
00000000
00003003
00000000
00000000
00000000
00000000
00000010
00000000
00000000
00000110
00000000
00000000
00000000
,
00000001
00000000
00000010
00000000
00000001
00000001
00000100
00000000
,
00000010
00000000
00001000
00000000
00000100
00000100
00010000
00000000
,
00002000
00000000
00013000
02000000
00000000
00000000
00100000
00000000
,
20000000
00000000
33000000
00000000
00100000
00100000
01000000
00010000
,
10000000
00000000
01000000
00000000
10000000
10000000
00100000
00000000
,
01000000
00000000
00010000
00000000
00100000
00100000
00001000
00000000
,
00020000
00000000
00031000
00000020
00000000
00000000
00000100
00000000
,
00000031
00000000
00000000
00000001
00000000
00000000
00000000
00000000
00001000
00000000
00000000
00000000
00001001
00000000
00000000
00000000
,
00000001
00000000
00000100
00000001
00000100
00000000
00000010
00000100
,
00000020
00000000
00000000
00020030
00000000
00000000
00031000
00000000
,
00010000
00000000
00001000
00100000
00001000
00000000
00100000
00010000
,
20000000
00000000
00000000
30200000
00000000
00000000
01300000
00000000
,
00100000
00000000
10000000
01000000
10000000
00000000
01000000
00010000
,
02000000
00000000
00000000
03020000
00000000
00000000
00031000
00000000
,
00000100
00000000
00000010
00000000
00000100
00000001
00001000
00000000
,
00000001
00000000
00000000
00000001
00000000
00000000
00000000
00000000
00000010
00000000
00000000
00000000
00001000
00000000
00000000
00000000
,
00000000
00000000
00010000
00000000
00001000
00000000
01000000
00000000
00001000
00000000
00000000
00001000
00000000
00000000
00010000
00000000
,
00000000
00000000
00001000
00000000
00010000
00000000
00000100
00000000
00010000
00000000
00000000
00010000
00000000
00000000
00001000
00000000
,
00000000
00000000
00010000
00000000
00001000
00000000
00100000
00000000
00001000
00000000
00000000
00001000
00000000
00000000
00010000
00000000
,
00000000
00000000
00001000
00000000
00010000
00000000
00000010
00000000
00010000
00000000
00000000
00010000
00000000
00000000
00001000
00000000
,
00000200
00000000
00000000
00000000
00000301
00000000
00000000
00001000
00000000
00000000
00000100
00000000
00010000
00000000
00000000
00000000
,
00002000
00000000
00000000
00000000
00013000
00000000
00000000
01000000
00000000
00000000
10000000
00000000
00100000
00000000
00000000
00000000
,
20020000
00000000
00000000
00000000
,
00000000
00000000
00000000
00000000
,
30030000
00000000
00000000
00000000
;

//---------------dance-double - t7r----------------
#NOTES:
     dance-double:
     t7r:
     Hard:
     13:
     :
00000000
00000000
00000000
00000000
,
00000000
00000000
00000000
00000000
,
00000000
00000000
00000000
00000000
,
00000000
00000000
00000000
00000000
,
00000000
00000000
00000000
00000000
,
00000000
00000000
00000000
00000000
,
00000000
00000000
00000000
00000000
,
00000010
00000000
00001001
00000000
00000001
00000100
00000000
00000001
,
00000000
00001000
00000000
00000100
00010000
00000000
00001000
00000000
,
00010000
00000000
01000000
00100000
00000000
00010000
00000000
10000000
,
00000000
00100000
00010000
00001000
00010000
00000000
00001000
00000000
,
00000100
00000000
00000010
00001000
00000001
00000000
00000010
00000000
,
00001000
00010000
00002000
00000000
00000100
00000000
00013000
00000000
,
00001000
00000000
00010000
01000000
00100000
00000000
01000000
00000000
,
10000000
00100000
02000000
00000000
10000000
00000000
03100000
00000000
,
01000000
00000000
10010000
00000000
10000000
00000000
01000000
00100000
,
00000000
01000000
00000000
10000000
00100000
00000000
00010000
00000000
,
00001000
00000000
00000100
00000010
00000000
00000100
00000000
00000001
,
00001000
00000000
00000100
00000010
00000001
00000000
00001000
00000000
,
00000001
00000000
00000100
00001000
00010000
00000000
00001000
00000000
,
00010000
01000000
20000000
00000000
00100000
00000000
30010000
00000000
,
10000000
00000000
01000000
00010000
00001000
00000000
00010000
00000000
,
00001000
00000100
00000001
00000010
00000200
00000000
00000310
00000000
,
00000001
00000000
00001001
00000000
00000001
00000100
00000010
00000100
,
00001000
00000000
00000100
00000001
00000000
00000010
00001000
00000000
,
00010000
00001000
00010000
00000000
00001000
00000000
00010000
00100000
,
10000000
00100000
01000000
00020000
00000000
00130000
01000000
00000000
,
10000000
00000000
10010000
00000000
10000000
00100000
01000000
00100000
,
00010000
00000000
00100000
01000000
00000000
00100000
20000000
00000000
,
31000000
00000000
00010000
00000000
00001000
00010000
00001000
00000000
,
00010000
00000000
00000000
00001000
00000000
00000000
00000100
00000000
00000001
00000000
00000000
00000000
00001001
00000000
00000000
00000000
,
00000001
00000000
00000010
00000100
00000001
00000100
00000010
00000000
,
00000001
00000000
00000100
00001000
00000000
00010000
00001000
00000000
,
00010000
00000000
00100000
00000000
10000000
01000000
00100000
10000000
,
00100000
00000000
00001000
00010000
00000000
00001000
00000010
00000000
,
00000100
00000000
00001000
00000000
00000001
00000100
00001000
00000100
,
00000010
00000000
00000100
00000001
00000000
00001000
00000001
00000010
,
00001000
00000000
00010000
00000000
00001000
00000100
00000010
00000000
,
00001000
00000000
00000000
00000100
00000000
00000000
00010000
00000000
00001000
00000000
00000000
00000000
00011000
00000000
00000000
00000000
,
00001000
00010000
01000000
00000000
01010000
00000000
00010000
00001000
,
00000100
00000000
00001000
00000000
00010000
00000000
00000000
00000000
00001000
00000000
00000000
00010000
00000000
00000000
00001000
00000000
,
00010000
00100000
00010000
00000000
00110000
00000000
00010000
00001000
,
00000100
00000000
00000001
00000000
00000010
00000000
00000000
00000000
00000100
00000000
00000000
00010000
00000000
00000000
00001000
00000000
,
00010000
01000000
10000000
00010000
01000000
00100000
10000000
00010000
,
00000000
00000000
10000000
00000000
00100000
00000000
00010000
00000000
00001000
00000000
00000000
00010000
00000000
00000000
00001000
00000000
,
00000100
00000001
00000010
00001000
00000001
00000100
00000010
00000001
,
00000100
00000000
00000000
00000000
00000110
00000000
00000000
00000000
00010000
00000000
00001000
00010000
00001000
00000000
00010000
00000000
,
00200000
00000000
01300000
00000000
,
00010000
00000000
10000000
00010000
10000000
00000000
00000000
00000000
00020000
00000000
00000000
00000000
00000000
00000000
00000000
00000000
,
01030000
00000000
10100000
00000000
10000000
10000000
01000000
00100000
,
00010000
00000000
01000000
00001000
00000000
00001000
00010000
00000000
,
00001000
00010000
00000100
00000000
00001000
00001000
00000010
00000100
,
00000001
00000000
00000010
00000100
00000000
00000100
00010000
00000000
,
00002000
00000000
00003100
00000020
00000000
00000130
00000002
00000000
,
00000013
00001000
00010000
00001000
00010000
02000000
00000000
00000000
,
23000000
00000000
30100000
00020000
00000000
00031000
00010000
00001000
,
00022000
00000000
00000000
00033000
,
00001000
00000000
00000100
00000000
00000010
00001000
00000100
00010000
,
00001000
00000000
00010000
00000000
01000000
10000000
00100000
01000000
,
00010000
00000000
10100000
00000000
10000000
01000000
00010000
00000000
,
00011000
00000000
00001000
00000010
00000100
00000010
00000001
00000000
,
00000100
00000000
00000001
00000000
00000010
00000100
00001000
00000100
,
00000010
00000000
00000001
00000000
00000100
00001000
00010000
00000000
,
00011000
00000000
00010000
02000000
00000000
13000000
00100000
01000000
,
00010000
00000000
00000000
00000000
00110000
00000000
00000000
00000000
00001000
00010000
00000000
00000000
00011000
00000000
00000000
00000000
,
00001000
00000000
00000100
00000010
00001000
00000100
00000010
00000001
,
00001000
00000000
00000001
00000100
00001000
00010000
00001000
00000000
,
00011000
00000000
00010000
01000000
10000000
00100000
01000000
00100000
,
10000000
00000000
01000000
00010000
00001000
00100000
00001000
00010000
,
00010000
00000000
00100000
01000000
00010000
00100000
01000000
10000000
,
00010000
00000000
10000000
00100000
00010000
00001000
01000000
00001000
,
00011000
00000000
00001000
00000010
00000001
00000100
00000010
00000100
,
00000001
00000000
00000000
00000010
00000000
00000000
00001000
00000000
00010000
00001000
00000000
00000000
00011000
00000000
00000000
00000000
,
00010000
00000000
00100000
01000000
00010000
00100000
01000000
10000000
,
00200000
00000000
01300000
00001000
00000000
00001000
00010000
00000000
,
00001000
00000000
00000010
00000100
00000010
00000001
00000100
00001000
,
00020000
00000000
00130000
01000000
00000000
01000000
00010000
00000000
,
10000000
00000000
00100000
00010000
00001000
00000100
00000010
00000100
,
00000002
00000000
00000013
00000100
00000000
00000100
00010000
00000000
,
00001000
00000000
00010000
00000000
01000000
10000000
00100000
00000000
,
00010000
00000000
00000000
00001000
00000000
00000000
00000100
00000000
00000010
00000100
00000000
00000000
00001001
00000000
00000000
00000000
,
00000001
00000000
00000010
00000000
00000001
00000000
00000100
00000000
00001000
00000000
00000000
00010000
00000000
00000000
00001000
00000000
,
00010000
00000000
00100000
00000000
01000000
00000000
00010000
00000000
10000000
00000000
00000000
01000000
00000000
00000000
10000000
00000000
,
00100000
00000000
00010000
00000000
00001000
00000000
00000100
00000000
00000010
00000000
00000000
00001000
00000000
00000000
00000001
00000000
,
00000010
00000000
00001000
00000000
00010000
00000000
01000000
00000000
00100000
00000000
00000000
00010000
00000000
00000000
10000000
00000000
,
00200000
00000000
00000000
00000000
01300000
00000000
10000000
01000000
00000000
00100000
01000000
00000000
00010000
00000000
00100000
00000000
,
00002000
00000000
00000000
00000000
00013000
00000000
00001000
00000100
00000000
00000010
00000100
00000000
00000001
00000000
00001000
00000000
,
00002002
00000000
00000000
00000000
,
00000000
00000000
00000000
00000000
,
00003003
00000000
00000000
00000000
;
