#TITLE:Desert Replay;
#SUBTITLE:;
#ARTIST:Naofumi Hataya;
#TITLETRANSLIT:;
#SUBTITLETRANSLIT:;
#ARTISTTRANSLIT:Naofumi Hataya;
#CREDIT:Nezemarth;
#BANNER:Desert Replay.png;
#BACKGROUND:Desert Replay- bg.png;
#LYRICSPATH:;
#CDTITLE:;
#MUSIC:Desert Replay.ogg;
#OFFSET:-0.469;
#SAMPLESTART:15.894;
#SAMPLELENGTH:12.000;
#SELECTABLE:YES;
#BPMS:0.000=140.005;
#STOPS:;
#BGCHANGES:;

//---------------dance-single - ----------------
#NOTES:
     dance-single:
     :
     Challenge:
     15:
     0.740,0.806,0.195,0.351,0.814: // measure 1
0000
0000
0000
0000
,  // measure 2
0000
0000
0000
0000
,  // measure 3
0000
0000
0000
0000
,  // measure 4
0000
0000
0000
0000
,  // measure 5
1100
0000
1010
0000
1000
0010
0100
0001
,  // measure 6
0000
0000
0000
0000
0001
0000
0010
0000
0000
0000
0000
0000
0100
0000
0000
0000
0000
0000
1000
0000
0000
0000
0000
0000
0000
0000
0000
0010
0000
0000
0100
0000
0000
0000
0000
0000
1000
0000
0000
0000
0000
0000
0100
0000
0000
0000
0000
0000
,  // measure 7
0101
0000
0100
0001
0010
0000
0000
0000
0100
0000
1000
0000
0001
0000
0100
0000
,  // measure 8
0000
0100
0010
0010
1000
1000
0100
0100
,  // measure 9
0120
0001
0100
1000
,  // measure 10
0130
0010
0000
0001
0100
0000
0010
1000
0000
0100
0010
0000
0001
1000
0001
0100
,  // measure 11
0010
0000
0000
0000
0010
0000
1000
0000
0000
0000
1000
0000
0000
0000
0100
0000
0000
0000
0010
0000
0000
0000
0010
0000
0000
0100
0010
0000
0001
0000
1000
0000
,  // measure 12
0010
0100
0000
0001
0100
0000
0010
1000
0000
0010
0100
0001
0010
0100
2000
0000
,  // measure 13
0000
0100
3001
0000
0020
0000
1000
0000
,  // measure 14
0031
0000
0100
0000
0000
0000
0010
0000
1000
0000
0000
0000
0100
0000
0010
0000
0000
0000
0001
0000
0100
0000
0000
0000
0000
0000
0000
0010
1000
0000
0100
0000
,  // measure 15
0010
0000
0010
0000
0001
0000
0001
0000
1000
0100
0000
0010
0000
0010
0100
1000
,  // measure 16
0001
0100
0000
0010
0100
0000
0001
0010
0000
1000
0000
1000
0010
0000
0100
0000
,  // measure 17
1000
0010
0001
0000
0020
0000
0000
0000
,  // measure 18
1030
0010
0000
0001
1000
0000
0100
0001
0000
1000
0100
0000
0010
0001
1000
0010
,  // measure 19
0100
0000
0000
1000
0000
2000
0000
3100
0000
0001
0000
0001
0100
0010
1000
0100
,  // measure 20
0010
0100
0000
0010
0001
0000
0100
0010
0000
0100
0001
0010
0100
2000
0000
0000
,  // measure 21
0000
0100
3001
0000
0020
0000
0000
0000
,  // measure 22
0031
0000
0010
0000
0000
0000
1000
0000
0001
0000
0000
0000
0100
0000
1000
0000
0000
0000
0001
0000
0100
0000
0000
0000
0000
0000
0000
0100
1000
0000
0100
0000
,  // measure 23
0010
0000
0010
0000
1000
0000
1000
0000
0100
0010
0000
0001
0000
0001
0010
0100
,  // measure 24
1000
0010
0000
0100
0010
0000
0001
0010
0000
0100
0000
0100
0001
0000
1000
0000
,  // measure 25
0002
0000
0010
0000
1003
0000
0000
0000
0200
0000
0000
0000
0310
0001
0010
0001
,  // measure 26
1000
0000
0000
0000
0010
0000
0000
0010
1000
0000
0001
0000
0010
0000
0011
0000
,  // measure 27
0000
0000
0010
0000
0100
0000
1000
0001
0000
0001
1000
0000
0010
0000
0001
0000
,  // measure 28
0020
0130
0001
0020
0130
0001
0200
0310
,  // measure 29
0001
0200
0310
0001
0020
0130
0001
1000
,  // measure 30
1001
0000
0001
0010
0100
1000
0010
1010
,  // measure 31
0000
0000
0010
0000
1000
0000
0100
0010
0000
0100
0010
0000
0001
0000
0200
0000
,  // measure 32
0000
0000
0310
0000
0000
0000
1000
0001
0000
1000
0001
0000
0010
0000
0100
0000
,  // measure 33
0000
1100
0000
1010
0000
0110
0010
0001
,  // measure 34
0011
0000
0000
0000
0001
0000
0000
0001
0010
0000
0100
0000
0001
0000
0101
0000
,  // measure 35
0000
0000
0001
0000
1000
0000
0100
0010
0000
0010
0100
0000
0001
0000
1000
0000
,  // measure 36
0020
0130
1000
0020
0130
1000
0200
0310
,  // measure 37
1000
0200
0310
1000
0020
0130
2000
0000
,  // measure 38
3010
0000
0000
0000
0000
0000
0001
0000
0000
0000
0010
0100
0000
0002
0000
0000
0000
0000
0000
0000
0000
0013
0000
0000
,  // measure 39
0000
0000
0000
0000
0000
0000
0100
0000
0000
0000
0000
0000
1000
0000
0000
0000
0000
0000
0010
0000
0000
0100
0000
0000
0000
0000
0000
0100
0000
0000
0010
0000
0000
0000
0000
0000
1000
0000
0000
0000
0000
0000
0100
0000
0010
0000
0000
0000
,  // measure 40
0001
0000
1000
0000
0010
0000
0100
0000
0001
1000
0100
0000
0010
0000
0001
0000
,  // measure 41
1000
0100
0010
0100
0001
1000
0010
0001
,  // measure 42
1001
0000
0000
0000
1010
0000
0000
1000
0020
0000
0000
0000
0030
0000
0001
0010
,  // measure 43
0100
0002
0000
0000
0000
0003
0000
0000
0000
1000
0010
1000
0100
0010
0001
1000
,  // measure 44
0001
0100
0010
0000
0010
1000
0001
0010
0100
0000
0100
1000
0100
0010
0002
0000
,  // measure 45
0003
0000
0000
1000
0000
0000
0010
0000
0000
1000
0000
0000
0001
0000
0000
1000
0000
0000
0010
0000
0000
0100
0000
0000
0001
0000
0000
1000
0000
0000
0100
0000
0000
0010
0000
0000
0100
0000
0000
1000
0000
0000
0001
0000
0100
0000
0001
0000
,  // measure 46
0100
0010
0000
0010
0000
1000
0010
0100
0010
1000
0100
0000
0100
0010
1000
0020
,  // measure 47
0000
0000
0000
0000
0031
0000
0000
0000
1000
0000
0000
0000
0001
0000
0000
0000
0100
0000
0000
0000
0010
0000
0000
1000
0001
0000
0000
0000
0010
0000
0000
0000
0100
0000
0000
0000
1000
0000
0000
0000
0100
0000
0000
0000
1000
0000
0000
0000
0001
0000
0000
0000
0000
0000
0000
0000
0201
0000
0000
0000
0000
0000
0000
0000
,  // measure 48
0300
0210
0300
1200
0300
0210
0300
0201
,  // measure 49
0301
0010
0100
0000
1000
0000
0010
1000
0001
0010
0000
0100
0000
1000
0100
0010
,  // measure 50
0001
0000
0000
0000
1001
0000
0000
0001
0100
0000
0010
0000
0001
0000
0010
0000
,  // measure 51
0000
0000
0010
0000
1000
0100
0000
0010
0000
0010
1000
0010
0100
0010
0001
0010
,  // measure 52
0100
1000
0001
0100
0001
1000
0100
1000
0001
0100
0010
1000
0001
0010
0100
1000
,  // measure 53
0010
1000
0001
0010
1000
0010
0100
1000
0002
0000
0000
0000
0000
0103
0010
0000
,  // measure 54
0001
0000
0000
0010
0000
0000
0002
0000
0000
0000
0000
0000
0000
0000
0000
0013
0000
0000
0100
0000
0000
0001
0000
0000
0000
0000
0000
1000
0000
0000
0100
0000
0000
0010
0000
0000
0000
0000
0000
0000
0001
0000
0100
0000
0000
0010
0000
0000
,  // measure 55
0100
0001
1000
0000
0200
0000
0000
0000
0300
0010
0100
1000
0002
0000
0100
0000
,  // measure 56
1000
0000
1000
0000
0010
0000
0013
0001
0000
1000
0010
0000
0010
0000
0100
0000
,  // measure 57
0001
0010
0001
0000
1000
0010
1000
0000
0001
0000
0100
0000
0010
1000
0002
0000
,  // measure 58
0003
0000
0000
0000
;

//---------------dance-single - Copied from----------------
#NOTES:
     dance-single:
     Copied from:
     Edit:
     9:
     0.612,0.689,0.185,0.312,0.624:
0000
0000
0000
0000
,
0000
0000
0000
0000
,
0000
0000
0000
0000
,
0000
0000
0000
0000
,
1100
0000
1010
0000
1000
0010
0100
0001
,
0000
0000
0000
0000
0001
0000
0010
0000
0000
0000
0000
0000
0100
0000
0000
0000
0000
0000
1000
0000
0000
0000
0000
0000
0000
0000
0000
0010
0000
0000
0100
0000
0000
0000
0000
0000
1000
0000
0000
0000
0000
0000
0100
0000
0000
0000
0000
0000
,
0101
0000
0100
0001
0010
0000
0000
0000
0100
0000
1000
0000
0001
0000
0100
0000
,
0000
0100
0010
0010
1000
1000
0100
0100
,
0120
0001
0100
1000
,
0130
0010
0000
0001
0100
0000
0010
1000
0000
0100
0010
0000
0001
1000
0001
0100
,
0010
0000
0010
1000
0000
1000
0000
0100
0000
0010
0000
0010
0100
1000
0001
0100
,
0010
0100
0000
0001
0100
0000
0010
1000
0000
0010
0100
0001
0010
0100
2000
0000
,
0000
0100
3001
0000
0020
0000
1000
0000
,
0031
0000
0000
0100
0000
0000
0000
0000
0000
0010
0000
0000
1000
0000
0000
0000
0000
0000
0100
0000
0000
0010
0000
0000
0000
0000
0000
0001
0000
0000
0100
0000
0000
0000
0000
0000
0000
0000
0000
0000
0010
0000
1000
0000
0000
0100
0000
0000
,
0010
0000
0010
0000
0001
0000
0001
0000
1000
0100
0000
0010
0000
0010
0100
1000
,
0001
0100
0000
0010
0100
0000
0001
0010
0000
1000
0000
1000
0010
0000
0100
0000
,
1000
0010
0001
0000
0020
0000
0000
0000
,
1030
0010
0000
0001
1000
0000
0100
0001
0000
1000
0100
0000
0010
0001
1000
0010
,
0100
0000
0000
1000
0000
2000
0000
3100
0000
0001
0000
0002
1000
0103
0010
0000
,
0100
1000
0000
0100
0010
0000
0001
0100
0000
0010
0100
0001
0010
0100
2000
0000
,
0000
0100
3001
0000
0020
0000
0000
0000
,
0031
0000
0000
0010
0000
0000
0000
0000
0000
1000
0000
0000
0001
0000
0000
0000
0000
0000
0100
0000
0000
1000
0000
0000
0000
0000
0000
0001
0000
0000
0100
0000
0000
0000
0000
0000
0000
0000
0000
0000
0100
0000
1000
0000
0000
0100
0000
0000
,
0010
0000
0010
0000
1000
0000
1000
0000
0100
0010
0000
0001
0000
0001
0010
0100
,
1000
0010
0000
0100
0010
0000
0001
0010
0000
0100
0000
0100
0001
0000
1000
0000
,
0002
0000
0010
0000
1003
0000
0000
0000
0200
0000
0000
0000
0310
0001
0010
0001
,
1000
0000
0000
0000
0010
0000
0000
0010
1000
0000
0001
0000
0010
0000
0011
0000
,
0000
0000
0010
0000
0100
0000
1000
0001
0000
0001
1000
0000
0010
0000
0001
0000
,
0020
0130
0001
0020
0130
0001
0200
0310
,
0001
0200
0310
0001
0020
0130
0001
1000
,
1001
0000
0001
0010
0100
1000
0010
1010
,
0000
0000
0010
0000
1000
0000
0100
0010
0000
0100
0010
0000
0001
0000
0200
0000
,
0000
0000
0310
0000
0000
0000
1000
0001
0000
1000
0001
0000
0010
0000
0100
0000
,
0000
1100
0000
1010
0000
0110
0010
0001
,
0011
0000
0000
0000
0001
0000
0000
0001
0010
0000
0100
0000
0001
0000
0101
0000
,
0000
0000
0001
0000
1000
0000
0100
0010
0000
0010
0100
0000
0001
0000
1000
0000
,
0020
0130
1000
0020
0130
1000
0200
0310
,
1000
0200
0310
1000
0020
0130
2000
0000
,
3010
0000
0000
0000
0000
0000
0001
0000
0000
0000
0010
0100
0000
0002
0000
0000
0000
0000
0000
0000
0000
0013
0000
0000
,
0000
0000
0000
0000
0000
0000
0100
0000
0000
0000
0000
0000
1000
0000
0000
0000
0000
0000
0010
0000
0000
0100
0000
0000
0000
0000
0000
0100
0000
0000
0010
0000
0000
0000
0000
0000
1000
0000
0000
0000
0000
0000
0100
0000
0010
0000
0000
0000
,
0001
0000
1000
0000
0010
0000
0100
0000
0001
1000
0100
0000
0010
0000
0001
0000
,
1000
0100
0010
0100
0001
1000
0010
0001
,
1001
0000
0000
0000
1010
0000
0000
1000
0020
0000
0000
0000
0030
0000
0001
0010
,
0100
0002
0000
0000
0000
0003
0000
0000
0000
1000
0010
1000
0100
0010
0001
1000
,
0001
0100
0010
0000
0010
1000
0001
0010
0100
0000
0100
1000
0100
0010
0002
0000
,
0003
0000
0000
1000
0000
0000
0010
0000
0000
1000
0000
0000
0001
0000
0000
1000
0000
0000
0010
0000
0000
0100
0000
0000
0001
0000
0000
1000
0000
0000
0100
0000
0000
0010
0000
0000
0100
0000
0000
1000
0000
0000
0001
0000
0100
0000
0001
0000
,
0100
0010
0000
0010
0000
1000
0010
0100
0010
1000
0100
0000
0100
0010
1000
0020
,
0000
0000
0000
0000
0031
0000
0000
0000
1000
0000
0000
0000
0001
0000
0000
0000
0100
0000
0000
0000
0010
0000
0000
1000
0001
0000
0000
0000
0010
0000
0000
0000
0100
0000
0000
0000
1000
0000
0000
0000
0100
0000
0000
0000
1000
0000
0000
0000
0001
0000
0000
0000
0000
0000
0000
0000
0201
0000
0000
0000
0000
0000
0000
0000
,
0300
0210
0300
1200
0300
0210
0300
0201
,
0301
0010
0100
0000
1000
0000
0010
1000
0001
0010
0100
1000
0001
0000
0000
0000
;

//---------------dance-single - ----------------
#NOTES:
     dance-single:
     :
     Hard:
     13:
     0.677,0.693,0.195,0.468,0.556: // measure 1
0000
0000
0000
0000
,  // measure 2
0000
0000
0000
0000
,  // measure 3
0000
0000
0000
0000
,  // measure 4
0000
0000
0000
0000
,  // measure 5
2100
0000
3010
0000
0100
0001
1000
0010
,  // measure 6
0000
0010
1000
0100
0000
0001
0100
0010
,  // measure 7
0011
0000
0001
1000
0010
0000
0000
0000
1000
0000
0100
0000
0001
0000
2000
0000
,  // measure 8
0000
3010
0001
0001
0100
0100
1000
1000
,  // measure 9
1200
0010
0001
0310
,  // measure 10
1000
0100
0000
0010
0000
0000
0001
0100
0000
0010
0000
0000
1000
0100
0010
0100
,  // measure 11
2000
0000
3000
0001
0000
0002
0000
0103
0000
0010
0000
0020
0000
0130
0001
1000
,  // measure 12
0100
0010
0000
1000
0000
0000
0010
0100
0000
0001
0000
0100
0010
0100
2000
0000
,  // measure 13
0000
3010
0001
0000
0020
0000
0000
0000
,  // measure 14
0130
0001
0000
0010
0000
0000
0100
1000
0000
0010
0000
0000
0000
0100
1000
0100
,  // measure 15
0010
0000
0010
0000
1000
0000
1000
0000
0100
0010
0000
0001
0000
0010
1000
0010
,  // measure 16
0100
1000
0000
0001
0000
0000
0100
1000
0000
0001
0000
0001
0010
0000
0100
0000
,  // measure 17
0001
1000
0100
0000
0020
0000
0030
0000
,  // measure 18
0001
0010
0000
0001
1000
0000
0010
1000
0000
0001
1000
0000
0010
0100
0001
1000
,  // measure 19
0200
0000
0000
0001
0300
0002
0000
0103
0000
1000
0000
2000
0000
3010
0100
1000
,  // measure 20
0100
0010
0000
0001
0010
0000
0100
1000
0000
0100
0010
0000
0100
0001
1000
0200
,  // measure 21
0000
0310
0001
0000
2000
0000
0000
0000
,  // measure 22
3010
1000
0000
0001
0010
0000
0100
1000
0000
0001
0100
0000
0000
0010
1000
0100
,  // measure 23
0010
0000
0010
0000
0001
0000
0001
0000
1000
0010
0000
0100
0000
0100
0001
1000
,  // measure 24
0100
0010
0000
1000
0010
0000
0001
0100
0000
0010
0000
0001
0010
0000
1000
0000
,  // measure 25
0001
0000
0010
0000
0100
0000
0000
0000
2000
0000
0000
0000
3001
0100
0001
0100
,  // measure 26
0010
0000
0000
0000
1000
0000
0000
1000
0100
0000
0010
0000
0100
0000
1100
0000
,  // measure 27
0000
1000
0001
0001
0000
0001
0100
0001
,  // measure 28
0020
0130
1000
0020
0130
1000
0200
0310
,  // measure 29
1000
0200
0310
1000
0020
0130
1000
0001
,  // measure 30
2002
0000
3003
1000
0010
0100
0001
1001
,  // measure 31
0000
1000
0100
0002
0000
0103
1000
0020
,  // measure 32
0000
0031
0000
0002
0000
0013
1000
0200
,  // measure 33
0000
0320
0000
0031
0000
1000
0010
0001
,  // measure 34
0011
0000
0000
0000
0010
0000
0000
0010
1000
0000
0001
0000
0010
0000
0100
0000
,  // measure 35
0000
0100
1000
0010
0000
0010
1000
0100
,  // measure 36
0002
0103
1000
0002
0103
1000
0002
0013
,  // measure 37
1000
0002
0013
1000
0001
0100
1000
0000
,  // measure 38
1001
0000
0000
0000
1000
0000
0000
0010
0100
0000
0001
0000
1000
0000
1100
0000
,  // measure 39
0000
0000
0100
0000
0010
0000
0002
0000
0000
0000
0000
0000
0000
0000
1003
0010
,  // measure 40
1000
0000
0001
0000
0010
0000
0100
1000
0000
1000
0000
0001
0100
0000
0010
0000
,  // measure 41
1000
0100
1000
0000
0001
0000
0100
0010
0000
0010
0000
1000
0100
0010
0001
1000
,  // measure 42
0001
0000
0000
0000
0101
0000
0000
0001
0100
0000
0010
0000
1000
0000
1100
0000
,  // measure 43
0000
0100
0010
0010
0000
0001
1000
0001
,  // measure 44
0200
0000
0310
1000
0001
0000
0020
0000
0130
1000
0001
0000
0200
0000
0310
1000
,  // measure 45
0001
0000
0020
0000
0130
1000
0001
0000
0200
0000
0310
1000
0001
0000
0010
0000
,  // measure 46
0110
0000
0000
0000
0100
0000
1000
0001
1000
0000
0010
0000
0100
0000
0001
0000
,  // measure 47
1000
0000
0100
0000
0010
0001
0010
0001
0010
0000
0100
0000
1000
0000
1002
0000
,  // measure 48
0003
0201
0300
0120
0030
2010
3000
1200
,  // measure 49
0310
0001
0100
0000
0010
0000
1000
0000
0001
0010
0000
0100
0000
1000
0001
0100
,  // measure 50
0010
0000
0000
0000
1010
0000
0000
0010
1000
0000
0100
0000
0010
0000
0011
0000
,  // measure 51
0000
0001
0100
0100
0000
0010
1000
0010
,  // measure 52
0200
0000
0301
0010
0100
0000
0020
0000
0031
0100
0010
0000
0200
0000
0310
1000
,  // measure 53
0100
0000
0020
0000
0130
1000
0010
0000
0200
0000
0301
0010
0100
0000
1000
0000
,  // measure 54
0001
0100
0001
0000
0000
0000
0001
1000
0000
1000
0100
0000
0010
0000
0001
0000
,  // measure 55
1000
0010
1000
0000
0002
0000
0000
0000
0003
0000
0010
0100
1000
0000
1100
0000
,  // measure 56
0000
0000
1000
0000
0001
0000
0100
0010
0000
0010
0100
0000
0001
0000
0000
0000
,  // measure 57
1000
0100
1000
0000
0001
0100
0001
0000
1000
0000
0100
0000
0010
0001
1000
0000
;

//---------------dance-single - ----------------
#NOTES:
     dance-single:
     :
     Medium:
     10:
     0.502,0.471,0.176,0.332,0.127: // measure 1
0000
0000
0000
0000
,  // measure 2
0000
0000
0000
0000
,  // measure 3
0000
0000
0000
0000
,  // measure 4
0000
0000
0000
0000
,  // measure 5
2100
0000
3001
0000
0001
0100
0001
1000
,  // measure 6
0000
1000
0001
0020
0000
0000
0000
0000
,  // measure 7
0130
1000
0010
0000
1000
0100
0010
0002
,  // measure 8
0000
0100
1000
0013
,  // measure 9
2001
0001
0001
0001
,  // measure 10
3001
0000
0000
0100
0000
0000
1000
0000
0000
0100
0000
0000
0010
0000
1000
0000
,  // measure 11
0100
0000
0100
0010
0100
1000
0001
0000
,  // measure 12
1000
0000
0000
0010
0000
0000
0001
0000
0000
0010
0000
0000
1000
0000
0100
0000
,  // measure 13
0000
0100
0010
0000
0002
0000
0000
0000
,  // measure 14
1003
0000
0000
0100
0000
0000
0001
0000
0000
0100
0000
0000
0010
0000
0000
0000
,  // measure 15
0001
0000
0100
0100
0010
0010
1000
0100
,  // measure 16
0001
0000
0000
0100
0000
0000
1000
0000
0010
0000
0000
0000
0100
0000
0001
0000
,  // measure 17
0010
0100
0010
0000
0002
0000
0000
0000
,  // measure 18
1003
0010
0000
0010
0000
0000
0100
0001
0000
0001
0000
0000
1000
0000
0100
0000
,  // measure 19
0010
0000
0010
0100
1000
0001
0100
0010
,  // measure 20
0100
0001
0000
0001
0000
0000
1000
0100
0000
0100
0000
0000
0010
0000
0100
0000
,  // measure 21
1000
0001
0100
0000
0020
0000
0000
0000
,  // measure 22
1030
0010
0000
0100
0000
0000
0001
0010
0000
0100
0000
0000
0000
0000
1000
0000
,  // measure 23
0001
0001
0010
0010
0100
1000
0100
0010
,  // measure 24
0001
0100
0000
0010
0000
0000
1000
0100
0000
0010
0000
0000
0100
0000
1000
0000
,  // measure 25
0001
0100
0010
0000
2000
0000
0000
3000
,  // measure 26
1010
0000
0010
0000
0010
1000
0100
0010
,  // measure 27
0000
0010
0100
1000
0000
1000
0001
0000
,  // measure 28
0102
0000
0103
0020
0000
1030
0200
0000
,  // measure 29
0310
0002
0000
0103
0020
0000
1030
0100
,  // measure 30
1100
0000
0100
0010
0100
1000
0001
0000
,  // measure 31
0001
0100
0010
0000
0010
0100
2000
0000
,  // measure 32
3100
0000
0200
0000
0301
1000
0100
0000
,  // measure 33
0010
0000
1000
0000
1000
0010
0001
1001
,  // measure 34
0000
1000
0000
1000
0010
0100
0001
0000
,  // measure 35
0001
1000
0100
0000
0100
0010
0100
1000
,  // measure 36
2100
0000
3010
0200
0000
0301
0020
0000
,  // measure 37
0130
2000
0000
3010
0200
0000
0301
0000
,  // measure 38
1000
0000
0000
0000
0100
0000
0000
0010
0200
0000
0000
0000
0000
0000
1300
0000
,  // measure 39
0000
1000
0002
0000
0000
0000
0000
0100
,  // measure 40
0103
0000
0010
0000
1000
0010
1000
0000
,  // measure 41
0100
0010
0001
1000
0001
0100
0010
1000
,  // measure 42
1001
0000
0000
0000
0001
0000
0000
0001
0010
0000
0100
0000
1000
0000
0001
0000
,  // measure 43
0000
0001
0100
0010
0000
0010
0100
0001
,  // measure 44
1002
0000
1003
0200
0000
0310
0002
0000
,  // measure 45
0103
0020
0000
1030
0200
0000
0310
0001
,  // measure 46
0101
0000
0000
0001
0100
0010
0100
0001
,  // measure 47
1000
0100
0010
0100
0001
1000
0010
0011
,  // measure 48
0000
1001
0000
1010
0000
0110
0000
0010
,  // measure 49
0100
1000
0100
0001
1000
0100
0010
0001
,  // measure 50
0011
0000
0001
0000
0001
1000
0010
0100
,  // measure 51
0000
0100
0001
1000
0000
1000
0100
0010
,  // measure 52
0012
0000
0103
0020
0000
1030
0200
0000
,  // measure 53
0310
0002
0000
1003
0020
0000
0130
0001
,  // measure 54
1001
0000
1000
0100
0010
0100
1000
1001
,  // measure 55
0000
0001
0100
0020
0000
0031
0010
0200
,  // measure 56
0000
0301
0000
0001
1000
0100
0000
0100
,  // measure 57
0010
0000
0001
0000
1000
0000
0010
0000
0100
0000
0001
0000
1000
0001
1000
0000
;

//---------------dance-single - ----------------
#NOTES:
     dance-single:
     :
     Easy:
     6:
     0.272,0.277,0.059,0.098,0.000:
0000
0000
0000
0000
,
0000
0000
0000
0000
,
0000
0000
0000
0000
,
0000
0000
0000
0000
,
2000
3100
0010
0001
,
1000
2000
0000
0000
,
3001
0100
0010
0100
,
0001
0001
1000
0100
,
0220
0000
0000
0300
,
0130
0000
0000
0100
0000
0000
1000
0000
,
0001
0100
0010
0100
,
0001
0000
0000
0001
0000
0000
0010
0000
,
0100
1000
0002
0000
,
1003
0000
0000
1000
0000
0000
0000
0000
,
0100
0010
0001
0001
,
1000
0000
0000
1000
0000
0000
0010
0000
,
0100
0001
2000
0000
,
3100
0000
0000
0100
0000
0000
0000
0000
,
0010
0100
1000
0001
,
0010
0000
0000
0010
0000
0000
0001
0000
,
0100
0010
0200
0000
,
0301
0000
0000
0001
0000
0000
0000
0000
,
1000
0100
0010
0100
,
1000
0000
0000
1000
0000
0000
0010
0000
,
0100
0001
2000
0000
,
3010
0100
0001
1000
,
0100
0010
0100
1000
,
0001
0000
0000
0100
0000
0000
1000
0000
,
0000
0100
0000
0000
0001
0000
1000
0000
,
1100
0000
0100
0010
,
0001
0100
1000
0100
,
0020
1030
1000
0001
,
0010
0100
0010
0001
,
0011
0001
1000
0010
,
0100
0001
1000
0100
,
0001
0000
0000
0100
0000
0000
1000
0000
,
0000
0010
0000
0000
0001
0000
0010
0000
,
1010
1000
0100
0000
,
0010
0000
0001
0000
,
1000
0010
0100
0001
,
1000
0100
0010
0100
,
1100
1000
0001
0100
,
0010
1000
0100
0010
,
1000
0000
0000
0010
0000
0000
0001
0000
,
0000
0100
0000
0000
1000
0000
0100
0000
,
0001
0000
1000
0100
,
0010
0000
0001
0000
1000
0000
0010
0100
,
0000
0100
0000
0001
0000
0001
0000
1000
,
0100
0010
0100
1000
,
1001
0001
0100
0010
,
0100
1000
0100
0010
,
0001
0000
0000
0010
0000
0000
1000
0000
,
0000
0100
0000
0000
0001
0000
0100
0000
,
1000
0000
0001
0100
,
0010
0200
0300
0001
,
1000
0100
0010
0100
,
0001
0000
0100
0000
1000
0000
0010
0001
;
