#VERSION:0.83;
#TITLE:Defection;
#SUBTITLE:;
#ARTIST:TeddyLoid feat. DELTA;
#TITLETRANSLIT:;
#SUBTITLETRANSLIT:;
#ARTISTTRANSLIT:;
#GENRE:;
#ORIGIN:;
#CREDIT:;
#BANNER:Defection.png;
#BACKGROUND:Defection - bg.png;
#PREVIEWVID:;
#JACKET:Defection - jacket.png;
#CDIMAGE:;
#DISCIMAGE:;
#LYRICSPATH:;
#CDTITLE:cdtitle.png;
#MUSIC:Defection.ogg;
#OFFSET:0.008000;
#SAMPLESTART:36.367001;
#SAMPLELENGTH:15.000000;
#SELECTABLE:YES;
#BPMS:0.000=160.000;
#STOPS:;
#DELAYS:;
#WARPS:95.000=12.000;
#TIMESIGNATURES:0.000=4=4;
#TICKCOUNTS:0.000=4;
#COMBOS:0.000=1;
#SPEEDS:0.000=1.000=0.000=0,
107.000=4.000=2.000=0,
143.000=1.500=3.000=0,
146.000=4.000=2.000=0,
301.000=1.500=4.000=0,
305.000=4.000=4.000=0;
#SCROLLS:0.000=1.000,
93.000=0.250,
155.000=0.332,
155.500=0.166,
156.000=0.332,
156.500=0.166,
157.000=0.332,
157.500=0.166,
158.000=0.250,
163.000=0.332,
163.500=0.166,
164.000=0.332,
164.500=0.166,
165.000=0.332,
165.500=0.166,
166.000=0.250;
#FAKES:;
#LABELS:0.000=Song Start;
#LASTSECONDHINT:125.972000;
#BGCHANGES:;
#KEYSOUNDS:;
#ATTACKS:
;

//---------------dance-single - PRESENT----------------
#NOTEDATA:;
#CHARTNAME:;
#STEPSTYPE:dance-single;
#DESCRIPTION:PRESENT;
#CHARTSTYLE:;
#DIFFICULTY:Hard;
#METER:13;
#RADARVALUES:0.555970,0.856075,0.300585,0.680272,0.201709,492.000000,454.000000,38.000000,86.000000,34.000000,0.000000,25.000000,0.000000,15.000000,0.555970,0.856075,0.300585,0.680272,0.201709,492.000000,454.000000,38.000000,86.000000,34.000000,0.000000,25.000000,0.000000,15.000000;
#CREDIT:Pilgrimsito;
#NOTES:
// measure 0
0000
0000
0000
0000
,  // measure 1
0000
0000
0000
0000
,  // measure 2
0000
0000
0000
0000
,  // measure 3
0000
0000
0000
0000
,  // measure 4
0000
0002
0000
0000
,  // measure 5
0000
0023
0000
0230
,  // measure 6
0000
2300
0000
0000
,  // measure 7
0000
0002
0000
0000
,  // measure 8
0000
3003
1002
0000
0100
0100
0000
0000
,  // measure 9
0100
0000
2003
0000
3001
0002
0000
0000
,  // measure 10
0023
0000
0031
0002
0100
0100
0000
0000
,  // measure 11
0100
0000
0003
1000
0010
0100
0001
0100
,  // measure 12
0010
1000
1002
0000
0010
0010
0000
0000
,  // measure 13
0010
0000
2003
0000
3001
0002
0000
0000
,  // measure 14
0023
0000
0031
0002
0100
0100
0003
0001
,  // measure 15
0010
0100
2000
0000
0010
0010
0000
0000
,  // measure 16
3010
0100
1001
0001
0100
0001
1000
0001
,  // measure 17
0100
0001
0010
0001
1000
0001
0010
0001
,  // measure 18
0400
0000
0310
1000
0001
1000
0010
1000
,  // measure 19
0100
1000
0001
1000
0100
1000
0001
0010
,  // measure 20
0400
0000
1300
0010
1000
0010
0001
0010
,  // measure 21
0001
0010
1000
0100
0010
0001
0100
0010
,  // measure 22
1000
0000
0000
0100
0000
0000
1000
0000
0010
0000
1000
0000
0001
0000
0010
0000
0001
0000
1000
0000
0100
0000
1000
0000
,  // measure 23
0001
0100
0001
1000
0000
0000
0000
0000
0000
0010
0000
0000
,  // measure 24
0000
0000
M00M
M000
00M0
0M00
000M
00M0
,  // measure 25
0M00
M000
00M0
0M00
00M0
M000
0M00
0000
,  // measure 26
0000
0000
0000
0010
,  // measure 27
0000
0000
1001
1000
0010
0100
0001
0010
,  // measure 28
0100
1000
0010
0100
0010
1000
0100
0010
,  // measure 29
0100
1000
0001
1000
0010
0100
0001
0010
,  // measure 30
0100
1000
0001
0010
0100
0010
0001
0100
,  // measure 31
0010
0000
0100
0000
0002
0003
0200
0300
2000
3000
0200
0300
0002
0003
0200
0300
,  // measure 32
0020
0030
0200
0300
0002
0003
0020
0030
2000
3000
0020
0030
0002
0003
0020
0030
,  // measure 33
0200
0300
0020
0030
0002
0000
0000
0000
0000
0000
0003
0000
0101
0000
0000
0000
,  // measure 34
0001
0000
1000
0000
1200
0000
0000
0000
0000
0000
0000
0000
4300
3000
0040
0030
,  // measure 35
0400
0300
0004
0003
1001
0000
0000
0000
0001
0010
0001
0010
M200
0000
M000
0000
,  // measure 36
M000
M000
M000
M000
M320
M000
M000
M000
,  // measure 37
M031
0001
2002
3003
1000
0010
0001
1000
,  // measure 38
0100
0000
0000
0001
0000
0000
4000
0000
0000
0000
0000
0000
3010
0000
0000
0100
0000
0000
2002
0000
3003
0000
0000
0000
,  // measure 39
0220
0000
0330
0000
0000
0000
2002
0000
3003
0000
0000
0000
0001
0000
0000
0010
0000
0000
1000
0000
0000
0001
0000
0000
,  // measure 40
0100
0000
0000
1000
0000
0000
0004
0000
0000
0000
0000
0000
0013
0000
0000
0100
0000
0000
2002
0000
3003
0000
0000
0000
,  // measure 41
0220
0000
0330
0000
0000
0000
2002
0000
3003
0000
0000
0000
1001
0000
0000
0100
0000
0000
0010
0000
0000
0000
0000
0000
,  // measure 42
1001
0000
0010
0000
0100
0000
0000
0000
1001
0000
0004
0003
0400
0300
0040
0030
,  // measure 43
4000
3000
0400
0300
0020
0000
0000
0000
0000
0000
0000
0000
0000
0000
0000
0000
,  // measure 44
0030
0000
0000
0000
0001
0000
1000
0000
0001
0000
0000
0000
0000
0000
0100
0000
0000
0000
0000
0001
0000
0000
0000
0000
1000
0000
0000
0000
0000
0000
0100
0000
,  // measure 45
0000
0000
0000
1000
0000
0000
0000
0000
0002
0000
0000
0000
0000
0000
0000
0000
0000
0000
0000
0000
0020
0000
0000
0000
0000
0000
0000
0000
0000
0000
0000
0000
,  // measure 46
0000
0000
0000
0000
0033
0000
0001
0010
,  // measure 47
0100
1000
0020
0000
1000
1000
0000
0000
,  // measure 48
0130
0000
0001
1000
0002
0000
0000
0000
0010
0000
0010
0000
0000
0000
0000
0000
,  // measure 49
1003
0000
0100
0010
0200
0000
0000
0000
1000
0000
1000
0000
0000
0000
0000
0000
,  // measure 50
1300
0000
0002
0000
0103
0001
1001
0000
,  // measure 51
1000
0021
0000
0000
,  // measure 52
0030
0000
0000
0000
1000
0000
0010
0000
0100
0000
0000
0000
0000
0000
0001
0000
0000
0000
0000
0010
0000
0000
0000
0000
0100
0000
0000
0000
0000
0000
0010
0000
,  // measure 53
0000
0000
0000
0001
0000
0000
0000
0000
1020
0000
0000
0000
0000
0000
0000
0000
0000
0000
0000
0000
0000
0000
0000
0000
0030
0000
0000
0000
1000
0000
0000
0000
,  // measure 54
0000
0000
0100
0000
0000
0000
0000
0000
0010
0000
0000
0000
0000
0000
0100
0000
0000
0000
0000
1000
0000
0000
0000
0000
0010
0000
0000
0000
0000
0000
0100
0000
,  // measure 55
0000
0000
0000
0001
0000
0000
0000
0000
0201
0000
0000
0000
0000
0000
0000
0000
0000
0000
0000
0000
0300
0000
0000
0000
0110
0000
0000
0000
0000
0000
0000
0000
,  // measure 56
0000
0000
1000
0100
0020
0000
0000
0000
0000
0000
0030
0000
0110
0000
0000
0000
,  // measure 57
0001
0000
2001
0000
0000
3000
1010
0000
,  // measure 58
1000
0001
0012
0000
0000
0003
0101
0000
,  // measure 59
0100
0010
1001
1000
0010
1000
0001
1000
,  // measure 60
0010
1000
0100
1000
0001
1000
0100
1000
,  // measure 61
0010
0100
0101
0001
1000
0001
0100
0001
,  // measure 62
0010
0001
1000
0001
0010
0001
1000
0010
,  // measure 63
0100
0010
4000
0000
3004
0000
0403
0000
,  // measure 64
0340
4030
3400
0340
,  // measure 65
0034
0000
0000
0000
1003
0100
1000
0000
0001
0100
0001
0000
1000
0010
1000
0000
,  // measure 66
0001
0010
0001
0000
1000
0000
M000
0000
1000
0000
M000
0000
1000
0000
M000
0000
,  // measure 67
1000
0000
0100
0010
0100
0000
1000
0000
0010
0000
1000
0000
0100
0000
0010
0000
,  // measure 68
0001
0100
0001
0010
001M
1000
0100
M100
,  // measure 69
0001
1000
0010
1000
0100
1000
0010
0100
,  // measure 70
0001
0010
0001
0100
010M
1000
0010
M010
,  // measure 71
0001
0000
1000
0000
0002
0003
0020
0030
2000
3000
0020
0030
0002
0003
0020
0030
,  // measure 72
0200
0300
0020
0030
0002
0003
0200
0300
2000
3000
0200
0300
0002
0003
0200
0300
,  // measure 73
0020
0030
0200
0300
0001
0000
0001
0000
0011
0000
0000
0000
1000
0000
1000
0000
,  // measure 74
1010
0000
0000
0000
0001
0010
0100
0010
0001
0000
0200
0000
0000
0000
0000
0000
,  // measure 75
0020
0330
1001
0001
0100
0010
1000
0001
,  // measure 76
0100
0000
0010
0000
4000
0M04
00M0
0M00
00M0
0M00
00M0
0M00
00M0
0M00
00M0
0M00
,  // measure 77
00M0
0M00
00M0
0M00
30M3
0000
0000
0000
0001
0000
0100
0000
1000
0000
0001
0000
,  // measure 78
0010
1000
0004
0000
0103
0010
2010
3000
,  // measure 79
2100
3000
2010
3000
1000
0100
0001
1000
,  // measure 80
0010
0001
4000
0000
3100
0010
0012
0003
,  // measure 81
0102
0003
0011
0001
1000
1000
0010
0010
,  // measure 82
0100
0000
0100
0000
0001
1000
0001
1000
0100
0010
0100
0010
0001
1000
0001
1000
,  // measure 83
0010
0100
0010
0100
0010
0000
0000
0000
0000
0000
0000
0000
0000
0000
0000
0000
;

//---------------dance-single - FUTURE----------------
#NOTEDATA:;
#CHARTNAME:;
#STEPSTYPE:dance-single;
#DESCRIPTION:FUTURE;
#CHARTSTYLE:;
#DIFFICULTY:Challenge;
#METER:15;
#RADARVALUES:0.652022,0.856075,0.355956,0.545800,0.355956,577.000000,532.000000,45.000000,69.000000,42.000000,0.000000,7.000000,0.000000,18.000000,0.652022,0.856075,0.355956,0.545800,0.355956,577.000000,532.000000,45.000000,69.000000,42.000000,0.000000,7.000000,0.000000,18.000000;
#CREDIT:Pilgrimsito;
#NOTES:
// measure 0
0000
0000
0000
0000
,  // measure 1
0000
0000
0000
0000
,  // measure 2
0000
0000
0000
0000
,  // measure 3
0000
0000
0000
0000
,  // measure 4
0000
2000
0000
0000
,  // measure 5
0000
3020
0000
0230
,  // measure 6
0000
0302
0000
0000
,  // measure 7
0000
2003
0000
0000
,  // measure 8
0000
0000
3001
0000
0100
0100
0001
0000
,  // measure 9
0100
0000
0001
0000
0010
0010
0001
0000
,  // measure 10
0010
0000
0100
0000
1000
1000
0100
0000
,  // measure 11
1000
0000
0000
0000
0001
1000
0010
1000
0001
1000
0010
1000
0001
0000
1000
0100
,  // measure 12
0000
1000
0100
0000
0010
0000
0000
0000
0001
0000
0001
0000
1000
0000
0000
0000
,  // measure 13
0001
0000
1000
0000
0010
0010
1000
0000
,  // measure 14
0010
0000
1000
0000
0100
0100
0010
0000
,  // measure 15
0100
0000
0000
0000
0010
0000
0000
0000
0001
0000
0001
0000
1000
0000
0001
0010
,  // measure 16
0000
0001
0010
0000
1001
0000
1000
0000
0010
0000
1000
0000
0001
0000
1000
0000
,  // measure 17
0100
0010
0001
1000
0100
1000
0001
1000
,  // measure 18
0010
0100
0010
0100
0010
0000
1000
0000
0001
0000
1000
0000
0100
0000
1000
0000
,  // measure 19
0001
0000
0010
0000
0100
0000
1000
0000
0001
0000
1000
0000
0010
0000
1000
0100
,  // measure 20
1000
0100
1000
0000
0001
0000
0010
0000
0100
0000
1000
0000
0001
0000
0100
0000
,  // measure 21
0010
1000
0001
0010
0100
1000
0001
0100
,  // measure 22
0010
0000
0000
1000
0000
0000
0001
0000
0010
0000
001M
0000
1000
0000
0100
0000
M100
0000
0001
0000
0010
0000
001M
0000
,  // measure 23
1000
0100
M100
0001
0000
0000
0000
0000
0000
0010
0000
0000
,  // measure 24
0000
0000
M00M
000M
0M00
00M0
M0M0
M000
,  // measure 25
0M00
00M0
0MM0
0M00
M000
000M
00MM
0000
,  // measure 26
0000
0000
0000
0010
,  // measure 27
0000
0000
1001
0001
0100
0010
1010
1000
,  // measure 28
0100
0010
0110
0100
1000
0001
0011
0010
,  // measure 29
0100
1000
1100
0100
1000
0010
0110
0100
,  // measure 30
0001
1000
1001
0001
0100
0010
1010
1000
,  // measure 31
0100
0000
0010
0000
0002
0003
0020
0030
0200
0300
0020
0030
2000
3000
0020
0030
,  // measure 32
0200
0300
0020
0030
0002
0003
0200
0300
020M
0300
2000
3000
0020
0030
M020
0030
,  // measure 33
0002
0003
2000
3000
0020
0000
0000
0000
0000
0000
0030
0000
0110
0000
0000
0000
,  // measure 34
0001
0000
1000
0000
0200
0000
0000
0000
0000
0000
0300
0000
0110
0000
4000
3000
,  // measure 35
0040
0030
0400
0300
0101
0000
0000
0000
0001
1000
0001
1000
0200
M000
M000
M000
,  // measure 36
M000
M000
M000
M000
M000
M000
M000
M000
M320
M000
M000
M000
M000
M000
M000
M000
,  // measure 37
M031
1000
2020
3030
0001
0010
1000
0010
,  // measure 38
0001
0000
0000
0100
0000
0000
0040
0000
0000
0000
0000
0000
1030
0000
0000
0001
0000
0000
0022
0000
0033
0000
0000
0000
,  // measure 39
0220
0000
0330
0000
0000
0000
2200
0000
3300
0000
0000
0000
1000
0000
0000
0010
0000
0000
0001
0000
0000
0010
0000
0000
,  // measure 40
1000
0000
0000
0100
0000
0000
0040
0000
0000
0000
0000
0000
0031
0000
0000
1000
0000
0000
2020
0000
3030
0000
0000
0000
,  // measure 41
0220
0000
0330
0000
0000
0000
0202
0000
0303
0000
0000
0000
1001
0000
0000
1000
0000
0000
1100
0000
0000
0000
0000
0000
,  // measure 42
1001
0000
0001
0000
0101
0000
0000
0000
1001
0000
1000
0000
0010
0100
0001
0100
,  // measure 43
0010
1000
0100
0010
0002
0000
0000
0000
0000
0000
0000
0000
0000
0000
0000
0000
,  // measure 44
0000
0000
0003
0000
0010
0000
0100
0000
1000
0000
0000
0000
0000
0000
0010
0000
0000
0000
0000
1000
0000
0000
0000
0000
0001
0000
0000
0000
0000
0000
0010
0000
,  // measure 45
0000
0000
0000
0001
0000
0000
0000
0000
0200
0000
0000
0000
0000
0000
0000
0000
0000
0000
0000
0000
0020
0000
0000
0000
0000
0000
0000
0000
0000
0000
0000
0000
,  // measure 46
0000
0000
0330
0000
1000
0001
0010
0001
1000
0001
0010
0001
1000
0000
0001
0100
,  // measure 47
0000
0001
0100
0000
0020
0000
0000
0000
M001
0000
M001
0000
0000
0000
0000
0000
,  // measure 48
100M
0000
1030
0001
0200
0000
0000
0000
100M
0000
100M
0000
0000
0000
0000
0000
,  // measure 49
M001
0000
0301
1000
0020
0000
0000
0000
M001
0000
M001
0000
0000
0000
0000
0000
,  // measure 50
103M
0000
0000
0000
0000
0000
0000
0000
1000
0100
0000
0000
0000
0000
0000
0000
0010
0000
0000
0000
0100
0000
0000
0000
1001
0000
0000
0000
0000
0000
0000
0000
,  // measure 51
0100
0000
1020
0000
0100
0130
1001
0000
,  // measure 52
0000
0000
0000
0000
1000
0000
0001
0000
1000
0000
0000
0000
0000
0000
0100
0000
0000
0000
0000
0001
0000
0000
0000
0000
1000
0000
0000
0000
0000
0000
0010
0000
,  // measure 53
0000
0000
0000
0001
0000
0000
0000
0000
0201
0000
0000
0000
0000
0000
0000
0000
0010
0000
0000
0000
0310
0000
0000
0000
1001
0000
0000
0000
1000
0010
0000
0000
,  // measure 54
0000
0000
0100
0000
0000
0000
0000
0000
0001
0000
0000
0000
0000
0000
0010
0000
0000
0000
0000
1000
0000
0000
0000
0000
0001
0000
0000
0000
0000
0000
0100
0000
,  // measure 55
0000
0000
0000
1000
0000
0000
0000
0000
1020
0000
0000
0000
0000
0000
0000
0000
0100
0000
0000
0000
0130
0000
0000
0000
1001
0000
0000
0000
0000
0000
0000
0000
,  // measure 56
0000
0000
1000
0001
0200
0000
0000
0000
0010
0000
0310
0000
1001
0000
0000
0000
,  // measure 57
1000
0000
1200
0000
0010
0310
1001
0000
,  // measure 58
0001
0000
1000
0000
0020
0000
0000
0000
0100
0000
0130
0000
1001
0000
0001
0010
,  // measure 59
0100
0010
0001
0000
0101
0000
0100
0000
0010
0000
0100
0000
1000
0000
0100
0000
,  // measure 60
0010
0100
0001
0100
0010
0100
1000
0100
,  // measure 61
0010
0100
0101
0001
0010
0001
1000
0001
,  // measure 62
0100
0000
0001
0000
1000
0000
0001
0000
0010
0000
0001
0000
1000
0000
0010
0100
,  // measure 63
0001
0100
0010
0000
1000
0000
1000
0000
0001
0000
0001
0000
0010
0000
0010
0000
,  // measure 64
0100
0100
1000
1000
0010
0010
0100
0100
,  // measure 65
0001
0000
0001
0000
1000
0010
0100
0000
0001
0010
0100
0000
1000
0100
0010
0000
,  // measure 66
0001
0100
0010
0000
0100
0000
0M00
0000
0100
0000
0M00
0000
0100
0000
0M00
0000
,  // measure 67
0100
0000
0001
1000
0001
0000
0100
0000
1000
0000
0100
0000
0010
0000
1000
0000
,  // measure 68
0100
0010
1000
0010
0100
0001
0100
1000
,  // measure 69
0010
0100
0001
0010
1000
0010
0100
1000
,  // measure 70
0010
0100
1000
0100
0010
0001
0010
1000
,  // measure 71
0100
0000
0000
0000
0000
0000
0000
0000
0000
0000
0000
0000
0000
0000
0000
0000
0000
0000
0000
0000
0000
0000
0000
0000
0010
0000
0000
0000
0000
0000
0000
0000
0000
0000
0000
0000
0000
0000
0000
0000
0000
0000
0000
0000
0000
0000
0000
0000
0002
0000
0000
0000
0000
0000
0000
0000
0000
0000
0000
0000
0003
0000
0000
0000
0000
0000
0000
0000
0000
0000
0000
0000
0200
0000
0000
0000
0000
0000
0000
0000
0000
0000
0000
0000
0300
0000
0000
0000
0000
0000
0000
0000
0000
0000
0000
0000
0000
0020
0000
0000
0000
0000
0000
0000
0000
0000
0000
0000
0030
0000
0000
0000
0000
0000
0000
0000
0000
0000
0000
0000
0200
0000
0000
0000
0000
0000
0000
0000
0000
0000
0000
0000
0300
0000
0000
0000
0000
0000
0000
0000
0000
0000
0000
0000
2000
0000
0000
0000
0000
0000
0000
0000
0000
0000
0000
0000
3000
0000
0000
0000
0000
0000
0000
0000
0000
0000
0000
0000
0200
0000
0000
0000
0000
0000
0000
0000
0000
0000
0000
0000
0300
0000
0000
0000
0000
0000
0000
0000
0000
0000
0000
0000
,  // measure 72
0020
0030
0200
0300
0002
0003
0020
0030
M020
0030
2000
3000
0200
0300
020M
0300
,  // measure 73
0002
0003
2000
3000
0010
0000
1000
0000
1100
0000
0000
0000
0010
0000
0001
0000
,  // measure 74
0101
0000
0000
0000
1000
0100
0010
0001
1000
0000
0020
0000
0000
0000
0000
0000
,  // measure 75
0200
0330
1001
1000
0010
0100
0001
1000
,  // measure 76
0010
0000
0100
0000
0001
1000
0001
1000
0100
0010
0100
0010
0001
0100
0010
0100
,  // measure 77
0001
0010
0100
1000
0001
0000
0000
0000
1000
0000
0010
0000
M010
0000
0100
0000
,  // measure 78
1000
0001
0400
0000
0310
1000
0101
1000
,  // measure 79
0101
1000
1001
0000
0001
0010
001M
0100
,  // measure 80
0001
1000
0400
0000
0310
0001
1100
0001
,  // measure 81
1100
0001
1000
0010
0100
0001
1000
0100
,  // measure 82
0010
0000
0001
0000
0100
0010
0100
0010
1000
0001
1000
0001
0010
0100
0010
0001
,  // measure 83
0100
0010
1000
0100
0010
0000
0000
0000
0000
0000
0000
0000
0000
0000
0000
0000
;

//---------------dance-single - PAST----------------
#NOTEDATA:;
#CHARTNAME:;
#STEPSTYPE:dance-single;
#DESCRIPTION:PAST;
#CHARTSTYLE:;
#DIFFICULTY:Medium;
#METER:10;
#RADARVALUES:0.475738,0.691445,0.474608,0.498339,0.031641,421.000000,361.000000,60.000000,63.000000,87.000000,0.000000,0.000000,0.000000,14.000000,0.475738,0.691445,0.474608,0.498339,0.031641,421.000000,361.000000,60.000000,63.000000,87.000000,0.000000,0.000000,0.000000,14.000000;
#CREDIT:Pilgrimsito;
#NOTES:
// measure 0
0000
0000
0000
0000
,  // measure 1
0000
0000
0000
0000
,  // measure 2
0000
0000
0000
0000
,  // measure 3
0000
0000
0000
0000
,  // measure 4
0000
2000
0000
0000
,  // measure 5
0000
3200
0000
0320
,  // measure 6
0000
0032
0000
0000
,  // measure 7
0000
2000
0000
0000
,  // measure 8
0000
3003
1002
0000
0000
0000
0000
0000
,  // measure 9
0000
0000
2003
0000
0000
3020
0000
0000
,  // measure 10
0230
0000
0000
0302
0000
0000
0000
0000
,  // measure 11
0000
0000
0003
1000
0010
0100
0010
1000
,  // measure 12
0100
0010
0002
0000
0000
0000
0000
0000
,  // measure 13
0000
0000
2003
0000
0000
3020
0000
0000
,  // measure 14
0230
0000
0000
0320
0000
0000
0030
1000
,  // measure 15
0001
0010
0200
0000
0000
0000
0000
0000
,  // measure 16
0300
0000
1000
0001
0010
0000
0001
1000
,  // measure 17
0010
0000
1000
0001
0100
0000
0001
1000
,  // measure 18
0100
0000
0010
0001
0100
0000
0010
1000
,  // measure 19
0100
0000
1000
0010
0100
0000
0001
0010
,  // measure 20
0100
0000
1000
0010
0100
0001
1000
0100
,  // measure 21
0010
0001
1000
0010
0100
0001
1000
0100
,  // measure 22
0010
0000
0000
0001
0000
0000
1000
0000
0001
0000
1000
0000
0001
0000
1000
0000
0001
0000
1000
0000
0001
0000
1000
0000
,  // measure 23
0001
1000
0001
1000
0000
0000
0000
0000
0000
0010
0000
0000
,  // measure 24
0000
0000
M000
0M00
00M0
0M00
MM00
0000
,  // measure 25
M000
0000
000M
0M00
00M0
0M00
0M0M
0000
,  // measure 26
0000
0000
0000
0010
,  // measure 27
0000
0000
1000
0100
0010
0100
1100
0000
,  // measure 28
1000
0000
0001
0100
0010
0100
0101
0000
,  // measure 29
0001
0000
1000
0010
0100
0010
1010
0000
,  // measure 30
1000
0000
0001
0010
0100
0010
0011
0000
,  // measure 31
0001
0000
1000
0010
1000
0010
0100
0001
,  // measure 32
0100
0001
0010
0100
0010
0100
1000
0001
,  // measure 33
1000
0001
2001
0000
0000
0000
0000
0000
,  // measure 34
3001
0000
1000
0000
1020
0000
0000
0000
0000
0000
0000
0000
2030
3000
0002
0003
,  // measure 35
2000
3000
0002
0003
0010
0000
0000
0000
0001
0000
0001
0000
M200
0000
M000
0000
,  // measure 36
M000
M000
M000
M000
M320
M000
M000
M000
,  // measure 37
M130
0100
0110
0000
0001
0010
1000
0010
,  // measure 38
0001
0000
0000
0100
0000
0000
0020
0000
0000
0000
0000
0000
1030
0000
0000
0001
0000
0000
2002
0000
3003
0000
0000
0000
,  // measure 39
2002
0000
3003
0000
0000
0000
2002
0000
3003
0000
0000
0000
1000
0000
0000
0010
0000
0000
0001
0000
0000
0010
0000
0000
,  // measure 40
1000
0000
0100
0000
0020
0000
0000
0000
0031
0000
1000
0000
2002
3003
0000
0000
,  // measure 41
2002
3003
0000
0000
2002
3003
0000
0000
1010
0000
0000
0000
0100
0000
0000
0000
,  // measure 42
0011
0000
0100
0000
1001
0000
1000
0100
,  // measure 43
0010
0001
2M00
00M0
000M
00M0
0M00
00M0
,  // measure 44
000M
00M0
0M00
00M0
000M
00M0
0M00
00M0
,  // measure 45
000M
0000
3020
000M
M000
020M
M000
000M
,  // measure 46
M000
000M
M000
000M
M330
0000
1000
0100
,  // measure 47
0010
0001
M200
00M0
000M
00M0
M000
00M0
,  // measure 48
000M
0310
200M
00M0
0M00
00M0
000M
00M0
,  // measure 49
0M00
3001
0M20
M000
0M00
000M
0M00
M000
,  // measure 50
0M30
0000
0002
0000
0003
2000
0000
0000
,  // measure 51
3010
0000
1001
0000
1000
0100
1100
0000
,  // measure 52
1000
0000
1010
0000
0010
0100
0110
0000
,  // measure 53
0100
0000
0101
0000
0001
1000
1001
0000
,  // measure 54
0001
0000
0101
0000
0001
0010
0011
0000
,  // measure 55
0010
0000
0110
0000
0100
1000
1100
0000
,  // measure 56
1000
0000
1001
0000
0001
0100
0101
0000
,  // measure 57
0001
0000
0011
0000
0010
0100
0110
0000
,  // measure 58
0100
0000
1100
0000
1000
0001
1001
0000
,  // measure 59
0010
1001
1001
0101
,  // measure 60
0101
1001
1001
1100
,  // measure 61
1100
1001
1001
1010
,  // measure 62
1010
1001
1001
0011
,  // measure 63
0011
0000
1000
0100
1000
0100
0010
0001
,  // measure 64
0010
0001
0100
0010
0100
0010
1000
0001
,  // measure 65
1000
0001
1001
0000
0110
0000
1001
0000
,  // measure 66
0110
0001
0001
0001
,  // measure 67
0001
1000
2001
0000
0100
0000
0001
0000
,  // measure 68
0010
0000
0001
0000
0100
0000
3001
1000
,  // measure 69
0010
0100
0002
0000
0010
0000
1000
0000
,  // measure 70
0100
0000
1000
0000
0010
0000
1003
0001
,  // measure 71
0010
0100
1000
0010
1000
0010
0100
0001
,  // measure 72
0100
0001
0010
0100
0010
0100
1000
0001
,  // measure 73
1000
0001
1000
0100
0010
0000
0001
0100
,  // measure 74
0010
0000
1000
0010
0100
0002
0000
0000
,  // measure 75
2000
3003
1001
0100
M01M
M10M
M01M
M10M
,  // measure 76
M01M
M10M
M02M
M00M
M00M
M00M
M00M
M00M
,  // measure 77
M00M
M00M
M03M
0000
1000
0100
0001
0100
,  // measure 78
1000
0000
0000
0010
0000
0000
0200
0000
0000
0000
0000
0000
0301
0000
0000
1000
0000
0000
2002
0000
3003
0000
0000
0000
,  // measure 79
2002
0000
3003
0000
0000
0000
2002
0000
3003
0000
0000
0000
0001
0000
0000
0100
0000
0000
1000
0000
0000
0100
0000
0000
,  // measure 80
0001
0000
0010
0000
0200
0000
0000
0000
1300
0000
0001
0000
2002
3003
0000
0000
,  // measure 81
2002
3003
0000
0000
0001
0000
0001
0000
0001
0000
0001
0000
1000
0000
1000
0000
,  // measure 82
1000
1000
0010
0010
0010
0010
0100
0100
,  // measure 83
0100
0100
0001
0000
0000
0000
0000
0000
;
