#VERSION:0.83;
#TITLE:Deep Resonance;
#SUBTITLE:;
#ARTIST:Aqours;
#TITLETRANSLIT:;
#SUBTITLETRANSLIT:;
#ARTISTTRANSLIT:;
#GENRE:SHADOWVERSE;
#ORIGIN:;
#CREDIT:;
#BANNER:Deep Resonance.png;
#BACKGROUND:Deep Resonance-bg.png;
#PREVIEWVID:;
#JACKET:Deep Resonance-jacket.png;
#CDIMAGE:;
#DISCIMAGE:;
#LYRICSPATH:;
#CDTITLE:;
#MUSIC:Deep Resonance.ogg;
#OFFSET:0.000000;
#SAMPLESTART:60.262356;
#SAMPLELENGTH:15.420000;
#SELECTABLE:YES;
#BPMS:0.000=188.000;
#STOPS:;
#DELAYS:;
#WARPS:;
#TIMESIGNATURES:0.000=4=4;
#TICKCOUNTS:0.000=4;
#COMBOS:0.000=1;
#SPEEDS:0.000=1.000=0.000=0;
#SCROLLS:0.000=1.000;
#FAKES:;
#LABELS:0.000=Song Start;
#BGCHANGES:;
#KEYSOUNDS:;
#ATTACKS:
;

//---------------dance-single - ----------------
#NOTEDATA:;
#CHARTNAME:;
#STEPSTYPE:dance-single;
#DESCRIPTION:;
#CHARTSTYLE:;
#DIFFICULTY:Hard;
#METER:13;
#RADARVALUES:0.615852,0.775814,0.199952,0.639846,0.115972,539.000000,514.000000,25.000000,80.000000,3.000000,0.000000,0.000000,0.000000,0.000000,0.615852,0.775814,0.199952,0.639846,0.115972,539.000000,514.000000,25.000000,80.000000,3.000000,0.000000,0.000000,0.000000,0.000000;
#CREDIT:BlindedVanguard573;
#NOTES:
0000
0000
0000
0000
,
0000
0000
0000
0000
,
0000
0000
0000
0000
,
0000
0000
0000
0000
0000
0000
1000
0001
1000
0000
0010
0000
0100
0000
0002
0000
,
0000
0100
0103
0000
0001
0001
0010
0000
,
0100
0100
1000
0000
0001
0001
0100
0020
,
0000
0100
0130
0000
0001
0001
1000
0000
,
0100
0100
0010
0000
0001
1000
1000
0200
,
0000
0010
0310
0000
0100
0100
1000
0000
,
0001
0001
0100
0010
1000
1000
0001
0000
,
1000
0100
1000
0010
0001
0010
1000
0010
,
1000
0100
0001
0100
0010
0001
1000
0010
,
0200
0000
0310
0010
1000
1000
0001
0001
,
0010
0010
0100
0100
1000
1000
0001
0001
,
0000
0000
0000
1000
0010
0100
0001
0000
,
2000
0000
0000
3000
,
0200
0000
0000
0300
,
0020
0030
0002
0003
,
2000
3000
0010
1000
,
0002
0010
0010
1003
,
2000
0010
0010
3001
,
0002
0100
0100
1003
,
2002
0000
0003
3100
,
1000
1000
0010
0000
0100
0001
0100
0002
,
0100
0010
1000
0103
,
0001
0001
0010
0000
0100
1000
0100
2000
,
0100
0000
0000
0000
3010
0000
1000
0001
1000
0000
0001
0000
0000
0000
1002
0000
,
0000
0100
0103
0000
0001
0100
0010
0000
,
1000
0100
0010
0000
0001
1000
0100
0000
,
1000
1000
0010
0000
0001
0001
0010
0000
,
0100
0010
1000
1000
0001
0010
0200
0000
,
0310
0001
2000
0000
3000
1000
0010
0200
,
0000
1000
0000
0301
1000
0100
0010
0000
,
0001
0010
0100
2000
0000
3001
0100
0020
,
0000
0000
0130
0000
0001
0000
0010
0000
0001
0100
0001
0000
2000
0000
0000
0000
,
3100
0000
0010
0000
0220
0000
0000
0000
0330
0000
0010
0000
0100
1000
0200
0000
,
0000
1300
0001
0100
0010
1000
0001
0000
,
2000
0000
0000
0000
,
0002
3000
0100
0103
,
0012
0000
0103
0002
0000
0010
0003
0002
,
0000
0100
1003
0000
0001
1000
1001
0000
,
2010
0000
3100
2000
0000
0010
3000
2000
,
0000
0000
0100
0000
3001
0000
0000
0000
1000
0000
0001
0000
0100
0010
0100
0000
,
0002
0000
0013
0010
0100
0100
1000
1000
,
0001
0001
0100
0100
0010
0010
1000
1000
,
0002
0010
0013
0200
1000
1300
0001
1002
,
0000
0103
2001
0000
3010
0100
0010
0220
,
0000
0000
0330
0000
0010
1000
0000
2100
,
0000
0100
3001
0000
1000
0100
0010
0000
,
0001
0100
2000
0000
3200
0000
0301
0000
,
0012
0000
0103
0000
0001
0001
1000
0000
,
0200
0320
0032
1003
,
2001
0000
3002
0103
0020
0130
2000
3100
,
0002
0013
0200
0310
2000
3010
0002
1003
,
0000
0000
0001
0000
0100
0000
1000
0000
0100
0000
0020
0000
,
0000
0000
0000
0000
0130
0000
0000
0000
0001
1000
0001
0000
0100
0000
0010
0000
,
1000
0100
1000
0100
2000
0000
0000
0000
3001
0000
0100
0000
0010
0000
0000
0000
,
1000
0100
0002
0000
0203
0000
1300
0000
,
0001
0100
0100
0010
0100
0100
1000
0100
,
0100
0001
1000
1000
0001
0100
0010
1000
,
0001
0000
0101
0000
0001
1000
1100
0000
,
1000
0001
0012
0000
1003
0000
2010
0000
,
3001
0010
0010
1000
0010
0010
0001
2000
,
0000
0001
3001
0000
1000
0010
0100
0001
,
0102
0000
1003
0102
0000
0013
0000
0012
,
0000
1003
1010
0000
1001
0001
0010
0100
,
2100
0000
3001
2100
0000
3010
0000
1000
,
0001
0000
0010
0000
0001
0000
0200
0000
0000
0000
0310
1000
0001
0000
0000
0000
,
1002
0000
0103
0100
1000
1000
0001
0001
,
0010
0010
1000
1000
0001
0001
0100
0100
,
0001
0010
0001
0000
1000
0000
0010
1000
0010
0000
0100
0000
0001
0000
2000
0000
,
0000
0000
3000
0000
0001
0010
0100
2000
,
0000
0100
3100
0000
1000
0010
0100
0002
,
0000
0000
1000
0000
1003
0000
0000
0000
0001
0000
0010
0000
0100
0000
1000
0001
,
1000
0010
0001
1000
0100
0001
1000
0100
,
0001
1000
0010
0001
1000
0010
0100
0002
,
0000
0000
1003
0100
1000
0000
0001
0100
0001
0000
1000
0010
1000
0000
0001
0010
,
0001
0000
0000
0001
0000
0000
0001
0000
1000
0000
0000
1000
0000
0000
1000
0000
,
0000
0000
0000
0000
,
0000
0000
0000
0000
0001
1000
0000
2100
,
0000
0010
3001
0000
1000
0010
0100
0000
,
1000
0100
0001
0000
1000
0100
0010
0002
,
0000
0010
0013
0000
0001
0100
0010
0000
,
0001
0000
0010
0000
1000
0000
0000
0000
0001
0010
0100
0000
1000
0000
0002
0000
,
0000
0100
1003
0000
0001
0010
0100
0000
,
1000
0000
0100
0000
0001
0000
0000
0001
0100
0000
0010
0000
0001
1000
0001
0000
,
0010
0000
0001
0000
0100
000M
0100
0000
1000
0000
0010
0000
1000
0000
0100
M000
,
0100
0000
0001
0000
0010
000M
0010
0000
1000
0000
0001
0000
0010
0000
0100
0000
,
2000
0000
3001
0100
0010
0001
1000
0100
,
0010
1000
0100
0010
1000
0001
0100
0010
,
0000
0000
0000
0000
0000
0002
0000
0000
,
0000
0000
0000
0000
,
0000
0000
0000
0000
0000
0000
0000
2000
0000
0000
0000
0000
0000
0000
0000
0000
,
0000
0000
0000
0000
,
0000
0000
0000
0000
,
0000
0000
0000
0000
,
0000
0000
0000
0000
,
3003
0000
0000
0000
;

//---------------dance-single - ----------------
#NOTEDATA:;
#CHARTNAME:;
#STEPSTYPE:dance-single;
#DESCRIPTION:;
#CHARTSTYLE:;
#DIFFICULTY:Medium;
#METER:10;
#RADARVALUES:0.466174,0.659442,0.263937,0.463889,0.027993,408.000000,375.000000,33.000000,58.000000,0.000000,0.000000,0.000000,0.000000,0.000000,0.466174,0.659442,0.263937,0.463889,0.027993,408.000000,375.000000,33.000000,58.000000,0.000000,0.000000,0.000000,0.000000,0.000000;
#CREDIT:BlindedVanguard573;
#NOTES:
0000
0000
0000
0000
,
0000
0000
0000
0000
,
0000
0000
0000
0000
,
0000
0000
0000
0000
1000
0001
1000
0002
,
0000
0103
0020
1030
,
0001
0000
0010
1000
0000
0010
0000
0200
,
0000
0000
1300
0001
0000
0100
0000
0020
,
0000
0000
0130
0000
0001
1000
0001
1000
,
0000
1000
0100
0000
0010
0000
0100
0000
,
1000
0000
0001
0100
0000
1000
0100
0000
,
1010
0000
0000
0101
0000
0000
0011
0000
,
0000
1100
0000
0000
0001
1000
0001
1000
,
0002
0010
1000
0103
,
0101
0000
1010
0000
1000
0001
1000
0100
,
0000
0000
0000
0000
0010
0001
1000
0000
,
0002
0000
0000
0003
,
0200
0000
0000
0300
,
0020
0030
2000
3000
,
0002
0003
1000
0100
,
0020
0100
0100
0130
,
2000
0001
0001
3001
,
0200
0310
2000
3001
,
2002
0000
0000
3003
,
0001
0000
0100
0000
1000
0000
0100
0001
,
1000
0100
0010
0001
,
1000
0000
0010
0000
0001
0000
0010
1000
,
0001
0000
0010
0000
0100
1000
0000
0002
,
0000
0010
1003
0001
,
1000
0010
0001
0010
,
0200
0310
2000
3001
,
0020
0130
2000
3001
,
0100
0010
1000
0000
1001
0000
0000
1000
,
0000
0100
0000
0010
0002
0000
1003
0000
,
0010
0100
0001
0000
1001
0000
0000
0001
,
0000
0010
0000
0100
2000
0000
3001
0000
,
1000
0100
0001
0000
0101
0000
0000
0001
,
0000
0100
0000
1000
0010
0000
0100
0000
,
0020
0000
0000
1030
,
0002
0000
0010
0000
1000
1000
1003
0000
,
0001
0000
0100
0010
0000
1000
0000
0010
,
0000
0100
0001
0000
2000
0000
3001
0000
,
1000
0000
0100
0010
0000
0001
0000
0010
,
0000
0100
1000
0000
0002
0000
1003
0000
,
1002
0203
2300
3200
,
0320
2030
3002
0203
,
0301
0010
0100
1000
0100
0010
0001
2000
,
0000
0000
3001
0000
0100
0010
0100
0010
,
0000
0000
1000
0000
0010
0000
0100
0002
,
0000
0003
0101
0000
1000
0000
1100
0000
,
0001
0011
1000
1010
,
2000
0100
3001
1000
,
0100
0001
0010
1000
,
0001
0101
0001
1001
,
1000
1100
1000
1001
,
0000
0000
1000
0000
0010
0000
0100
0000
0001
0000
2000
0000
,
0000
0000
3001
0000
0010
0100
1000
0001
,
1000
0100
2000
0000
0010
0000
0001
0000
,
3100
1000
0001
0100
,
1010
0000
0000
0101
0000
0000
0011
0000
,
0000
1100
0000
0000
1000
0001
0100
0000
,
0010
0101
0010
1001
,
0100
1010
0100
1001
,
1000
0010
0100
0001
0100
0010
1000
0001
,
0000
0001
1000
0000
0100
0000
1001
0000
,
1000
0000
0100
0001
0000
0100
0000
1000
,
0000
0100
0010
0000
0002
0000
1003
0000
,
0001
0000
0100
1000
0000
0100
0000
0001
,
0010
0000
1000
0020
0000
0100
0130
0000
,
2001
3020
0032
0023
,
2030
3200
0302
0203
,
1300
0010
0100
0001
1000
0100
0010
0002
,
0000
0000
0100
0000
1003
0000
0001
1000
,
0000
1010
0001
0011
,
1000
1100
0001
0101
,
1000
0100
0000
0001
1000
0000
0010
0001
,
0000
1000
0010
0000
0100
0000
0001
0020
,
0000
0130
2000
3001
,
0100
0000
0000
0100
0000
0000
0100
0000
0010
0000
0000
0010
0000
0000
0010
0000
,
0000
0000
0000
0000
,
0000
0000
0000
0000
0000
0000
1000
0002
,
0000
0010
0100
1003
,
0001
0000
0100
1000
0000
0100
0000
0020
,
0000
1000
0001
1030
,
0010
0000
0100
0000
0001
0010
0100
1000
,
0000
1000
0001
0000
0100
0000
1000
0000
,
0100
0000
0010
1000
0000
0001
0100
0000
,
0001
0010
0001
1000
0010
1000
0001
0100
,
0001
1000
0100
1000
0001
0100
0010
1000
,
0002
0010
1000
0103
,
0001
0010
0100
1000
0001
0100
0010
1000
,
0000
0000
0000
0000
0000
0002
0000
0000
,
0000
0000
0000
0000
,
0000
0000
0000
0000
0000
0000
0000
2000
0000
0000
0000
0000
0000
0000
0000
0000
,
0000
0000
0000
0000
,
0000
0000
0000
0000
,
0000
0000
0000
0000
,
0000
0000
0000
0000
,
3003
0000
0000
0000
;

//---------------dance-single - ----------------
#NOTEDATA:;
#CHARTNAME:;
#STEPSTYPE:dance-single;
#DESCRIPTION:;
#CHARTSTYLE:;
#DIFFICULTY:Easy;
#METER:7;
#RADARVALUES:0.350773,0.426698,0.063985,0.135967,0.003999,307.000000,299.000000,8.000000,17.000000,0.000000,0.000000,0.000000,0.000000,0.000000,0.350773,0.426698,0.063985,0.135967,0.003999,307.000000,299.000000,8.000000,17.000000,0.000000,0.000000,0.000000,0.000000,0.000000;
#CREDIT:BlindedVanguard573;
#NOTES:
0000
0000
0000
0000
,
0000
0000
0000
0000
,
0000
0000
0000
0000
,
0000
0000
1000
0001
,
1000
0010
0100
0010
,
1000
0001
0010
0100
,
1000
0001
0100
0010
,
0100
0001
1000
1000
,
0001
0010
1000
0010
,
0100
1000
0001
0001
,
1000
1000
1000
0010
,
0010
0010
0100
0001
,
1000
0100
0001
0100
,
0010
0001
1000
0001
,
0000
0000
1000
1000
,
2000
0000
0000
3000
,
0020
0000
0000
0030
,
0200
0000
0000
0300
,
0002
0000
0000
0003
,
0020
0000
0000
0030
,
0200
0000
0000
0300
,
2000
3000
0002
0003
,
2002
0000
0000
3003
,
1000
0010
1000
0010
,
0100
0001
0100
0001
,
1000
0100
1000
0100
,
0010
0000
0001
0000
0010
0000
0000
0100
,
0000
1000
0100
0010
,
0001
0010
0100
1000
,
0001
0001
0100
0100
,
0010
0010
1000
1000
,
0001
0001
0000
0000
,
1000
0100
0001
0100
,
0010
0010
0000
0000
,
0001
0100
1000
0100
,
0010
0010
0000
1000
,
0100
0010
0001
1000
,
0002
0000
0000
0000
,
2000
0000
0000
3003
,
0001
0100
1000
0100
,
0010
1000
0001
1001
,
1000
0100
0001
0100
,
0010
0001
1000
1001
,
0001
0001
0010
0010
,
1000
1000
0010
0010
,
0100
0100
1000
1000
,
0002
0010
1000
0100
,
0013
0000
0001
1000
,
0001
0100
0010
0100
,
1000
0100
0001
1000
,
0001
0010
0100
0010
,
1000
0010
0001
1000
,
0001
0100
1000
0100
,
0010
1000
0001
0100
,
0010
0010
0010
0010
,
0000
1000
0001
1000
,
0010
1010
1000
0100
,
0001
0100
0010
0001
,
1000
0000
0000
0010
0000
0000
0100
0000
,
0000
0001
0000
0000
1000
0000
0001
0000
,
1000
0100
0001
0100
,
0010
0001
1000
0010
,
0100
0001
0010
0100
,
1000
1000
0001
0001
,
0100
1000
0100
0010
,
1000
0001
1000
1001
,
0001
0010
0100
0001
,
0100
1000
0001
1001
,
0001
0001
0001
0001
,
1000
1000
1000
1000
,
0010
0010
0100
0100
,
2002
3003
1000
0001
,
0010
0010
0100
0100
,
1000
1000
0001
0001
,
0100
0000
0000
0010
0000
0000
1000
0000
,
0000
0001
0000
0000
0010
0000
0100
0000
,
1000
1000
0001
0001
,
0010
0010
0100
0100
,
0000
0000
0000
0000
,
1000
0010
0100
0001
,
1000
0100
0001
0100
,
0010
0001
1000
1000
,
0001
0100
1000
0100
,
0010
1000
0001
1001
,
1000
0100
0001
0100
,
0010
0001
1000
0001
,
0100
0000
0000
0010
0000
0000
1000
0000
,
0000
0001
0000
0000
0010
0000
0100
0000
,
1000
0010
0100
0001
,
1000
0000
0100
0000
0010
0000
0001
0001
,
0000
0000
0000
0000
0000
2000
0000
0000
,
0000
0000
0000
0000
,
0000
0000
0000
0000
0000
0000
0000
0002
0000
0000
0000
0000
0000
0000
0000
0000
,
0000
0000
0000
0000
,
0000
0000
0000
0000
,
0000
0000
0000
0000
,
0000
0000
0000
0000
,
3003
0000
0000
0000
;

//---------------dance-single - ----------------
#NOTEDATA:;
#CHARTNAME:;
#STEPSTYPE:dance-single;
#DESCRIPTION:;
#CHARTSTYLE:;
#DIFFICULTY:Beginner;
#METER:4;
#RADARVALUES:0.238800,0.287131,0.007998,0.015996,0.000000,209.000000,208.000000,1.000000,2.000000,0.000000,0.000000,0.000000,0.000000,0.000000,0.238800,0.287131,0.007998,0.015996,0.000000,209.000000,208.000000,1.000000,2.000000,0.000000,0.000000,0.000000,0.000000,0.000000;
#CREDIT:BlindedVanguard573;
#NOTES:
// measure 0
0000
0000
0000
0000
,  // measure 1
0000
0000
0000
0000
,  // measure 2
0000
0000
0000
0000
,  // measure 3
0000
0000
0000
0000
,  // measure 4
1000
1000
1000
0000
,  // measure 5
0010
0010
0010
0000
,  // measure 6
0100
0100
0100
0000
,  // measure 7
0001
0001
0001
0000
,  // measure 8
1000
1000
1000
0000
,  // measure 9
0100
0100
0100
0100
,  // measure 10
0100
0000
0000
0010
,  // measure 11
0000
0000
0001
0001
,  // measure 12
0001
0000
0100
0000
,  // measure 13
0010
0000
1000
1000
,  // measure 14
0000
0000
0000
0000
,  // measure 15
0001
0000
0000
0000
,  // measure 16
0010
0000
0000
0000
,  // measure 17
0100
0000
1000
0000
,  // measure 18
0001
0000
0000
0000
,  // measure 19
0100
0000
0000
0000
,  // measure 20
0010
0000
0000
0000
,  // measure 21
1000
0000
0001
0000
,  // measure 22
1001
0000
0000
0000
,  // measure 23
0001
0001
0001
0000
,  // measure 24
0010
0000
0100
0000
,  // measure 25
1000
1000
1000
0000
,  // measure 26
0010
0000
0100
0000
,  // measure 27
0001
0001
0001
0000
,  // measure 28
1000
1000
1000
0000
,  // measure 29
0100
0000
0010
0000
,  // measure 30
0001
0000
1000
0000
,  // measure 31
0010
0010
0010
0000
,  // measure 32
0100
0000
0001
0000
,  // measure 33
1000
1000
0000
0001
,  // measure 34
0001
0000
0010
0000
,  // measure 35
0100
0100
0000
1000
,  // measure 36
1000
0000
0001
0000
,  // measure 37
0200
0000
0000
0300
,  // measure 38
0020
0000
0000
0030
,  // measure 39
1000
0000
0001
0000
,  // measure 40
0010
0010
0010
0000
,  // measure 41
0001
0000
1000
0000
,  // measure 42
0100
0100
0100
0000
,  // measure 43
0010
0010
0010
0010
,  // measure 44
0010
0000
0100
0000
,  // measure 45
1000
1000
1000
1000
,  // measure 46
1000
0000
0001
0001
,  // measure 47
0001
0000
0100
0000
,  // measure 48
0010
0010
0010
0000
,  // measure 49
0100
0000
0001
0000
,  // measure 50
1000
1000
1000
0000
,  // measure 51
0100
0000
0010
0000
,  // measure 52
0001
0001
0001
0000
,  // measure 53
1000
1000
1000
0000
,  // measure 54
0010
0010
0010
0010
,  // measure 55
0000
0100
0100
0100
,  // measure 56
0000
0010
0010
0000
,  // measure 57
1000
0000
0001
0001
,  // measure 58
0001
0000
0000
0010
,  // measure 59
0000
0000
0100
0100
,  // measure 60
0100
0000
1000
0000
,  // measure 61
0001
0000
0100
0000
,  // measure 62
0010
0010
0010
0000
,  // measure 63
0100
0100
0100
0100
,  // measure 64
0100
0000
0001
0000
,  // measure 65
1000
1000
1000
0000
,  // measure 66
0100
0000
0010
0000
,  // measure 67
0001
0001
0001
0000
,  // measure 68
1000
1000
1000
0000
,  // measure 69
0010
0010
0010
0000
,  // measure 70
0100
0000
0001
0001
,  // measure 71
0001
0000
1000
1000
,  // measure 72
1000
0000
0100
0000
,  // measure 73
0010
0000
0001
0000
,  // measure 74
1000
0000
0000
0010
,  // measure 75
0000
0000
0100
0100
,  // measure 76
0100
0000
0001
0000
,  // measure 77
1000
1000
1000
1000
,  // measure 78
0000
0000
0000
0000
,  // measure 79
0000
0000
0000
0000
,  // measure 80
0001
0001
0001
0000
,  // measure 81
0010
0010
0010
0000
,  // measure 82
0100
0100
0100
0000
,  // measure 83
1000
1000
1000
0000
,  // measure 84
0001
0001
0001
0000
,  // measure 85
0100
0100
0100
0100
,  // measure 86
0100
0000
0000
0010
,  // measure 87
0000
0000
1000
1000
,  // measure 88
1000
0000
0001
0000
,  // measure 89
0010
0010
0010
0010
;
