#VERSION:0.83;
#TITLE:凸凹スピードスター;
#SUBTITLE:;
#ARTIST:しゅがしゅが☆み~ん;
#TITLETRANSLIT:Decoboco Speed Star;
#SUBTITLETRANSLIT:;
#ARTISTTRANSLIT:SugarSugar☆Mi~n;
#GENRE:;
#ORIGIN:;
#CREDIT:;
#BANNER:Decoboco Speed Star.png;
#BACKGROUND:Decoboco Speed Star-bg.png;
#PREVIEWVID:;
#JACKET:Decoboco Speed Star-jacket.png;
#CDIMAGE:;
#DISCIMAGE:;
#LYRICSPATH:;
#CDTITLE:;
#MUSIC:Decoboco Speed Star.ogg;
#OFFSET:-0.521739;
#SAMPLESTART:53.739090;
#SAMPLELENGTH:18.782608;
#SELECTABLE:YES;
#BPMS:0.000=230.000;
#STOPS:19.500=3.913;
#DELAYS:;
#WARPS:;
#TIMESIGNATURES:0.000=4=4,
20.000=1=4,
21.000=4=4;
#TICKCOUNTS:0.000=4;
#COMBOS:0.000=1;
#SPEEDS:0.000=1.000=0.000=0;
#SCROLLS:0.000=1.000;
#FAKES:;
#LABELS:0.000=Song Start;
#BGCHANGES:;
#KEYSOUNDS:;
#ATTACKS:
;

//---------------dance-single - ----------------
#NOTEDATA:;
#CHARTNAME:;
#STEPSTYPE:dance-single;
#DESCRIPTION:;
#CHARTSTYLE:;
#DIFFICULTY:Challenge;
#METER:17;
#RADARVALUES:0.770440,0.984768,0.707547,0.880503,0.286950,686.000000,596.000000,90.000000,112.000000,0.000000,0.000000,0.000000,0.000000,0.000000,0.770440,0.984768,0.707547,0.880503,0.286950,686.000000,596.000000,90.000000,112.000000,0.000000,0.000000,0.000000,0.000000,0.000000;
#CREDIT:Kekkle;
#NOTES:
0000
0000
0000
0000
,
0000
0000
0000
0000
,
0000
0000
0000
0000
,
0000
0000
0000
0000
,
0000
0000
0000
0000
0002
0000
0000
1003
,
0000
0000
0000
0000
0002
0000
0000
0000
2003
0000
0000
0000
3001
0100
0001
0100
,
0001
0100
0020
0000
0230
0000
2300
0000
,
3100
0000
0001
1000
0100
0010
1000
0010
,
0100
1000
1200
0000
0010
0000
0001
0000
,
0300
0000
0000
0000
2000
0000
0000
0000
3002
0000
0000
0000
1003
0100
1000
0100
,
1000
0100
0020
0000
0230
0000
0302
0000
,
0103
0000
0110
1100
0000
1001
0000
0101
,
0000
0000
0100
0000
0010
0000
1000
0001
0010
0000
0100
0000
1000
0000
0010
0000
,
0100
0001
2001
0000
0010
0000
0001
0000
,
3100
1002
0010
1000
,
0103
0000
2001
0000
0100
0000
3001
0100
,
0010
0000
1010
0000
0000
0000
0101
0000
0000
0000
0001
0000
1000
0100
0010
0001
,
1000
0000
0001
0100
0010
1000
0100
0010
,
0001
0010
0100
1000
0010
0100
0001
1000
,
0100
0010
0001
0010
0100
0010
1000
0010
,
0001
0000
1000
0000
0001
0100
0001
0100
0001
1000
0001
1000
0002
0000
0000
0000
,
0103
2001
0100
0001
,
3010
1002
0100
1000
,
0013
0000
2001
0000
0010
0000
3001
0010
,
0100
0000
1100
0000
0000
0000
0011
0000
0000
0000
0001
0000
1000
0010
0100
0001
,
1000
0000
0001
0010
0100
1000
0010
0100
,
0001
0100
0010
1000
0100
0010
0001
1000
,
0010
0000
0000
0100
0000
0000
0001
0000
0000
0000
0001
0000
0000
0000
0001
0000
0000
0000
1000
0000
0000
0000
1000
0000
,
0000
0000
1000
0000
0000
0000
2002
0000
0000
0000
0000
0000
3003
0000
0000
0000
0000
0000
0001
0000
0000
0001
0000
0000
,
1000
1000
0200
0000
0010
0000
1300
0000
,
0002
0203
0000
1300
,
0000
0210
1000
0010
,
0001
0320
0000
0130
,
0001
0201
0010
0301
,
2000
3200
0000
0310
,
0000
2002
3003
0220
,
0330
0000
0000
0000
2002
0000
0000
0000
3003
0000
0000
0000
0001
0100
0001
0100
,
0001
0100
0001
0100
0010
0000
1000
0000
0001
0000
0020
0000
0000
0000
0130
0000
,
1000
0100
0010
0001
1000
0020
0000
0130
,
0001
0010
0100
0010
0001
0200
0000
0310
,
1000
0100
0010
0001
1000
0010
0100
0000
,
0110
0000
1001
0000
0000
0101
1001
0000
,
0000
1100
1001
0000
0201
0000
0320
0000
,
1030
0000
1001
0000
0000
1010
1001
0000
,
0000
0000
0011
0000
1001
0000
0000
0000
1010
0000
0000
0000
1000
0010
1000
0010
,
1000
0010
1000
0010
0100
0000
0000
0001
0000
0000
0010
0000
0100
0000
0000
0000
,
2000
0000
0000
0000
0002
0000
0000
0000
3003
0000
0000
0000
0001
0010
0001
0010
,
0001
1000
0001
1000
0002
0000
0000
0000
0103
0000
0000
0000
0001
0000
0100
0000
,
0010
0100
1200
0000
0010
0000
0002
0000
,
0303
0000
0002
0000
1003
0100
0010
0001
,
0100
0010
2000
0000
3010
0100
0200
0000
,
0301
0000
2000
0000
3100
0000
1000
0100
,
0010
0100
0201
0000
0010
0000
2000
0000
,
3300
0000
1001
0021
0000
0100
0000
0031
,
0000
0000
1001
0000
0000
0000
0110
0000
0000
0000
1000
0000
0001
0010
0100
1000
,
0001
0000
2000
0000
3010
0000
1000
0010
,
0100
0010
0021
0000
0100
0000
2000
0000
,
3030
0000
2000
0000
3001
0010
0100
1000
,
0010
0100
0110
0000
0001
0000
2002
0000
,
3003
1000
1000
0001
,
0001
0000
0000
0000
1000
0000
0100
0000
0010
0000
0001
0000
1000
0010
1000
0010
,
1000
0001
1000
0001
2000
0000
0000
0000
3010
0000
0100
0000
0002
0000
0000
0000
,
0003
2200
3300
0220
,
0330
0000
2002
0000
0000
0000
0000
3003
,
0000
0000
0001
0000
0010
0000
0100
0000
1000
0000
0001
0000
0100
0010
0000
0000
,
0000
0000
1020
0000
0100
0000
1000
2030
,
0000
0010
0000
0001
0000
0100
3100
0000
,
1001
0000
0000
0000
0001
0000
0010
0000
0100
0000
1000
0001
0100
0000
0010
0000
,
1000
0000
0001
0010
0100
0000
1000
0000
0001
0000
0100
0010
1000
0000
0001
0000
,
0010
0100
1000
0100
0020
0000
0000
0000
0100
0000
0000
0000
0001
0000
0032
0000
,
0000
0010
0000
1000
0000
0100
0103
0000
,
1001
0000
0000
0000
0001
0000
0100
0000
0010
0000
1000
0001
0010
0000
0100
0000
,
1000
0000
0001
0100
0010
0000
1000
0000
0001
0000
0001
0000
2002
0000
0000
0000
,
3003
1100
0000
0000
,
0000
0011
0000
0000
,
0000
1010
0000
0000
,
0000
0001
0001
1000
,
0110
0000
1001
0000
0000
0011
1001
0000
,
0000
1010
1001
0000
0021
0000
0230
0000
,
1300
0000
1001
0000
0000
1100
1001
0000
,
0000
0000
0101
0000
1001
0000
0000
0000
1100
0000
0000
0000
0100
1000
0100
1000
,
0001
1000
0001
1000
0010
0000
0000
1000
0000
0000
0100
0000
0010
0000
0000
0000
,
0002
0000
0000
0000
2000
0000
0000
0000
3003
0000
0000
0000
0001
0010
0001
0010
,
0001
1000
0001
1000
0020
0000
0000
0000
0030
0000
0000
0000
2002
0000
0000
0000
,
3003
0000
0000
0000
0110
0000
0000
0000
1001
0000
0000
0000
1000
0001
1000
0001
,
1000
0010
0100
0001
2000
0000
0000
0000
3100
0000
0000
0000
1000
0000
0100
0000
,
0010
0100
0201
0000
0010
0000
1300
0000
,
1001
0000
0002
0000
1003
0010
0100
0001
,
0010
0100
2000
0000
3100
0010
0020
0000
,
0031
0000
2000
0000
3010
0000
1000
0010
,
0100
0010
0021
0000
0100
0000
1030
0000
,
1001
0000
0011
0210
0000
1000
0000
0310
,
0000
0000
1001
0000
0000
0000
0110
0000
0000
0000
0001
0000
1000
0010
0100
0001
,
1000
0000
0002
0000
0013
0000
0001
0010
,
0100
0010
1020
0000
0100
0000
0031
0000
,
1001
0000
2000
0000
3001
0100
0010
1000
,
0100
0010
0110
0000
1000
0000
2002
0000
,
3003
0001
0001
1000
,
1000
0000
0000
0000
0001
0000
0100
0000
0010
0000
1000
0000
0001
0100
0001
1000
,
0001
0010
0100
1000
0002
0000
0000
0000
0103
0000
0010
0000
2000
0000
0000
0000
,
3000
0022
0033
0220
,
0330
0000
2002
0000
0000
0000
0000
3003
,
0000
0000
1000
0000
0010
0000
0100
0000
0001
0000
1000
0000
0100
0010
0000
0000
,
0110
0000
0000
0000
0002
0000
0000
0000
2003
0000
0000
0000
3001
0100
0010
0100
,
0001
1000
0001
1000
0200
0000
0000
0000
0320
0000
0000
0000
2030
0000
0000
0000
,
3010
0000
0001
1000
0010
0100
1000
0100
,
0010
1000
1020
0000
0100
0000
0001
0000
,
0030
0000
0000
0000
2000
0000
0000
0000
3002
0000
0000
0000
1003
0100
0010
0100
,
1000
0001
1000
0001
0200
0000
0000
0000
0320
0000
0000
0000
0032
0000
0000
0000
,
0013
0000
0110
1010
0000
1001
0000
0011
,
0000
0000
0010
0000
0100
0000
1000
0001
0100
0000
0010
0000
1000
0000
0100
0000
,
0010
0001
0200
0000
0000
0000
0000
0000
,
0000
0000
0000
0000
,
0000
0000
0000
0000
0000
0000
0000
0300
;

//---------------dance-double - ----------------
#NOTEDATA:;
#CHARTNAME:;
#STEPSTYPE:dance-double;
#DESCRIPTION:;
#CHARTSTYLE:;
#DIFFICULTY:Challenge;
#METER:17;
#RADARVALUES:0.715409,0.850482,0.487421,0.959119,0.204403,637.000000,575.000000,62.000000,122.000000,0.000000,0.000000,0.000000,0.000000,0.000000,0.715409,0.850482,0.487421,0.959119,0.204403,637.000000,575.000000,62.000000,122.000000,0.000000,0.000000,0.000000,0.000000,0.000000;
#CREDIT:Kekkle;
#NOTES:
00000000
00000000
00000000
00000000
,
00000000
00000000
00000000
00000000
,
00000000
00000000
00000000
00000000
,
00000000
00000000
00000000
00000000
,
00000000
00000000
00000000
00000000
00002000
00000000
00000000
00013000
,
00000000
00000000
00002000
00000000
00023000
00000000
00130000
10000000
,
00010000
00100000
02000000
00000000
03020000
00000000
00032000
00000000
,
00000000
00000000
00003010
00000001
00001000
00000010
00000001
00000010
,
00000100
00000001
00002000
00000000
00003200
00000000
00000320
00000000
,
00001030
00000000
00020000
00000000
00032000
00000000
00003010
00000001
,
00001000
00000010
00000200
00000000
00002300
00000000
00023000
00000000
,
00130000
00000000
10000000
10010000
00000000
00110000
00000000
00101000
,
00000000
00001000
00010000
00001000
00000100
00000001
00001000
00000100
,
00000010
00000001
00001001
00000000
00002000
00000000
00000001
00000000
,
00003010
00010010
00020000
00001000
,
00130000
00000000
01100000
00000000
02000000
00000000
03010000
10000000
,
01000000
00000000
01100000
00000000
00000000
00000000
00101000
00000000
00000000
00000000
00001000
00000000
00010000
00001000
00010000
00001000
,
00100000
00000000
00001000
00010000
00001000
00000100
00000010
00001000
,
00000001
00000010
00001000
00010000
01000000
00100000
00010000
10000000
,
00100000
00010000
00002000
00000000
00003200
00000000
00000302
00000000
,
00001003
00000000
00000000
00000000
00000010
00010000
00000010
00000000
00010000
00001000
00010000
00001000
00200000
00000000
00000000
00000000
,
00310000
10010000
00020000
10000000
,
00130000
00101000
00002000
00010000
,
00003010
00000000
00000110
00000000
00000200
00000000
00001300
00000001
,
00000100
00000000
00000110
00000000
00000000
00000000
00010010
00000000
00000000
00000000
00010000
00000000
00001000
00010000
00001000
00010000
,
00000010
00000000
00010000
00001000
00010000
00100000
01000000
00010000
,
10000000
01000000
00010000
00001000
00000010
00000100
00001000
00000001
,
00000100
00000000
00000000
00001000
00000000
00000000
00010000
00000000
00000000
00000000
00100000
00000000
00000000
00000000
00010000
00000000
00000000
00000000
00001000
00000000
00000000
00000000
00000010
00000000
,
00000000
00000000
00001000
00000000
00000000
00000000
00022000
00000000
00000000
00000000
00000000
00000000
00033000
00000000
00000000
00000000
00000000
00000000
00010000
00000000
00000000
00010000
00000000
00000000
,
00001000
00001000
02000000
00000000
00000000
00000000
03100000
00000000
,
10000000
02000000
00000000
03010000
,
00000000
00021000
01000000
00001000
,
00000100
00032000
00000000
00013000
,
00000100
00001200
00000000
00000310
,
00000001
00000200
00000000
00001300
,
00000000
00022000
00033000
00202000
,
00303000
00000000
00000000
00000000
00020020
00000000
00000000
00000000
00030030
00000000
00000000
00000000
00010000
00001000
00010000
00000000
,
00001000
00100000
00001000
00100000
00010000
00000000
10000000
00000000
00100000
00000000
02000000
00000000
00000000
00000000
03010000
00000000
,
10000000
01000000
00010000
00001000
00100000
00002000
00000000
00013000
,
00000010
00001000
00000001
00000010
00000100
00000020
00000000
00000031
,
00001000
00000010
00000100
00001000
00010000
00001000
00100000
00000000
,
00101000
00000000
00011000
00000000
00000000
00001000
00101000
00000000
,
00000000
00100000
01100000
00000000
20000000
00000000
32000000
00000000
,
03020000
00000000
00031000
00000000
00000000
00010000
00010010
00000000
,
00000000
00000000
00000010
00000000
00000110
00000000
00000000
00000000
00000002
00000000
00000000
00000000
00000103
00000010
00000100
00000010
,
00000100
00000010
00001000
00000000
00000010
00000000
00000000
00010000
00000000
00000000
00001000
00000000
00010000
00000000
00000000
00000000
,
00200000
00000000
00000000
00000000
02000000
00000000
00000000
00000000
03300000
00000000
00000000
00000000
00010000
10000000
00010000
10000000
,
01000000
10000000
01000000
00000000
00200000
00000000
00000000
00000000
00310000
00000000
00000000
00000000
10000000
00000000
00100000
00000000
,
00010000
00001000
00000200
00000000
00002300
00000000
00020000
00000000
,
00033000
00000000
00002000
00000000
00003010
00000001
00001000
00000010
,
00000100
00001000
00020000
00000000
00130000
01000000
00001000
00000000
,
01001000
00000000
02000000
00000000
03010000
00000000
10000000
01000000
,
00010000
00001000
00000020
00000000
00002030
00000000
00020000
00000000
,
00033000
00000000
00010000
00010200
00000000
00000010
00000000
00000301
,
00000000
00000000
00000110
00000000
00000000
00000000
00001100
00000000
00000000
00000000
00000100
00000000
00000010
00000001
00000010
00000001
,
00001000
00000000
00000020
00000000
00001030
00000000
00000001
00000010
,
00001000
00010000
02000000
00000000
03020000
00000000
00002000
00000000
,
00033000
00000000
00020000
00000000
00130000
10000000
00010000
00100000
,
01000000
00010000
00001000
00000000
00000010
00000000
00000110
00000000
,
00001001
00000001
00000100
00000010
,
00001000
00000000
00000000
00000000
00010000
00000000
01000000
00000000
00100000
00000000
10000000
00000000
00010000
00100000
00010000
00100000
,
01000000
10000000
01000000
00000000
20000000
00000000
00000000
00000000
30010000
00000000
01000000
00000000
00200000
00000000
00000000
00000000
,
00300000
00220000
00330000
00020020
,
00030030
00000000
00022000
00000000
00000000
00000000
00000000
00033000
,
00000000
00000000
00001000
00000000
01000000
00000000
00100000
00000000
10000000
00000000
00010000
00000000
00100000
01000000
00000000
00000000
,
00000000
00000000
20000000
00000000
32000000
00000000
00010000
03020000
,
00000000
00000100
00000000
00001000
00000000
00000010
00030010
00000000
,
00011000
00000000
00010000
00100000
10000000
01000000
00010000
01000000
,
10000000
00100000
00010000
00001000
00000100
00000001
00000010
00001000
,
00000010
00000000
00000002
00000000
00000203
00000000
00001000
00002300
,
00000000
01000000
00000000
00010000
00000000
00100000
00103000
00000000
,
00011000
00000000
00001000
00000010
00000001
00000100
00001000
00000100
,
00000001
00000010
00001000
00010000
01000000
10000000
00200000
00000000
,
00300000
10010000
00000000
00000000
,
00000000
00011000
00000000
00000000
,
00000000
00001001
00000000
00000000
,
00000000
00000000
00000001
00000100
00000010
00010000
00001000
00000000
,
00010000
00000000
00011000
00000000
00000000
00001000
01001000
00000000
,
00000000
01000000
01100000
00000000
20000000
00000000
30200000
00000000
,
00320000
00000000
00031000
00000000
00000000
00010000
00010100
00000000
,
00000000
00000000
00000100
00000000
00000110
00000000
00000000
00000000
00000002
00000000
00000000
00000000
00000013
00000100
00000010
00000100
,
00000010
00000100
00001000
00000000
00000100
00000000
00000000
00010000
00000000
00000000
00001000
00000000
00010000
00000000
00000000
00000000
,
02000000
00000000
00000000
00000000
00200000
00000000
00000000
00000000
03300000
00000000
00000000
00000000
00010000
10000000
00010000
10000000
,
00100000
10000000
00100000
10000000
00020000
00000000
00000000
00000000
00230000
00000000
00000000
00000000
02300000
00000000
00000000
00000000
,
03010000
00000000
00000000
00000000
00011000
00000000
00000000
00000000
00010100
00000000
00000000
00000000
00000100
00000010
00000100
00000010
,
00000001
00001000
00000001
00001000
00000020
00000000
00000000
00000000
00001030
00000000
00000000
00000000
00000001
00000000
00000010
00000000
,
00001000
00010000
02000000
00000000
03020000
00000000
00031000
00000000
,
00011000
00000000
00020000
00000000
00130000
10000000
00010000
00100000
,
01000000
00010000
00002000
00000000
00003010
00000100
00010000
00000000
,
00010100
00000000
00000200
00000000
00001300
00000000
00000001
00000100
,
00001000
00010000
00200000
00000000
00320000
00000000
00031000
00000000
,
00011000
00000000
00001000
02001000
00000000
00100000
00000000
13000000
,
00000000
00000000
01100000
00000000
00000000
00000000
01010000
00000000
00000000
00000000
01000000
00000000
00010000
10000000
01000000
00100000
,
00010000
00000000
00200000
00000000
00310000
00000000
10000000
00100000
,
00010000
00001000
00000200
00000000
00002300
00000000
00013000
00000000
,
00011000
00000000
00002000
00000000
00003010
00000001
00001000
00000010
,
00000100
00001000
00010000
00000000
00100000
00000000
01100000
00000000
,
10010000
10000000
01000000
00100000
,
00010000
00000000
00000000
00000000
00001000
00000000
00000100
00000000
00000010
00000000
00000001
00000000
00001000
00000010
00000100
00000001
,
00001000
00000100
00000010
00000000
00000002
00000000
00000000
00000000
00001003
00000000
00000100
00000000
00000020
00000000
00000000
00000000
,
00000030
00002020
00003030
00202000
,
00303000
00000000
00022000
00000000
00000000
00000000
00000000
00033000
,
00000000
00000000
00010000
00000000
00000100
00000000
00000010
00000000
00000001
00000000
00001000
00000000
00000010
00000100
00000000
00000000
,
00001001
00000000
00000000
00000000
00000002
00000000
00000000
00000000
00000203
00000000
00000000
00000000
00000310
00010000
00000010
00010000
,
00001000
00100000
00001000
00000000
00200000
00000000
00000000
00000000
02300000
00000000
00000000
00000000
03020000
00000000
00000000
00000000
,
00031000
00000000
00000100
00000001
00001000
00000100
00000001
00000100
,
00000010
00000001
00000200
00000000
00002300
00000000
00023000
00000000
,
00130000
00000000
00000000
00000000
20000000
00000000
00000000
00000000
32000000
00000000
00000000
00000000
03100000
00001000
00100000
00001000
,
00010000
00000010
00010000
00000000
00000020
00000000
00000000
00000000
00000230
00000000
00000000
00000000
00002300
00000000
00000000
00000000
,
00013000
00000000
00100000
01100000
00000000
10010000
00000000
00110000
,
00000000
00000000
00100000
00000000
00001000
00000000
00010000
00000100
00001000
00000000
00000100
00000000
00000010
00000000
00000001
00000000
,
00000100
00000010
00020000
00000000
00000000
00000000
00000000
00000000
,
00000000
00000000
00000000
00000000
,
00000000
00000000
00000000
00000000
00000000
00000000
00000000
00030000
;

//---------------dance-single - ----------------
#NOTEDATA:;
#CHARTNAME:;
#STEPSTYPE:dance-single;
#DESCRIPTION:;
#CHARTSTYLE:;
#DIFFICULTY:Hard;
#METER:14;
#RADARVALUES:0.617700,0.716195,0.668239,0.817610,0.015723,550.000000,465.000000,85.000000,104.000000,0.000000,0.000000,0.000000,0.000000,0.000000,0.617700,0.716195,0.668239,0.817610,0.015723,550.000000,465.000000,85.000000,104.000000,0.000000,0.000000,0.000000,0.000000,0.000000;
#CREDIT:Kekkle;
#NOTES:
0000
0000
0000
0000
,
0000
0000
0000
0000
,
0000
0000
0000
0000
,
0000
0000
0000
0000
,
0000
0000
0000
0000
,
0000
0000
0001
0000
0001
0000
0100
0001
,
1000
0100
0020
0000
0032
0000
0203
0000
,
0000
0000
0310
1000
0001
0010
0100
0010
,
1000
0010
0002
0000
2003
0000
3020
0000
,
0130
0000
0001
0000
0001
0000
0010
0001
,
1000
0010
0200
0000
0302
0000
0023
0000
,
0130
0000
0010
0010
0000
0010
0000
0010
,
0000
0001
1000
0010
0001
0010
0100
0010
,
1000
1002
0103
0010
,
1000
2001
3100
0010
,
0001
0000
1002
0000
0103
0000
0010
1000
,
0001
0020
0000
0230
0000
1300
0001
0100
,
0110
0000
0010
1000
0100
0010
0001
0100
,
0001
0000
0010
0001
0100
0010
1000
0100
,
1000
0200
0302
0203
,
2300
0000
3001
0100
0010
1000
0001
0000
,
0110
1002
0013
0100
,
1000
2001
3010
0100
,
0001
0000
1002
0000
0013
0000
0100
1000
,
0001
0200
0000
0320
0000
1030
0001
0010
,
0110
0000
0100
1000
0010
0100
0001
0010
,
0001
0000
0100
0001
0010
0100
1000
0010
,
1000
0000
0000
0001
0000
0010
0000
1000
0000
0001
0000
0100
,
0000
0000
1000
0000
0000
0000
2002
0000
0000
0000
0000
0000
3003
0000
0000
0000
0000
0000
0001
0000
0000
0100
0000
0000
,
0010
1000
0002
0000
0000
0000
0103
0000
,
0010
1000
0000
1001
,
0000
0021
0000
0130
,
1000
0020
0000
0130
,
0000
2001
0000
3100
,
0010
0001
0000
1001
,
0000
0220
0330
2002
,
3003
0000
0220
0000
0330
0000
1000
0100
,
0001
0100
0020
0000
0031
1000
0000
1000
,
0001
0100
0020
0000
1030
0001
0000
0001
,
1000
0010
0200
0000
0301
1000
0000
1000
,
0001
0010
0100
0001
0100
1000
0100
0000
,
0110
0000
1001
0000
0000
0001
0001
0000
,
0000
1000
1000
0000
1010
0000
0110
0000
,
0101
0000
1001
0000
0000
1000
1000
0000
,
0000
0001
0001
0000
0011
0000
0220
0000
,
0000
0330
0000
0000
,
0000
0000
0000
0002
,
0003
0000
2002
0000
3003
0000
1000
0010
,
0100
0001
0011
0000
0110
0000
2200
0000
,
3300
0000
2000
0000
3001
0100
0010
1000
,
0001
0010
0200
0000
0310
0001
0200
0000
,
0310
0000
2000
0000
0000
0000
3001
0010
,
0100
1000
1010
0000
0110
0000
0202
0000
,
0303
0000
0001
0001
0000
0001
0000
0001
,
0000
0020
0000
0230
0000
1300
0001
0100
,
0110
0000
2002
0000
3003
0000
1000
0100
,
0010
0001
0101
0000
0110
0000
2020
0000
,
3030
0000
2000
0000
3100
0010
0001
0100
,
0020
1030
0010
0220
,
0330
0001
0010
0100
,
1000
0000
0001
0100
0010
1000
0100
0010
,
0001
0100
0020
0000
0000
1030
0002
0000
,
0003
0011
0000
0110
,
0000
2002
0000
0000
,
0000
3003
0000
1001
,
0000
0000
1010
0000
0110
0000
0100
0001
,
0000
0011
0000
0110
0000
0100
1000
0000
,
1001
0000
0001
0010
0100
1000
0001
0100
,
0010
0002
0000
0013
0100
0010
1000
0001
,
0010
0000
0011
0000
0110
0000
0100
1000
,
0000
1010
0000
0110
0000
0100
0001
0000
,
1001
0000
1000
0010
0100
0001
1000
0100
,
0010
0100
1000
0010
0100
0001
2000
0000
,
3000
1001
0000
0000
,
0000
0110
0000
0000
,
0000
1001
0000
0000
,
0000
0001
0001
1000
,
0100
0000
0110
0000
0000
0001
0001
0000
,
0000
1000
1000
0000
1100
0000
0110
0000
,
0011
0000
1001
0000
0000
1000
1000
0000
,
0000
0001
0001
0000
0101
0000
0220
0000
,
0000
0330
0000
0000
,
0000
0000
0000
0002
,
0003
1001
0100
1001
,
0010
1001
0110
2000
,
3000
0000
2002
0000
3003
0000
0001
0010
,
0100
1000
1010
0000
0110
0000
0102
0000
,
1003
0000
0002
0000
1003
0100
0010
0001
,
1000
0010
0200
0000
0310
1000
0200
0000
,
0310
0000
0002
0000
0000
0000
1003
0010
,
0100
0001
0011
0000
0110
0000
2200
0000
,
3300
0000
1000
1000
0000
1000
0000
1000
,
0000
0200
0000
0320
0000
0031
1000
0010
,
0110
0000
2002
0000
3003
0000
0001
0100
,
0010
1000
1100
0000
0110
0000
0012
0000
,
1003
0000
0002
0000
0103
0010
1000
0100
,
0020
0031
0010
0220
,
0330
1000
0010
0100
,
0001
0000
1000
0100
0010
0001
0100
0010
,
1000
0100
0020
0000
0130
1000
0002
0000
,
0003
0101
0000
0110
,
0000
2002
0000
0000
,
0000
3003
0000
0110
,
1001
0000
1000
0000
1000
0000
0100
1000
,
0001
0100
0020
0000
2030
0000
3200
0000
,
0310
0000
0100
1000
0001
0100
0010
0100
,
1000
0100
0002
0000
2003
0000
3200
0000
,
0310
0000
0001
0000
0001
0000
0100
0001
,
1000
0100
0020
0000
0032
0000
0203
0000
,
0310
0000
0100
0100
0000
0100
0000
0100
,
0000
0001
1000
0100
0001
0100
0010
0100
,
1000
0001
2002
0000
0000
0000
0000
0000
,
0000
0000
0000
0000
,
0000
0000
0000
0000
0000
0000
0000
3003
;

//---------------dance-double - ----------------
#NOTEDATA:;
#CHARTNAME:;
#STEPSTYPE:dance-double;
#DESCRIPTION:;
#CHARTSTYLE:;
#DIFFICULTY:Hard;
#METER:15;
#RADARVALUES:0.545822,0.716195,0.314465,0.715409,0.015723,486.000000,446.000000,40.000000,91.000000,0.000000,0.000000,0.000000,0.000000,0.000000,0.545822,0.716195,0.314465,0.715409,0.015723,486.000000,446.000000,40.000000,91.000000,0.000000,0.000000,0.000000,0.000000,0.000000;
#CREDIT:Kekkle;
#NOTES:
00000000
00000000
00000000
00000000
,
00000000
00000000
00000000
00000000
,
00000000
00000000
00000000
00000000
,
00000000
00000000
00000000
00000000
,
00000000
00000000
00000000
00000000
,
00000000
00000000
10000000
00000000
10000000
00000000
01000000
00100000
,
00010000
00200000
02300000
03020000
,
00000000
00000000
00031000
00000010
00000100
00000000
00001000
00000001
,
00000100
00002000
00023000
00030200
,
00000310
00000000
00000001
00000000
00000001
00000000
00000100
00000010
,
00001000
00000200
00000320
00002030
,
00013000
00000000
00001000
00001000
00000000
00001000
00000000
00001000
,
00000000
00010000
00100000
01000000
00010000
00000000
10000000
01000000
,
00100000
00010000
00200000
00000000
00301000
00000000
00010000
00000000
,
00010000
00000020
00010030
00001000
,
00001000
00000000
02000000
00000000
03001000
00000000
00010000
00001000
,
00010000
00200000
00000000
20300000
00000000
30010000
00100000
00000000
,
10010000
00000000
10000000
01000000
10000000
01000000
00010000
00001000
,
00010000
00000000
00001000
00010000
00001000
00000100
00000001
00000100
,
00000001
00002000
00003200
00000320
,
00000032
00000000
00001003
00000000
00000010
00000100
00001000
00010000
,
00001000
02000000
03001000
00010000
,
00010000
00000200
00010300
00001000
,
00001000
00000000
00200000
00000000
00301000
00000000
00010000
00001000
,
00010000
02000000
00000000
23000000
00000000
30010000
01000000
00000000
,
10010000
00000000
10000000
00100000
10000000
00100000
00010000
00001000
,
00010000
00000000
00001000
00010000
00001000
00000010
00000001
00000010
,
00000001
00000000
00000000
00001000
00000000
00000010
00000000
00000100
00000000
00001000
00000000
00010000
,
00000000
00000000
00001000
00000000
00000000
00000000
00022000
00000000
00000000
00000000
00000000
00000000
00033000
00000000
00000000
00000000
00000000
00000000
00001000
00000000
00000000
01000000
00000000
00000000
,
00010000
20000000
00000000
31000000
,
00100000
00010000
00000000
00100000
,
00000000
00102000
00000000
00010000
,
00000000
00013000
00000000
00000100
,
00000010
00000012
00000000
00000103
,
00000010
00001000
00000000
00000010
,
00000000
00020010
00000000
00100000
,
00000000
00000000
00031000
00000000
00000000
00000000
00010000
00001000
,
00100000
00010000
20000000
00000000
30100000
00010000
00000000
00010000
,
00001000
00000000
00000020
00000000
00001030
00010000
00000000
00010000
,
01000000
00000000
00020000
00000000
00031000
00000100
00000000
00000100
,
00000001
00000000
00001000
00000100
00000010
00000001
00000100
00000000
,
00001000
00000000
00011000
00000000
00000000
00010000
00010000
00000000
,
00000000
00100000
00100000
00000000
10000000
00000000
00010000
00000000
,
00100000
00000000
00011000
00000000
00000000
00001000
00001000
00000000
,
00000000
00000010
00000010
00000000
00000001
00000000
00002000
00000000
,
00000000
00003000
00000000
00000000
,
00000000
00000000
00000000
00000002
,
00000003
00000000
00002002
00000000
00003003
00000000
00001000
00000010
,
00000100
00002000
00023000
00230000
,
00000000
00000000
01300000
00000000
00010000
10000000
01000000
00100000
,
01000000
00000000
00020000
00000000
00031000
00100000
00010000
10000000
,
00100000
00000000
20000000
00000000
00000000
00000000
30010000
00100000
,
01000000
00020000
00032000
00003020
,
00000000
00000000
00000031
00000001
00000000
00000001
00000000
00000001
,
00000000
00002000
00000000
00003020
00000000
00000130
00001000
00010000
,
00100000
00000000
20020000
00000000
30030000
00000000
00010000
00100000
,
01000000
00020000
00032000
00003020
,
00000000
00000000
00000031
00000000
00001000
00000001
00000100
00000010
,
00000100
00001000
00010000
00022000
,
00033000
00001000
00010000
00100000
,
10000000
00000000
00010000
10000000
01000000
00010000
00001000
00010000
,
00001000
00000000
00000020
00000000
00000031
00001000
00000020
00000000
,
00000030
00010010
00000000
00101000
,
00000000
00022000
00000000
00000000
,
00000000
00033000
00000000
00011000
,
00000000
00000000
00001000
00000000
00010000
00000000
00100000
00100000
,
00000000
10100000
00000000
01010000
00000000
00010000
10000000
00000000
,
11000000
00000000
01000000
00010000
00001000
00100000
00001000
00010000
,
00001000
00000200
00000000
00000000
00000301
00000010
00000100
00001000
,
00000100
00000000
00010000
00000000
00001000
00000000
00000010
00000010
,
00000000
00000011
00000000
00001100
00000000
00001000
00000001
00000000
,
00000101
00000000
00000100
00000010
00000100
00001000
00010000
00001000
,
00010000
00000000
00100000
10000000
01000000
00010000
00002000
00000000
,
00003000
00011000
00000000
00000000
,
00000000
00011000
00000000
00000000
,
00000000
00011000
00000000
00000000
,
00000000
00000000
00001000
00010000
00001000
00010000
00001000
00000000
,
00010000
00000000
00011000
00000000
00000000
00001000
00001000
00000000
,
00000000
00000010
00000010
00000000
00000001
00000000
00001000
00000000
,
00000010
00000000
00011000
00000000
00000000
00010000
00010000
00000000
,
00000000
00100000
00100000
00000000
10000000
00000000
00020000
00000000
,
00000000
00030000
00000000
00000000
,
00000000
00000000
00000000
20000000
,
30000000
10010000
00010000
00100000
,
00001000
00001010
00000011
00000002
,
00000003
00000000
00002002
00000000
00003003
00000000
00001000
00000100
,
00000010
00002000
00023000
02030000
,
03100000
00000000
00010000
00000000
10000000
00010000
01000000
00100000
,
01000000
00000000
00200000
00000000
00310000
00001000
00100000
00010000
,
10010000
00000000
20000000
00000000
00000000
00000000
30010000
01000000
,
00100000
00020000
00032000
00003200
,
00000310
00000000
00001000
00001000
00000000
00001000
00000000
00001000
,
00000000
00000002
00000000
00000203
00000000
00001300
00010000
00100000
,
01100000
00000000
20020000
00000000
30030000
00000000
00010000
00100000
,
01000000
00020000
00032000
00003020
,
00000130
00000000
00001000
00000000
00000001
00001000
00000010
00000100
,
00000010
00010000
00001000
00022000
,
00033000
00001000
00010000
01000000
,
10000000
00000000
00010000
01000000
00100000
00010000
00001000
00000100
,
00000010
00000000
00000200
00000000
00000301
00001000
00000200
00000000
,
00000300
00010100
00000000
01001000
,
00000000
00022000
00000000
00000000
,
00000000
00033000
00000000
00011000
,
00011000
00000000
00001000
00000000
00001000
00000000
00010000
00100000
,
10000000
01000000
00010000
00000000
01000000
00000000
00200000
00000000
,
00000000
00000000
00301000
00010000
00000010
00000000
00010000
00001000
,
00100000
01000000
20000000
00000000
30200000
00000000
00320000
00000000
,
00031000
00000000
00010000
00000000
00010000
00000000
00001000
00000100
,
00000001
00000010
00001000
00000000
00000010
00000000
00000100
00000000
,
00000010
00000000
00000001
00000001
00000000
00000001
00000000
00000001
,
00000000
00000100
00000010
00000100
00001000
00010000
00100000
10000000
,
00010000
20020000
00000000
00000000
,
00000000
00000000
00000000
00000000
,
00000000
00000000
00000000
00000000
00000000
00000000
00000000
30030000
;

//---------------dance-single - ----------------
#NOTEDATA:;
#CHARTNAME:;
#STEPSTYPE:dance-single;
#DESCRIPTION:;
#CHARTSTYLE:;
#DIFFICULTY:Medium;
#METER:10;
#RADARVALUES:0.393082,0.537146,0.432390,0.471698,0.000000,350.000000,295.000000,55.000000,60.000000,0.000000,0.000000,0.000000,0.000000,0.000000,0.393082,0.537146,0.432390,0.471698,0.000000,350.000000,295.000000,55.000000,60.000000,0.000000,0.000000,0.000000,0.000000,0.000000;
#CREDIT:Kekkle;
#NOTES:
0000
0000
0000
0000
,
0000
0000
0000
0000
,
0000
0000
0000
0000
,
0000
0000
0000
0000
,
0000
0000
0000
0000
,
0000
1000
0001
0100
,
0000
0001
1000
0200
,
0000
0310
0001
1000
,
0010
0100
0010
0100
,
0110
0001
1000
0010
,
0000
1000
0001
0010
,
0000
0000
0100
0000
0000
0100
0000
0000
,
0010
0001
1000
0010
,
0000
0220
0000
0330
,
0000
2002
0000
3003
,
0000
0220
0000
0330
,
0000
0001
0000
1000
0000
0001
1000
0000
,
1001
0002
0000
0023
,
0000
0230
0000
1300
,
0001
0100
0100
0010
,
0010
2000
0000
3001
,
1001
0220
0000
0330
,
0000
2002
0000
3003
,
0000
0220
0000
0330
,
0000
1000
0000
0001
0000
1000
0001
0000
,
1001
2000
0000
3200
,
0000
0320
0000
0032
,
0000
1003
0010
0100
,
0000
0220
0000
0330
,
0000
0200
0000
0000
,
0310
1000
0000
1001
,
0000
0001
0010
0100
,
1000
0100
0000
0110
,
0000
0020
0000
0000
,
0130
1000
0000
1001
,
0000
0010
0000
0100
,
0000
0220
0000
0330
,
0000
0001
1000
1000
,
0010
0100
0001
0001
,
0010
0100
1000
1000
,
0010
0100
0010
0001
,
0010
0110
0000
0110
,
0000
0110
0001
1000
,
0100
0110
0000
0110
,
0000
0110
0000
0220
,
0000
0330
0000
0000
,
0000
0000
0000
0001
,
0000
2002
3003
1000
,
0010
0001
0010
1000
,
0000
0001
0010
0010
,
0100
2000
0000
0002
,
3003
2000
0000
3001
,
0010
1000
0010
0001
,
0000
0000
1001
0000
0000
1000
0000
0001
,
0000
0100
0000
0010
0000
0000
0100
0000
,
0110
2002
3003
1000
,
0100
0001
0100
1000
,
0000
0001
0100
0100
,
0010
2000
0000
0002
,
3003
1000
0100
0010
,
0000
0000
0001
0000
0100
0000
0010
0100
,
0010
0220
0000
0330
,
0000
0001
0000
1000
,
0000
2002
0000
0000
,
0000
3003
0000
1001
,
0000
1000
0010
0100
,
0000
0001
0000
0010
0000
0100
0000
0000
,
0110
0010
0001
1000
,
0010
0000
0100
0010
0100
0000
0010
0000
,
0000
1000
0100
0010
,
0000
0001
0000
0100
0000
0010
0000
0000
,
0110
0100
0001
1000
,
0100
0000
0010
0100
0010
0000
0110
0000
,
0000
1001
0000
0000
,
0000
1001
0000
0000
,
0000
1001
0000
0000
,
0000
0001
0000
0001
,
0100
0110
0000
0110
,
0000
0110
0001
1000
,
0100
0110
0000
0110
,
0000
0110
0000
0220
,
0000
0330
0000
0000
,
0000
0000
0000
0001
,
0000
0110
0000
1001
,
0000
0110
0001
1000
,
0000
2002
3003
1000
,
0100
0001
0100
1000
,
0001
0100
0010
0010
,
1000
0002
0000
2000
,
3003
2000
0000
3001
,
0100
1000
0100
0001
,
0000
0000
1001
0000
0000
1000
0000
0001
,
0000
0010
0000
0100
0000
0000
0010
0000
,
0110
2002
3003
1000
,
0010
0001
0010
1000
,
0001
0010
0100
0100
,
1000
0002
0000
2000
,
3003
0001
0100
0010
,
0000
0000
1000
0000
0100
0000
0010
0100
,
0010
0220
0000
0330
,
0000
0001
0000
1000
,
0000
2002
0000
0000
,
0000
3003
0000
1001
,
1001
0001
1000
0010
,
0100
0001
1000
0200
,
0000
0310
0001
1000
,
0010
0100
0010
0100
,
0110
0001
1000
0100
,
0010
0001
1000
0010
,
0100
0000
0001
1000
0000
0001
0000
1000
,
0000
0001
0010
0000
0100
0000
1000
0001
,
1000
2002
0000
0000
,
0000
0000
0000
0000
,
0000
0000
0000
0000
0000
0000
0000
3003
;

//---------------dance-double - ----------------
#NOTEDATA:;
#CHARTNAME:;
#STEPSTYPE:dance-double;
#DESCRIPTION:;
#CHARTSTYLE:;
#DIFFICULTY:Medium;
#METER:10;
#RADARVALUES:0.384097,0.492384,0.400943,0.463836,0.000000,342.000000,291.000000,51.000000,59.000000,0.000000,0.000000,0.000000,0.000000,0.000000,0.384097,0.492384,0.400943,0.463836,0.000000,342.000000,291.000000,51.000000,59.000000,0.000000,0.000000,0.000000,0.000000,0.000000;
#CREDIT:Kekkle;
#NOTES:
00000000
00000000
00000000
00000000
,
00000000
00000000
00000000
00000000
,
00000000
00000000
00000000
00000000
,
00000000
00000000
00000000
00000000
,
00000000
00000000
00000000
00000000
,
00000000
10000000
01000000
00100000
,
00000000
00010000
01000000
00100000
,
00000000
00010000
00001000
00000100
,
00000010
00001000
00000001
00001000
,
00001001
00000001
00000100
00000010
,
00000000
00001000
00000100
00000010
,
00000000
00000000
00001000
00000000
00000000
00001000
00000000
00000000
,
00010000
01000000
00100000
00010000
,
10000000
20020000
00000000
30030000
,
00000000
02200000
00000000
03300000
,
00000000
20020000
00000000
30030000
,
00000000
00010000
00000000
01000000
00000000
00001000
00010000
00000000
,
00011000
00002000
00000000
00003200
,
00000000
00000302
00000000
00001003
,
00000100
00010000
00001000
00100000
,
00001000
00020000
00000000
00030100
,
00000010
00002002
00000000
00003003
,
00000000
00000220
00000000
00000330
,
00000000
00002002
00000000
00003003
,
00000000
00001000
00000000
00000010
00000000
00010000
00001000
00000000
,
00011000
00020000
00000000
02030000
,
00000000
23000000
00000000
30020000
,
00000000
01030000
00100000
10000000
,
00000000
20020000
00000000
30030000
,
00000000
00020000
00000000
00130000
,
01000000
00010000
00000000
00001000
,
00000000
00022000
00000000
00000000
,
00000000
00033000
00000000
00010000
,
00000010
00002000
00000000
00003010
,
00000100
00001000
00000000
00010000
,
00000000
00011000
00000000
00011000
,
00000000
00022000
00000000
00033000
,
00000000
00001000
00000100
00000001
,
00001000
00000010
00010000
00001000
,
00000000
00010000
01000000
10000000
,
00010000
00100000
00001000
00010000
,
00001000
00011000
00000000
00011000
,
00000000
00011000
00010000
01000000
,
00000000
00011000
00000000
00011000
,
00000000
00011000
00001000
00000200
,
00000000
00000300
00000000
00000000
,
00000000
00000000
00000000
00000001
,
00000000
00002002
00003003
00001000
,
00000001
00000010
00001000
00010000
,
00000000
00001000
00010000
00010000
,
00100000
02000000
00000000
00200000
,
03300000
20000000
00000000
30010000
,
10000000
00100000
00010000
00001000
,
00000000
00000000
00011000
00000000
00000000
00010000
00000000
00000100
,
00000000
00001000
00000000
00000100
00000000
00000000
00000010
00000000
,
00000110
00002002
00003003
00001000
,
00000001
00000100
00001000
00010000
,
00000000
00001000
00010000
00010000
,
01000000
00200000
00000000
02000000
,
03300000
10000000
00100000
00010000
,
00000000
00000000
00001000
00000000
00000100
00000000
00000001
00001000
,
00000001
00002002
00000000
00003003
,
00000000
00001000
00000000
00000100
,
00000000
00000220
00000000
00000000
,
00000000
00000330
00000000
00001001
,
00000000
00000001
00000100
00001000
,
00000000
00010000
00000000
00100000
00000000
10000000
00000000
00000000
,
10010000
00010000
00100000
00001000
,
00010000
00000010
00010000
00100000
,
00000000
10000000
01000000
00010000
,
00000000
00001000
00000000
00000010
00000000
00000001
00000000
00000000
,
00001001
00001000
00000010
00010000
,
00001000
00100000
00001000
00000010
,
00000000
00001001
00000000
00000000
,
00000000
00001001
00000000
00000000
,
00000000
00001001
00000000
00000000
,
00000000
00000001
00000100
00001000
,
00000000
00011000
00000000
00011000
,
00000000
00011000
00001000
00000010
,
00000000
00011000
00000000
00011000
,
00000000
00011000
00010000
00200000
,
00000000
00300000
00000000
00000000
,
00000000
00000000
00000000
10000000
,
00000000
01100000
00000000
10010000
,
00000000
01100000
00010000
10000000
,
00000000
20020000
30030000
00010000
,
10000000
01000000
00010000
00001000
,
00010000
00100000
00010000
00010000
,
00001000
00000200
00000000
00000020
,
00000330
00000002
00000000
00001003
,
00000001
00000100
00001000
00010000
,
00000000
00000000
00011000
00000000
00000000
00001000
00000000
00100000
,
00000000
01000000
00000000
00100000
00000000
00000000
01000000
00000000
,
01100000
20020000
30030000
00010000
,
10000000
00100000
00010000
00001000
,
00010000
01000000
00010000
00001000
,
00001000
00000020
00000000
00000200
,
00000330
00000001
00000100
00001000
,
00000000
00000000
00010000
00000000
00100000
00000000
10000000
00010000
,
10000000
20020000
00000000
30030000
,
00000000
10000000
00000000
01000000
,
00000000
02200000
00000000
00000000
,
00000000
03300000
00000000
10010000
,
10010000
10000000
00100000
01000000
,
00010000
00100000
01000000
00020000
,
00000000
00031000
00000100
00000001
,
00001000
00000100
00000010
00000100
,
00000110
00000001
00000010
00000100
,
00001000
00000010
00000100
00001000
,
00010000
00000000
00100000
01000000
00000000
00100000
00000000
01000000
,
00000000
00100000
10000000
00000000
00010000
00000000
00100000
00000000
,
00001000
00022000
00000000
00000000
,
00000000
00000000
00000000
00000000
,
00000000
00000000
00000000
00000000
00000000
00000000
00000000
00033000
;

//---------------dance-single - ----------------
#NOTEDATA:;
#CHARTNAME:;
#STEPSTYPE:dance-single;
#DESCRIPTION:;
#CHARTSTYLE:;
#DIFFICULTY:Easy;
#METER:7;
#RADARVALUES:0.277403,0.402860,0.251572,0.086478,0.000000,247.000000,215.000000,32.000000,11.000000,0.000000,0.000000,0.000000,0.000000,0.000000,0.277403,0.402860,0.251572,0.086478,0.000000,247.000000,215.000000,32.000000,11.000000,0.000000,0.000000,0.000000,0.000000,0.000000;
#CREDIT:Kekkle;
#NOTES:
0000
0000
0000
0000
,
0000
0000
0000
0000
,
0000
0000
0000
0000
,
0000
0000
0000
0000
,
0000
0000
0000
0000
,
0000
0001
0000
1000
,
0000
0010
0100
0010
,
0000
1000
0000
0100
,
0000
0010
0100
0010
,
0000
0001
0000
1000
,
0000
0001
1000
0001
,
0000
0100
0000
0100
,
0000
0001
1000
0001
,
0000
1001
0000
0000
,
0000
1001
0000
0000
,
0000
1001
0000
0000
,
0000
0001
1000
0001
,
0000
0010
0000
0001
,
0000
0200
0000
0300
,
0000
0010
0100
0010
,
0000
0100
0000
0100
,
0000
1001
0000
0000
,
0000
1001
0000
0000
,
0000
1001
0000
0000
,
0000
0001
1000
0001
,
0000
0010
0000
0100
,
0000
1000
0000
0001
,
0000
0100
0000
0010
,
0000
0110
0000
0000
,
0000
1001
0000
0000
,
0000
0001
0000
0000
,
0000
0110
0000
0000
,
0000
1000
0000
0000
,
0000
1001
0000
0000
,
0000
0001
0000
0000
,
0000
0220
0000
0000
,
0000
0330
0000
0330
,
0000
0001
0000
0001
,
0000
1000
0000
1000
,
0000
0010
0000
0010
,
0000
0100
0010
0100
,
0000
0110
0000
0010
,
0000
0010
0000
0010
,
0000
1001
0000
1000
,
0000
1000
0000
2000
,
0000
3000
0000
0000
,
0000
0000
0000
0001
,
0000
1001
0000
1000
,
0000
0100
0010
0100
,
0000
0010
0000
0010
,
0000
0001
0000
1000
,
0000
0010
0030
0100
,
0000
0001
1000
0001
,
0000
1001
0000
1000
,
0000
1000
0001
1000
,
0000
1001
0000
0001
,
0000
0010
0100
0010
,
0000
0100
0000
0100
,
0000
1000
0000
1001
,
0000
0001
0000
0001
,
0000
0100
0010
0100
,
0000
0110
0000
0000
,
0000
0001
0000
1000
,
0000
2002
0000
0000
,
0000
0000
0000
3003
,
3003
0001
0000
1000
,
0000
0001
1000
0001
,
0000
0010
0100
0010
,
0000
0100
0010
0100
,
0000
1000
0000
0001
,
0000
1000
0001
1000
,
0000
0010
0100
0010
,
0000
0100
0010
0100
,
0000
1001
0000
0000
,
0000
1001
0000
0000
,
0000
1001
0000
0000
,
0000
0001
0000
0001
,
0000
1001
0000
1000
,
0000
1000
0000
1000
,
0000
0110
0000
0010
,
0000
0010
0000
0020
,
0000
0030
0000
0000
,
0000
0000
0000
0100
,
0000
1001
0000
1001
,
0000
0001
1000
0001
,
0000
1001
0000
1000
,
0001
1000
0001
1000
,
0000
0100
0000
0100
,
0000
0010
0000
0001
,
0000
1000
0000
0010
,
0100
0010
0100
0010
,
0000
0110
0000
0100
,
0000
0100
0010
0100
,
0000
1001
0000
0001
,
1000
0001
1000
0001
,
0000
0010
0000
0010
,
0000
0100
0000
1000
,
0000
0000
0001
0000
1000
0000
0001
0003
,
0000
1000
0001
1000
,
0000
1001
0000
0000
,
0000
0010
0000
0100
,
0000
0220
0000
0000
,
0000
0000
0000
0330
,
0000
0001
0000
1000
,
0001
1000
0001
1000
,
0000
0100
0000
0010
,
0100
0010
0100
0010
,
0000
0001
0000
1000
,
0001
1000
0001
1000
,
0000
0010
0000
0010
,
0000
0100
0001
1000
,
0000
2002
0000
0000
,
0000
0000
0000
0000
,
0000
0000
0000
0000
0000
0000
0000
3003
;

//---------------dance-double - ----------------
#NOTEDATA:;
#CHARTNAME:;
#STEPSTYPE:dance-double;
#DESCRIPTION:;
#CHARTSTYLE:;
#DIFFICULTY:Easy;
#METER:7;
#RADARVALUES:0.271788,0.402860,0.243711,0.086478,0.000000,242.000000,211.000000,31.000000,11.000000,0.000000,0.000000,0.000000,0.000000,0.000000,0.271788,0.402860,0.243711,0.086478,0.000000,242.000000,211.000000,31.000000,11.000000,0.000000,0.000000,0.000000,0.000000,0.000000;
#CREDIT:Kekkle;
#NOTES:
00000000
00000000
00000000
00000000
,
00000000
00000000
00000000
00000000
,
00000000
00000000
00000000
00000000
,
00000000
00000000
00000000
00000000
,
00000000
00000000
00000000
00000000
,
00000000
10000000
00000000
00010000
,
00000000
00100000
01000000
00100000
,
00000000
00001000
00000000
00010000
,
00000000
00000100
00000010
00000100
,
00000000
00001000
00000000
00000001
,
00000000
00000100
00000010
00000100
,
00000000
00001000
00000000
00001000
,
00000000
00010000
00000000
00010000
,
00000000
00011000
00000000
00000000
,
00000000
00011000
00000000
00000000
,
00000000
00011000
00000000
00000000
,
00000000
00001000
00010000
00001000
,
00000000
00010000
00000000
00100000
,
00000000
20000000
00000000
30000000
,
00000000
01000000
00100000
01000000
,
00000000
00100000
00000000
00100000
,
00000000
10010000
00000000
00000000
,
00000000
10010000
00000000
00000000
,
00000000
10010000
00000000
00000000
,
00000000
10000000
00010000
10000000
,
00000000
01000000
00000000
00010000
,
00000000
00001000
00000000
00000010
,
00000000
00000001
00000000
00000001
,
00000000
00001001
00000000
00003003
,
00000000
00000110
00000000
00000000
,
00000000
00010000
00000000
00000000
,
00000000
00011000
00000000
00000000
,
00000000
00100000
00000000
00000000
,
00000000
01100000
00000000
00000000
,
00000000
10000000
00000000
00000000
,
00000000
20020000
00000000
00000000
,
00000000
30030000
00000000
00010000
,
10000000
00010000
00000000
01000000
,
00000000
00100000
00000000
00010000
,
00000000
00001000
00000000
00000100
,
00000000
00000010
00000100
00000010
,
00000000
00001000
00000000
00001000
,
00000000
00001000
00000000
00001001
,
00000000
00000001
00000000
00000001
,
00000000
00000001
00000000
00000002
,
00000000
00000003
00000000
00000000
,
00000000
00000000
00000000
00001000
,
00000000
00001001
00000000
00000001
,
00000000
00000100
00000010
00000100
,
00000000
00001000
00000000
00010000
,
00000000
00100000
00000000
00100000
,
00000000
10010000
00000000
10000000
,
00000000
01000000
00100000
01000000
,
00000000
00010000
00000000
00001000
,
00000000
00100000
00000000
00100000
,
00000000
00011000
00000000
00010000
,
00000000
00000010
00000100
00000010
,
00000000
00001000
00000000
00000001
,
00000000
00000010
00000000
00000110
,
00000000
00000100
00000000
00010000
,
00000000
00001000
00010000
00001000
,
00000000
00011000
00000000
00000000
,
00000000
00010000
00000000
00100000
,
00000000
02200000
00000000
00000000
,
00000000
00000000
00000000
03300000
,
00000000
10000000
00000000
01000000
,
00000000
00010000
00001000
00010000
,
00000000
00001000
00000000
00000010
,
00000000
00000001
00001000
00000001
,
00000000
00000100
00000000
00001000
,
00000000
00010000
00001000
00010000
,
00000000
00100000
00000000
10000000
,
00000000
00010000
10000000
00010000
,
00000000
10010000
00000000
00000000
,
00000000
10010000
00000000
00000000
,
00000000
10010000
00000000
00000000
,
00000000
00001000
00010000
00001000
,
00000000
00010000
00000000
00010000
,
00000000
00010000
00000000
00011000
,
00000000
00001000
00000000
00001000
,
00000000
00001000
00000000
00002000
,
00000000
00003000
00000000
00000000
,
00000000
00000000
00000000
00000010
,
00000000
00000110
00000000
00001001
,
00000000
00000001
00001000
00000001
,
00000000
00001001
00000000
00000001
,
00000000
00000100
00000010
00000100
,
00000000
00001000
00000000
00010000
,
00000000
00100000
00000000
00100000
,
00000000
10010000
00000000
10000000
,
00000000
01000000
00100000
01000000
,
00000000
00010000
00000000
00010000
,
00000000
00001000
00010000
00001000
,
00000000
00011000
00000000
00010000
,
00000000
00000100
00000010
00000100
,
00000000
00001000
00000000
00001000
,
00000000
00000001
00000000
00001001
,
00000000
00001000
00000001
00001000
,
00000000
00000010
00000100
00000010
,
00000000
00000110
00000000
00000000
,
00000000
00010000
00000000
00001000
,
00000000
00022000
00000000
00000000
,
00000000
00000000
00000000
00033000
,
00000000
00001000
00000000
00010000
,
00001000
00010000
00001000
00010000
,
00000000
00100000
00000000
10000000
,
00010000
10000000
00010000
10000000
,
00000000
01000000
00000000
00010000
,
00001000
00010000
00001000
00010000
,
00000000
00001000
00000000
00001000
,
00000000
00000010
00000001
00001000
,
00000000
00002002
00000000
00000000
,
00000000
00000000
00000000
00000000
,
00000000
00000000
00000000
00000000
00000000
00000000
00000000
00003003
;

//---------------dance-single - ----------------
#NOTEDATA:;
#CHARTNAME:;
#STEPSTYPE:dance-single;
#DESCRIPTION:;
#CHARTSTYLE:;
#DIFFICULTY:Beginner;
#METER:4;
#RADARVALUES:0.172956,0.223811,0.125786,0.078616,0.000000,154.000000,138.000000,16.000000,10.000000,0.000000,0.000000,0.000000,0.000000,0.000000,0.172956,0.223811,0.125786,0.078616,0.000000,154.000000,138.000000,16.000000,10.000000,0.000000,0.000000,0.000000,0.000000,0.000000;
#CREDIT:Kekkle;
#NOTES:
// measure 0
0000
0000
0000
0000
,  // measure 1
0000
0000
0000
0000
,  // measure 2
0000
0000
0000
0000
,  // measure 3
0000
0000
0000
0000
,  // measure 4
0000
0000
0000
0000
,  // measure 5
0000
0000
0000
1000
,  // measure 6
0000
0001
0000
1000
,  // measure 7
0000
0000
0000
0010
,  // measure 8
0000
0100
0000
0100
,  // measure 9
0000
0000
0000
0001
,  // measure 10
0000
1000
0000
0001
,  // measure 11
0000
1001
0000
0000
,  // measure 12
0000
1000
0000
1000
,  // measure 13
0000
0100
0000
0000
,  // measure 14
0000
0100
0000
0000
,  // measure 15
0000
0100
0000
0000
,  // measure 16
0000
0010
0000
0010
,  // measure 17
0000
0001
0000
0000
,  // measure 18
0000
2000
0000
3000
,  // measure 19
0000
0010
0000
0100
,  // measure 20
0000
0010
0000
0000
,  // measure 21
0000
0100
0000
0000
,  // measure 22
0000
0100
0000
0000
,  // measure 23
0000
0100
0000
0000
,  // measure 24
0000
0010
0000
0010
,  // measure 25
0000
1000
0000
0000
,  // measure 26
0000
0001
0000
0000
,  // measure 27
0000
0010
0000
0100
,  // measure 28
0000
0010
0000
0000
,  // measure 29
0000
1001
0000
0000
,  // measure 30
0000
0001
0000
0000
,  // measure 31
0000
0200
0000
0000
,  // measure 32
0000
0300
0000
0000
,  // measure 33
0000
1001
0000
0000
,  // measure 34
0000
1000
0000
0000
,  // measure 35
0000
0100
0000
0010
,  // measure 36
0000
0100
0000
0000
,  // measure 37
0000
1000
0000
0000
,  // measure 38
0000
0001
0000
0000
,  // measure 39
0000
0100
0000
0000
,  // measure 40
0000
0010
0000
0010
,  // measure 41
0000
0100
0000
0100
,  // measure 42
0000
0100
0000
0000
,  // measure 43
0000
0010
0000
0010
,  // measure 44
0000
0010
0000
0000
,  // measure 45
0000
1001
0000
0000
,  // measure 46
0000
0000
0000
0000
,  // measure 47
0000
1001
0000
0000
,  // measure 48
0000
0001
0000
0001
,  // measure 49
0000
1000
0000
0001
,  // measure 50
0000
1000
0000
0000
,  // measure 51
0000
1001
0000
0000
,  // measure 52
0000
0100
0000
0100
,  // measure 53
0000
0010
0000
0100
,  // measure 54
0000
0010
0000
0000
,  // measure 55
0000
0110
0000
0000
,  // measure 56
0000
1000
0000
1000
,  // measure 57
0000
0001
0000
1000
,  // measure 58
0000
0001
0000
0000
,  // measure 59
0000
0020
0000
0000
,  // measure 60
0000
0030
0000
0000
,  // measure 61
0000
0110
0000
0000
,  // measure 62
0000
1000
0000
0000
,  // measure 63
0000
2002
0000
0000
,  // measure 64
0000
0000
0000
3003
,  // measure 65
0000
0001
0000
0000
,  // measure 66
0000
0001
0000
0001
,  // measure 67
0000
0100
0000
0100
,  // measure 68
0000
0010
0000
0000
,  // measure 69
0000
1000
0000
0000
,  // measure 70
0000
1000
0000
1000
,  // measure 71
0000
0100
0000
0100
,  // measure 72
0000
0010
0000
0000
,  // measure 73
0000
0001
0000
0000
,  // measure 74
0000
0001
0000
0000
,  // measure 75
0000
0001
0000
0000
,  // measure 76
0000
0001
0000
0001
,  // measure 77
0000
0100
0000
0100
,  // measure 78
0000
0100
0000
0000
,  // measure 79
0000
0010
0000
0010
,  // measure 80
0000
0010
0000
0000
,  // measure 81
0000
1001
0000
0000
,  // measure 82
0000
0000
0000
0000
,  // measure 83
0000
1000
0000
0001
,  // measure 84
0000
1000
0000
0000
,  // measure 85
0000
1001
0000
0000
,  // measure 86
0000
0001
0000
0001
,  // measure 87
0000
0100
0000
0010
,  // measure 88
0000
0100
0000
0000
,  // measure 89
0000
1001
0000
0000
,  // measure 90
0000
1000
0000
1000
,  // measure 91
0000
0100
0000
0010
,  // measure 92
0000
0100
0000
0000
,  // measure 93
0000
1001
0000
0000
,  // measure 94
0000
0001
0000
0001
,  // measure 95
0000
0010
0000
0100
,  // measure 96
0000
0010
0000
0000
,  // measure 97
0000
0002
0000
0000
,  // measure 98
0000
3003
0000
0000
,  // measure 99
0000
0110
0000
0000
,  // measure 100
0000
0001
0000
0000
,  // measure 101
0000
2002
0000
0000
,  // measure 102
0000
0000
0000
3003
,  // measure 103
0000
1000
0000
0001
,  // measure 104
0000
1000
0000
0100
,  // measure 105
0000
0010
0000
0010
,  // measure 106
0000
0100
0000
0000
,  // measure 107
0000
1000
0000
0001
,  // measure 108
0000
1000
0000
0010
,  // measure 109
0000
0100
0000
0100
,  // measure 110
0000
0010
0000
0000
,  // measure 111
0000
2002
0000
0000
,  // measure 112
0000
0000
0000
0000
,  // measure 113
0000
0000
0000
0000
0000
0000
0000
3003
;
