#TITLE:Death Match With Torna;
#SUBTITLE:;
#ARTIST:ACE (TOMOri Kudo, CHiCO);
#TITLETRANSLIT:;
#SUBTITLETRANSLIT:;
#ARTISTTRANSLIT:;
#GENRE:Hard Rock;
#CREDIT:;
#BANNER:;
#BACKGROUND:;
#LYRICSPATH:;
#CDTITLE:cdtitle.png;
#MUSIC:Death Match With Torna.ogg;
#OFFSET:-0.515920;
#SAMPLESTART:70.311348;
#SAMPLELENGTH:19.591835;
#SELECTABLE:YES;
#BPMS:0.000000=196.000000
;
#STOPS:221.500000=1.224000
;
#BGCHANGES:;
#KEYSOUNDS:;
#ATTACKS:;

//---------------dance-single - ----------------
#NOTES:
     dance-single:
     :
     Hard:
     11:
     0.531751,0.547902,0.452237,0.660962,0.000000,428.000000,376.000000,52.000000,76.000000,0.000000,0.000000,0.531751,0.547902,0.452237,0.660962,0.000000,428.000000,376.000000,52.000000,76.000000,0.000000,0.000000:
0000
0000
0000
0000
,
0000
0000
0000
0000
,
0000
0000
0000
0000
,
0000
0000
0000
0000
,
0000
0000
0000
0000
,
0000
0000
0000
0000
,
2020
3000
0200
0030
,
0002
0000
0300
0000
1003
0001
1000
0000
,
0001
0010
0000
0001
0010
0000
0100
0010
,
0000
0100
0010
0000
0011
0000
1001
0000
,
1000
0010
0000
1000
0010
0000
0100
0010
,
0000
0100
0010
0000
1010
0000
1001
0000
,
1000
0100
0000
1000
0100
0000
0010
0001
,
0000
1000
0100
0000
1100
0000
1001
0000
,
0001
0100
0000
0001
0100
0000
0010
1000
,
0000
0001
0100
0000
0101
0000
1001
0000
,
2000
0100
0000
0001
0001
0000
3010
1000
,
0000
1000
0100
0000
0110
0000
0011
0000
,
0002
0100
0000
1000
1000
0000
0013
0001
,
0000
0001
0100
0000
0110
0000
1010
0000
,
0002
0010
0000
1000
1000
0000
0103
1000
,
0000
0100
0001
0000
1010
0000
0101
0000
,
2000
0010
0000
0001
0001
0000
3100
0001
,
0000
0100
1000
0000
0001
1000
0001
0000
,
1001
0000
1001
0000
0001
0200
0000
0320
,
0000
0130
0001
0000
1000
0000
0001
0020
,
0000
1030
0010
0000
0001
0000
1000
0020
,
0000
0031
0010
0000
1000
0001
1000
0000
,
1001
0000
1001
0000
1000
0200
0000
0320
,
0000
0031
0100
0000
0010
0000
1000
1000
,
0000
2010
0000
3100
0010
0001
0000
0012
,
0000
0103
0010
0000
1000
0001
1000
0000
,
1100
0000
0011
0000
1000
0200
0000
0302
,
0000
0103
1000
0000
0010
0000
0001
0020
,
0000
0130
0001
0000
0010
0000
1000
0020
,
0000
0130
1000
0000
0001
1000
0001
0000
,
0101
0000
1010
0000
0001
0200
0000
2300
,
0000
3100
0001
0000
1000
0000
0001
0001
,
0000
0021
0000
0130
1000
0000
1000
0010
,
0000
2010
0000
3001
1000
0100
0010
0000
,
0002
0000
0203
0000
,
0320
0000
0000
0230
0000
0000
0302
0000
,
2003
0000
0000
3200
0000
0000
0320
0000
,
0032
0000
0000
2003
0000
0000
3020
0000
,
0230
0000
0000
0320
0000
0000
2030
0000
,
3002
0000
0000
0023
0000
0000
0230
0000
,
0320
0000
0000
0032
0000
0000
2003
0000
,
3020
0000
0000
0230
0000
0000
0301
0000
,
0110
0000
1001
0000
1000
0100
1000
0000
,
0001
0100
0001
0000
1000
0100
1000
0000
,
1010
0000
0101
0000
0100
0001
0010
0000
,
0100
1000
0010
0000
0100
0001
0010
0000
,
0220
0000
0330
0000
0001
0010
0001
0000
,
1000
0010
1000
0000
0001
0010
0001
0000
,
1000
0000
0010
0100
0000
0100
0001
0000
,
0010
0100
0010
0200
1300
0001
1000
0000
,
1002
0100
2003
0010
,
3002
0100
0023
2030
,
0010
0000
3001
0100
2000
0000
3020
0000
,
0032
0000
1003
0100
0002
0000
1003
0000
,
1001
0000
0011
0000
0001
0010
0100
0020
,
0000
0100
0130
0000
0010
0100
1000
0000
,
1001
0000
1010
0000
1000
0010
0100
0020
,
0000
0100
0130
0000
0001
1000
0001
0000
,
2001
0100
3002
0010
,
2003
0100
3020
0032
,
0010
0000
1003
0100
0002
0000
0023
0000
,
2030
0000
3001
0100
2000
0000
3001
0000
,
1001
0000
1010
0000
1000
0010
0100
0002
,
0000
0010
0013
0000
0100
0010
0001
0000
,
1001
0000
0011
0000
0001
0010
0100
2000
,
0000
0010
3010
0000
0100
0010
1000
0000
,
2001
3100
1002
0013
,
2001
3010
1002
0203
,
1300
0000
0100
0001
0000
1000
0100
0000
,
0010
0001
0010
0001
1000
0000
1001
0000
,
0001
0100
0000
1000
0100
0000
0001
0010
,
0000
1000
0010
0000
0011
0000
1100
0000
,
1000
0100
0000
0001
0100
0000
1000
0010
,
0000
0001
0010
0000
1000
0001
1000
0000
,
0001
0100
0000
0010
0100
0000
1000
0100
,
0000
0010
0100
0000
0110
0000
1001
0000
,
1000
0100
0000
0010
0100
0000
0001
0100
,
0000
0010
0100
0000
1001
0000
0001
0100
,
1000
0000
0000
0000
;

//---------------dance-single - ----------------
#NOTES:
     dance-single:
     :
     Medium:
     9:
     0.405025,0.511375,0.417449,0.547902,0.000000,326.000000,278.000000,48.000000,63.000000,0.000000,0.000000,0.405025,0.511375,0.417449,0.547902,0.000000,326.000000,278.000000,48.000000,63.000000,0.000000,0.000000:
0000
0000
0000
0000
,
0000
0000
0000
0000
,
0000
0000
0000
0000
,
0000
0000
0000
0000
,
0000
0000
0000
0000
,
0000
0000
0000
0000
,
2020
3000
0200
0030
,
0002
0300
1003
0001
,
1000
0100
0000
0000
1000
0000
0000
0100
,
0000
1000
1100
1100
,
0001
0100
0000
0000
0001
0000
0000
0100
,
0000
0001
0101
0101
,
1000
0010
0000
0000
1000
0000
0000
0010
,
0000
1000
1010
1010
,
0001
0010
0000
0000
0001
0000
0000
0010
,
0000
0001
0011
0011
,
2000
0010
0000
0000
0001
0000
0000
0010
,
0000
3001
1001
1001
,
0002
0010
0000
0000
1000
0000
0000
0010
,
0000
1003
1001
1001
,
0002
0100
0000
0000
0010
0000
0000
0100
,
0000
1003
1001
1001
,
2000
0100
0000
0000
0010
0000
0000
0100
,
0000
0000
3001
0000
1000
0001
1000
0000
,
1001
0000
0110
0000
1001
0000
0000
0002
,
0000
0000
0010
0000
1003
0000
0000
2000
,
0000
0000
0010
0000
3001
0000
0000
0002
,
0000
0013
0100
1000
,
1001
0000
0110
0000
1001
0000
0000
0002
,
0000
0000
0100
0000
2003
0000
3001
1000
,
0000
1020
0000
1030
0001
0010
0000
0021
,
0000
0031
1000
0000
0010
0000
0100
0000
,
0101
0000
1010
0000
0101
0000
0001
2000
,
0000
0000
0010
0000
3001
0000
1000
0002
,
0000
0000
0010
0000
1003
0000
0001
0200
,
0000
0000
0310
0000
1000
0001
1000
0000
,
1100
0000
0011
0000
1100
0000
0001
2000
,
0000
0000
0100
0000
3001
0000
1000
0001
,
0000
0201
0000
0000
0310
1000
0001
0000
,
0000
1200
0000
0000
0310
0001
1000
0000
,
0002
0000
0003
0000
,
0200
0000
0300
0000
,
0020
0000
0030
0000
,
2000
0000
3000
0000
,
0200
0000
0300
0000
,
0020
0000
0030
0000
,
0002
0000
0003
0000
,
2000
0000
3002
1003
,
1001
0001
0100
0001
,
1000
0100
1000
0001
,
0100
0010
0100
0001
,
1000
0100
0010
0100
,
0220
0330
0001
0010
,
0100
1000
0010
0100
,
0001
0010
0100
1000
,
0001
1000
0001
2000
3001
0000
1000
0000
,
1002
0100
0203
1000
,
2300
0001
3002
0023
,
1000
1030
0020
2030
,
3200
0000
0310
0200
1000
0000
0310
0000
,
0022
0000
0033
0000
0010
0000
0001
1000
,
0000
1000
0001
0000
0100
0000
0010
0000
,
2020
0000
3030
0000
0010
0000
1000
0001
,
0000
0001
1000
0000
0100
0000
0000
0000
,
2001
0100
3200
0001
,
0302
1000
2003
3020
,
0001
0031
0020
0032
,
0203
0000
0310
0200
0001
0000
0310
0000
,
2020
0000
3030
0000
0010
0000
0100
0001
,
0000
0001
0010
0000
0100
0000
0010
0000
,
0022
0000
0033
0000
0010
0000
0100
1000
,
0000
1000
0010
0000
0100
0000
0000
0000
,
0002
0100
2003
0010
,
3002
0010
2003
0100
,
3001
0000
0000
0110
0000
0000
1001
0000
,
1000
0100
0010
0001
,
1000
0010
0000
0000
0100
0000
0000
0010
,
0000
1000
1010
0101
,
0001
0010
0000
0000
0100
0000
0000
0010
,
0000
0001
0011
1100
,
0001
0100
0000
0000
0010
0000
0000
0100
,
0000
0010
1010
1001
,
1000
0100
0000
0000
0010
0000
0000
0001
,
0000
0000
1000
0000
1001
0000
0001
1000
,
0001
0000
0000
0000
;

//---------------dance-single - ----------------
#NOTES:
     dance-single:
     :
     Easy:
     5:
     0.239785,0.365268,0.121756,0.504418,0.000000,193.000000,179.000000,14.000000,58.000000,0.000000,0.000000,0.239785,0.365268,0.121756,0.504418,0.000000,193.000000,179.000000,14.000000,58.000000,0.000000,0.000000:
0000
0000
0000
0000
,
0000
0000
0000
0000
,
0000
0000
0000
0000
,
0000
0000
0000
0000
,
0000
0000
0000
0000
,
0000
0000
0000
0000
,
2000
0000
3200
0000
,
0320
0000
0031
1000
,
0001
0000
0100
0000
,
0001
0000
0100
0001
,
1000
0000
0100
0000
,
1000
0000
0100
0010
,
0001
0000
0010
0000
,
0001
0000
0010
0001
,
1000
0000
0010
0000
,
1000
0000
0010
0100
,
0002
0000
1000
0000
,
0010
0000
1003
0001
,
2000
0000
0010
0000
,
3001
0000
1000
0001
,
2000
0000
0001
0000
,
0100
0000
3001
1000
,
0002
0000
0100
0000
,
1003
0000
0001
1000
,
0100
0100
0100
0000
,
0010
0001
1000
0000
,
0010
1000
0001
0000
,
0010
0100
0010
0000
,
0100
0100
0100
0000
,
1000
0001
0100
0000
,
0220
0000
0330
0000
,
2002
3003
1001
1001
,
0001
1000
0100
0000
,
0010
0001
0100
0000
,
0010
1000
0100
0000
,
0010
0100
0010
0000
,
0001
1000
0010
0000
,
0100
0010
0100
0000
,
2002
0000
3003
0000
,
0220
0330
0001
1000
,
0002
0000
0003
0000
,
0200
0000
0300
0000
,
0020
0000
0030
0000
,
2000
0000
3000
0000
,
0200
0000
0300
0000
,
0020
0000
0030
0000
,
0002
0000
0003
0000
,
2000
0000
3000
0000
,
1001
0000
0001
0000
,
0100
0000
0100
0000
,
0010
0000
0010
0000
,
1000
0000
0001
0000
,
0022
0000
0033
0000
,
0001
0000
1000
0000
,
2020
0000
3030
0000
,
0220
0000
0000
0330
1000
0000
0001
0000
,
2000
0000
3200
0000
,
0320
0000
0230
0302
,
0000
0000
0203
2300
,
3002
0000
0103
0010
,
2020
0000
3030
0000
,
0010
1000
0001
0000
,
0022
0000
0033
0000
,
0010
0001
1000
0000
,
0002
0000
0203
0000
,
0320
0000
0230
2300
,
0000
0000
3200
0302
,
2003
0000
3001
0010
,
2200
0000
3300
0000
,
0100
1000
0010
0000
,
0202
0000
0303
0000
,
0100
0001
0010
0000
,
0200
0000
2300
0000
,
3002
0000
0203
0320
,
0130
0000
0100
0000
,
0010
1000
0001
0000
,
1000
0000
0100
0000
,
0010
0000
0100
1000
,
0010
0000
0100
0000
,
0010
0000
1000
1000
,
0001
0000
0100
0000
,
0010
0000
0100
0001
,
0010
0000
0100
0000
,
0010
0000
0001
1000
,
0001
0000
0000
0000
;

//---------------dance-single - ----------------
#NOTES:
     dance-single:
     :
     Beginner:
     2:
     0.113059,0.182634,0.043484,0.243512,0.000000,91.000000,86.000000,5.000000,28.000000,0.000000,0.000000,0.113059,0.182634,0.043484,0.243512,0.000000,91.000000,86.000000,5.000000,28.000000,0.000000,0.000000:
0000
0000
0000
0000
,
0000
0000
0000
0000
,
0000
0000
0000
0000
,
0000
0000
0000
0000
,
0000
0000
0000
0000
,
0000
0000
0000
0000
,
0000
0000
0000
0000
,
0000
0000
0000
0000
,
0001
0000
0001
0000
,
0001
0000
0000
0000
,
1000
0000
1000
0000
,
1000
0000
0000
0000
,
0001
0000
0001
0000
,
0001
0000
0000
0000
,
1000
0000
1000
0000
,
1000
0000
0000
0000
,
0200
0000
0300
0000
,
0100
0000
0000
0000
,
0020
0000
0030
0000
,
0010
0000
0000
0000
,
0002
0000
0003
0000
,
0001
0000
0000
0000
,
2000
0000
3000
0000
,
1000
0000
0000
0000
,
0010
0000
0010
0000
,
0010
0000
0000
0000
,
0100
0000
0000
0000
,
0001
0000
0000
0000
,
1000
0000
1000
0000
,
1000
0000
0000
0000
,
2002
0000
3003
0000
,
0220
0000
0330
0000
,
0001
0000
0001
0000
,
0001
0000
0000
0000
,
1000
0000
0000
0000
,
0100
0000
0000
0000
,
0010
0000
0010
0000
,
0010
0000
0000
0000
,
0220
0000
0330
0000
,
2002
0000
3003
0000
,
0002
0000
0000
0000
,
0003
0000
0000
0000
,
0200
0000
0000
0000
,
0300
0000
0000
0000
,
0020
0000
0000
0000
,
0030
0000
0000
0000
,
2000
0000
0000
0000
,
3000
0000
0000
0000
,
0001
0000
0000
0000
,
1000
0000
0000
0000
,
0100
0000
0000
0000
,
0010
0000
0000
0000
,
0200
0000
0000
0000
,
0300
0000
0000
0000
,
2000
0000
3000
0000
,
0002
0000
0000
0003
0000
0000
0000
0000
,
1000
0000
1000
0000
,
2000
0000
3000
0000
,
0020
0000
0030
0000
,
0100
0000
0100
0000
,
0002
0000
0000
0000
,
0003
0000
1000
0000
,
2000
0000
0000
0000
,
3000
0000
0000
0000
,
0001
0000
0001
0000
,
0002
0000
0003
0000
,
0020
0000
0030
0000
,
0100
0000
0100
0000
,
2000
0000
0000
0000
,
3000
0000
0001
0000
,
0002
0000
0000
0000
,
0003
0000
0000
0000
,
1000
0000
0001
0000
,
1000
0000
0000
0000
,
0020
0000
0000
0000
,
0030
0000
0000
0000
,
1000
0000
1000
0000
,
1000
0000
0000
0000
,
0100
0000
0100
0000
,
0100
0000
0000
0000
,
0010
0000
0010
0000
,
0010
0000
0000
0000
,
0001
0000
0001
0000
,
0001
0000
0000
0000
,
1001
0000
0000
0000
;

//---------------dance-single - ----------------
#NOTES:
     dance-single:
     :
     Challenge:
     14:
     0.695749,0.803590,0.260906,0.504418,0.121756,560.000000,530.000000,30.000000,58.000000,0.000000,0.000000,0.695749,0.803590,0.260906,0.504418,0.121756,560.000000,530.000000,30.000000,58.000000,0.000000,0.000000:
// measure 0
0000
0000
0000
0000
,  // measure 1
0000
0000
0000
0000
,  // measure 2
0000
0000
0000
0000
,  // measure 3
0000
0000
0000
0000
,  // measure 4
0000
0000
0000
0000
,  // measure 5
0000
0000
0000
0000
,  // measure 6
2020
3000
0200
0030
,  // measure 7
0002
0000
0000
0000
0300
0000
0000
0000
1003
0010
1000
0000
0001
0010
0001
0000
,  // measure 8
1000
0100
0010
0100
0001
0000
0001
0100
,  // measure 9
0010
0100
1000
0000
0001
0010
0100
1000
,  // measure 10
0001
0100
0010
0100
1000
0000
1000
0100
,  // measure 11
0010
0000
0100
0000
0001
0000
0000
0000
0010
0000
0010
0000
0100
1000
0100
1000
,  // measure 12
0001
0010
0100
0010
1000
0000
1000
0010
,  // measure 13
0100
0010
0001
0000
1000
0100
0010
0001
,  // measure 14
1000
0010
0100
0010
0001
0000
0001
0010
,  // measure 15
0100
0000
0010
0000
1000
0000
0000
0000
0100
0000
0100
0000
0010
0001
0010
0001
,  // measure 16
2000
0010
0000
0010
0001
0000
3100
0010
,  // measure 17
1000
0010
0001
0000
0001
0100
0010
1000
,  // measure 18
0002
0010
0000
0010
1000
0000
0103
0010
,  // measure 19
0001
0010
1000
0000
0001
1000
1001
0000
,  // measure 20
2000
0100
0000
0100
0001
0000
3010
0001
,  // measure 21
1000
0100
0001
0000
0001
0010
0100
1000
,  // measure 22
0002
0100
0000
0100
1000
0000
0013
1000
,  // measure 23
0001
0000
0100
0000
1000
0000
0000
0000
0001
0000
0001
0000
1000
0010
0100
0001
,  // measure 24
1000
0000
1001
0000
0001
0100
0001
0020
,  // measure 25
0000
0130
1000
0001
0010
0001
0100
2000
,  // measure 26
0000
3100
0001
1000
0010
1000
0100
0002
,  // measure 27
0000
0000
0103
0000
1000
0000
0001
0000
0100
0000
0010
0000
1000
0001
1000
0001
,  // measure 28
1000
0000
1001
0000
0001
0010
0100
2000
,  // measure 29
0000
0000
3001
0000
0100
0000
1000
0000
0100
0000
0001
0000
1000
0000
0100
1000
,  // measure 30
0100
0000
0120
0000
0000
0000
0031
0000
0100
0001
0100
0001
0100
0000
0120
0000
,  // measure 31
0000
0000
1030
0000
1001
0000
0000
0000
0001
0010
0001
0000
1000
0010
1000
0000
,  // measure 32
1001
0000
1001
0000
0100
0010
0100
1002
,  // measure 33
0000
1003
0010
0100
1000
0001
0010
2010
,  // measure 34
0000
3001
0010
0100
0001
1000
0010
0012
,  // measure 35
0000
1003
0010
0100
0001
1000
0110
0000
,  // measure 36
1001
0000
1001
0000
1000
0100
0010
0021
,  // measure 37
0000
0000
0031
0000
0100
0000
0010
0000
1000
0000
1000
0000
0100
0000
0010
0100
,  // measure 38
0010
1002
0000
0103
0100
0100
0010
1000
,  // measure 39
0100
0000
0012
0000
0000
0000
1003
0000
0001
0100
0001
0000
1000
0100
1000
0000
,  // measure 40
0002
0000
0203
0000
,  // measure 41
0320
0000
0000
0230
0000
0000
0302
0000
,  // measure 42
2003
0000
0000
3200
0000
0000
0320
0000
,  // measure 43
0032
0000
0000
2003
0000
0000
3020
0000
,  // measure 44
0032
0000
0000
0023
0000
0000
2030
0000
,  // measure 45
3200
0000
0000
0302
0000
0000
0203
0000
,  // measure 46
2300
0000
0000
3002
0000
0000
0203
0000
,  // measure 47
0320
0000
0000
2030
0000
0000
3001
0000
,  // measure 48
1001
0000
1000
0100
0010
0010
0100
1000
,  // measure 49
0010
0010
0100
0010
1000
1000
0100
0010
,  // measure 50
0001
1000
0001
0100
0010
0010
0100
0001
,  // measure 51
0010
0010
0100
0010
0001
0001
0100
0010
,  // measure 52
1001
0000
1000
0010
0001
0010
1000
0001
,  // measure 53
0010
1000
0010
0001
1000
0001
0100
0010
,  // measure 54
1000
0001
0001
1000
0001
0001
1000
0100
,  // measure 55
0010
0000
0010
0000
0010
0000
0020
0000
0031
0010
0001
0000
1000
0010
1000
0000
,  // measure 56
0001
0100
0001
0100
0010
0100
0010
0100
,  // measure 57
1000
0100
1000
0100
1000
0001
0010
1000
,  // measure 58
0010
1000
0010
1000
0010
0001
1000
0100
,  // measure 59
0001
1000
0010
0100
0001
0010
0100
1000
,  // measure 60
1002
0000
0023
0000
0130
0100
0010
2000
,  // measure 61
0000
3010
0001
1000
0001
0001
0100
0001
,  // measure 62
2001
0000
3020
0000
0130
0100
0010
0002
,  // measure 63
0000
0000
0013
0000
1000
0000
0000
0000
0001
0000
0001
0000
1000
0100
0010
0001
,  // measure 64
1000
0100
1000
0100
0010
0100
0010
0100
,  // measure 65
0001
0100
0001
0100
0001
1000
0010
0001
,  // measure 66
0010
0001
0010
0001
0010
1000
0001
0100
,  // measure 67
1000
0001
0010
0100
1000
0010
0100
0001
,  // measure 68
1002
0000
0203
0000
0310
0010
0100
2000
,  // measure 69
0000
3001
0010
1000
0010
0010
0100
0001
,  // measure 70
2001
0000
3200
0000
0310
0010
0100
0002
,  // measure 71
0000
0000
1003
0000
0010
0000
0001
0000
1000
0000
1000
0000
0001
0100
0010
1000
,  // measure 72
0001
0010
0001
0010
1000
0010
1000
0010
,  // measure 73
0001
0100
0001
0100
1000
0100
0001
0000
,  // measure 74
0201
0000
0310
2010
0000
3001
0021
0000
,  // measure 75
0130
0000
1000
0000
0001
0000
0100
0000
0010
0000
1000
0010
0100
0001
1000
0000
,  // measure 76
0001
0010
0100
0010
1000
0000
0001
0100
,  // measure 77
1000
0010
0001
0000
0010
1000
1010
0000
,  // measure 78
1000
0010
0100
0010
0001
0000
1000
0100
,  // measure 79
0001
0000
0010
0000
1000
0000
0000
0000
0010
0000
0001
0000
1000
0001
1000
0001
,  // measure 80
0100
0010
1000
0010
0001
0000
0010
0100
,  // measure 81
0010
1000
0001
0000
0010
0100
0110
0000
,  // measure 82
0100
0010
0001
0010
1000
0000
0010
0100
,  // measure 83
0010
0001
1000
0000
1001
0000
0001
0100
,  // measure 84
1000
0000
0000
0000
;
