#VERSION:0.83;
#TITLE:Dead Bae;
#SUBTITLE:;
#ARTIST:Bilal Hassani;
#TITLETRANSLIT:;
#SUBTITLETRANSLIT:;
#ARTISTTRANSLIT:;
#GENRE:Electropop;
#ORIGIN:;
#CREDIT:;
#BANNER:Dead Bae-bn.png;
#BACKGROUND:Dead Bae-bg.png;
#PREVIEWVID:;
#JACKET:Dead Bae-jacket.png;
#CDIMAGE:;
#DISCIMAGE:;
#LYRICSPATH:;
#CDTITLE:cdtitle.png;
#MUSIC:Dead Bae.ogg;
#OFFSET:-0.239000;
#SAMPLESTART:53.591999;
#SAMPLELENGTH:15.238000;
#SELECTABLE:YES;
#BPMS:0.000=126.000;
#STOPS:;
#DELAYS:;
#WARPS:;
#TIMESIGNATURES:0.000=4=4;
#TICKCOUNTS:0.000=4;
#COMBOS:0.000=1;
#SPEEDS:0.000=1.000=0.000=0;
#SCROLLS:0.000=1.000;
#FAKES:;
#LABELS:0.000=Song Start;
#BGCHANGES:-0.539=Dead Bae.avi=1.000=1=0=0=StretchNoLoop==CrossFade==,
99999=-nosongbg-=1.000=0=0=0 // don't automatically add -songbackground-
;
#KEYSOUNDS:;
#ATTACKS:
;

//---------------dance-single - ----------------
#NOTEDATA:;
#CHARTNAME:;
#STEPSTYPE:dance-single;
#DESCRIPTION:;
#CHARTSTYLE:;
#DIFFICULTY:Hard;
#METER:12;
#RADARVALUES:0.554638,0.572056,0.165027,0.243197,0.395195,447.000000,428.000000,19.000000,28.000000,0.000000,0.000000,0.000000,0.000000,0.000000,0.554638,0.572056,0.165027,0.243197,0.395195,447.000000,428.000000,19.000000,28.000000,0.000000,0.000000,0.000000,0.000000,0.000000;
#CREDIT:iamthek3n;
#NOTES:
// measure 0
0000
0000
0000
0000
,  // measure 1
0000
0000
0000
0000
,  // measure 2
0000
0000
0000
0000
,  // measure 3
0000
0000
0000
0000
,  // measure 4
2000
0000
3100
1000
0002
0000
0013
0100
,  // measure 5
1100
0000
1000
0000
0000
0100
0000
0000
0010
0000
0000
0010
0001
0000
1000
0000
,  // measure 6
0001
0000
0100
0000
0010
0100
0000
0000
0001
0000
0000
0100
0010
0000
0010
0000
,  // measure 7
1000
0000
0001
0000
0010
0001
0000
0000
0011
0000
0000
0000
1001
0000
1000
0000
,  // measure 8
1100
0000
0001
0000
1000
0001
0000
0000
0100
0000
0000
0001
0010
0000
0001
0000
,  // measure 9
1000
0000
0100
0000
1000
0001
0000
0000
1000
0000
0000
0100
0000
0000
0000
0000
,  // measure 10
0011
0000
0010
0000
0100
0010
0000
0000
0001
0000
0000
0100
0001
0000
1000
0000
,  // measure 11
0020
0000
0000
0000
0001
0000
0000
0000
1030
0000
0000
0001
0010
0000
0001
0000
,  // measure 12
0101
0000
0001
0100
1000
0000
1000
0100
0001
0000
1000
0000
0020
0000
0000
0000
,  // measure 13
0130
0000
0001
0010
1000
0000
1000
0010
0001
0000
0100
0000
0002
0000
1000
0000
,  // measure 14
1003
0000
0001
0100
1000
0000
0001
0010
1000
0000
0010
0000
2000
0000
0000
0000
,  // measure 15
3200
0000
0000
0000
0302
0000
0000
0000
0103
0000
0000
0010
0100
0000
1000
0000
,  // measure 16
1001
0000
1000
0010
0001
0000
0001
0010
1000
0000
0001
0000
2000
0000
0100
0000
,  // measure 17
3100
0000
1000
0100
0001
0000
0001
0100
1000
0000
0001
0000
0020
0000
0001
0000
,  // measure 18
0031
0000
0001
0010
1000
0000
0001
0100
1000
0000
0001
0000
0200
0000
0000
0000
,  // measure 19
0310
0000
0000
1000
0000
0000
0001
0000
0100
0000
0001
0000
1000
0000
0000
0000
,  // measure 20
0001
0000
0000
0100
0010
0000
1000
0000
0001
0000
0010
0000
1000
0000
0010
0000
,  // measure 21
0001
0000
0000
0010
0100
0000
1000
0000
0001
0000
0100
0000
0001
0000
1000
0100
,  // measure 22
0010
0000
0000
0010
0001
0000
0100
0000
1000
0000
0100
0000
0010
0000
0100
0000
,  // measure 23
0001
0000
0000
1000
0010
0000
1000
0000
0001
0000
1000
0010
0100
0001
0010
0100
,  // measure 24
1000
0000
0000
0001
0100
0000
0001
0000
1000
0000
0010
0000
0001
0000
0010
0000
,  // measure 25
1000
0000
0000
0010
0100
0000
0001
0000
0010
0000
1000
0000
0010
0000
0100
0010
,  // measure 26
0001
0000
0000
1000
0010
0000
1000
0000
0001
0000
0010
0000
0100
0000
0000
0000
,  // measure 27
1000
0100
1000
0100
1000
0000
0000
0001
0100
0001
0100
0001
0000
0000
0000
0000
0000
0000
1000
0000
0000
0010
0000
0000
,  // measure 28
1000
0000
0000
0100
0000
0100
0010
0000
0001
0000
0000
0000
1001
0000
1000
0000
,  // measure 29
1100
0000
0100
0000
0000
0100
0000
0000
0010
0000
0000
0010
0001
0000
1000
0000
,  // measure 30
0001
0000
0000
0001
0100
0001
1000
0000
1000
0000
0000
0010
1000
0000
0001
0000
,  // measure 31
1001
0000
1000
0000
0000
1000
0000
0000
0100
0000
0010
0100
1000
0000
0001
0000
,  // measure 32
0001
0000
0000
0100
0010
1000
0001
0000
0101
0000
0000
0100
0010
0000
1000
0000
,  // measure 33
0100
0000
0001
0000
0000
0100
0000
0000
1000
0000
0000
0001
0100
0000
0001
0000
,  // measure 34
1000
0000
0000
0000
0010
0100
0010
0000
1000
0000
0000
0100
0010
0000
0001
0000
,  // measure 35
1000
0000
0000
0000
1001
0000
0001
0000
0100
0010
0100
0000
0001
0000
0100
0000
,  // measure 36
0002
0000
0023
0000
2030
0000
3001
0100
,  // measure 37
2000
0000
3100
0001
1000
0010
0100
2000
,  // measure 38
0000
3002
1000
0000
0103
0000
0001
0200
,  // measure 39
1000
0000
0000
0000
0010
0000
0000
0000
0301
0000
0100
0001
1000
0001
0010
0100
,  // measure 40
2000
0000
3020
0000
0032
0000
1003
0100
,  // measure 41
0002
0000
0103
0001
0010
0100
0010
0002
,  // measure 42
0000
2003
0010
0000
3001
0000
0010
0002
,  // measure 43
0000
2003
0000
0000
3000
0000
0000
0000
,  // measure 44
0001
0000
0000
0001
0000
0001
1000
0000
0100
0000
0000
0000
1100
0000
1000
0000
,  // measure 45
1001
0000
0001
0000
0100
0001
0000
0000
1000
0000
0000
0010
1000
0000
0001
0000
,  // measure 46
0100
0000
0000
0010
1000
0001
1000
0000
0100
0000
0000
0100
0010
0000
0001
0000
,  // measure 47
1000
0000
0010
0000
1000
0001
0000
0000
0101
0000
0000
0000
1100
0000
1000
0000
,  // measure 48
0001
0000
0000
1000
0010
0100
0001
0000
0001
0000
0000
0010
0100
0000
1000
0000
,  // measure 49
0001
0000
0010
0000
0010
0100
0000
0000
1000
0000
0000
0010
1000
0000
0001
0000
,  // measure 50
0100
0000
0010
0000
0001
0010
0100
0000
0100
0000
0000
0100
0001
0000
1000
0000
,  // measure 51
0200
0000
0000
0000
0000
0000
0000
0000
0300
0000
1000
0100
0010
0100
1000
0000
,  // measure 52
1100
0000
0000
0001
1000
0001
0100
0000
0001
0000
0100
0000
1000
0000
0100
0000
,  // measure 53
0001
0000
0010
0000
1000
0000
0010
0000
0001
0000
0000
0100
0010
0000
1000
0000
,  // measure 54
0001
0000
0000
0010
0001
1000
0001
0000
0100
0000
1000
0000
0100
0000
0001
0000
,  // measure 55
0010
0100
1000
0010
1010
0000
0101
0000
,  // measure 56
0001
0000
1000
0010
1000
0000
0100
0000
0001
0000
1000
0000
0010
0000
0100
0000
,  // measure 57
1000
0000
0100
0000
0100
0010
0000
0000
0001
0000
0000
0010
0100
0000
1000
0000
,  // measure 58
0001
0000
0100
0000
0001
1000
0001
0000
1000
0000
0100
0000
0001
0000
0100
0000
,  // measure 59
2000
0000
0000
0000
0000
0000
3001
0100
;

//---------------dance-single - ----------------
#NOTEDATA:;
#CHARTNAME:;
#STEPSTYPE:dance-single;
#DESCRIPTION:;
#CHARTSTYLE:;
#DIFFICULTY:Medium;
#METER:9;
#RADARVALUES:0.413187,0.468046,0.156341,0.364795,0.138970,333.000000,315.000000,18.000000,42.000000,0.000000,0.000000,0.000000,0.000000,0.000000,0.413187,0.468046,0.156341,0.364795,0.138970,333.000000,315.000000,18.000000,42.000000,0.000000,0.000000,0.000000,0.000000,0.000000;
#CREDIT:iamthek3n;
#NOTES:
// measure 0
0000
0000
0000
0000
,  // measure 1
0000
0000
0000
0000
,  // measure 2
0000
0000
0000
0000
,  // measure 3
0000
0000
0000
0000
,  // measure 4
0002
0100
2003
0010
,  // measure 5
3001
0000
1000
0000
0100
0000
0000
0000
0010
0000
0000
0100
0000
0000
1000
0000
,  // measure 6
0001
0000
1000
0000
0010
0000
0000
0000
0100
0000
0000
0010
0000
0000
1000
0000
,  // measure 7
0001
0100
0001
0000
0101
0000
0110
0000
,  // measure 8
1001
0000
1000
0000
0000
1000
0000
0000
0001
0000
0000
0000
0100
0000
0001
0000
,  // measure 9
1000
0000
0100
0000
0000
0100
0000
0000
0010
0000
0000
0010
0000
0000
0000
0000
,  // measure 10
1001
0000
0001
0000
0000
0001
0000
0000
0010
0000
0000
0100
1000
0000
0001
0000
,  // measure 11
1001
0000
0000
0000
1000
0000
0010
0000
1010
0000
0000
1000
0000
0000
0001
0000
,  // measure 12
0011
0000
0010
0000
0100
0010
0001
0000
,  // measure 13
1000
0000
0010
0000
0001
0010
1000
0000
,  // measure 14
0001
0000
0100
0000
1000
0100
0001
0000
,  // measure 15
2000
0000
3200
0000
0302
0000
0103
0010
,  // measure 16
0001
0000
0000
0000
1000
0000
0000
0001
0000
0000
1000
0000
0100
0000
1000
0000
,  // measure 17
0001
0000
0000
0000
0010
0000
0000
0100
0000
0000
0100
0000
1000
0000
0001
0000
,  // measure 18
0100
0000
0000
0000
0001
0000
0000
1000
0000
0000
1000
0000
0100
0000
0010
0000
,  // measure 19
0002
0000
0023
0000
2030
0000
3010
0100
,  // measure 20
1000
0001
0200
0000
1300
0200
0000
0310
,  // measure 21
0200
0000
0301
0200
0000
0000
0310
1000
,  // measure 22
0001
0100
0020
0000
0031
0020
0000
1030
,  // measure 23
0020
0000
0130
0020
0000
0031
0010
1000
,  // measure 24
0001
0000
1000
0000
0100
0000
0000
0010
0000
0000
0010
0000
0001
0000
1000
0000
,  // measure 25
0010
0000
0100
0000
0001
0000
0000
1000
0000
0000
1000
0000
0001
0000
0100
0000
,  // measure 26
0010
0000
0100
0000
0001
0000
0000
0010
0000
0000
0010
0000
0100
0000
1000
0000
,  // measure 27
2200
0000
3300
0000
,  // measure 28
0001
0000
0000
0001
0000
0000
0001
0000
0100
0000
0000
0000
0101
0000
0000
0000
,  // measure 29
1001
0000
0000
0000
1000
0000
0010
0000
0001
0000
0000
0010
0100
0000
0010
0000
,  // measure 30
1000
0000
0100
0010
0001
0000
1000
0001
,  // measure 31
0100
0000
0000
0000
0010
0000
1000
0000
0001
0010
0001
0000
1000
0000
0010
0000
,  // measure 32
1000
0000
0001
0100
1000
0000
0001
0010
,  // measure 33
1000
0000
0000
0000
0010
0000
1000
0000
0100
0000
0000
0010
0001
0000
1000
0000
,  // measure 34
0001
0000
0100
0010
1000
0000
0001
0010
,  // measure 35
0100
1100
2000
0100
,  // measure 36
3002
0000
0203
0000
0302
0000
0103
0010
,  // measure 37
2000
0000
3100
0001
1000
0010
0100
2000
,  // measure 38
0000
3002
0100
0000
0003
0000
1000
0200
,  // measure 39
0000
0000
0010
0020
0300
0000
0001
0000
,  // measure 40
0032
0000
0203
0000
0302
0000
0103
0010
,  // measure 41
2000
0000
3001
0100
1000
0001
0010
2000
,  // measure 42
0000
3002
0000
0000
0003
0000
0010
0002
,  // measure 43
0000
2003
0000
0000
3000
0000
0000
0000
,  // measure 44
0001
0000
0000
0010
0000
0000
0100
0000
0100
0000
0000
0000
1100
0000
0000
0000
,  // measure 45
1001
0000
0001
0000
0000
0001
0000
0000
0100
0000
0000
0010
0100
0000
0001
0000
,  // measure 46
1000
0000
0100
0000
0000
0100
0000
0000
0010
0000
0000
0001
0100
0000
0001
0000
,  // measure 47
1000
0000
0010
0000
0000
0010
0000
0000
0110
0000
0000
0000
1001
0000
0000
0000
,  // measure 48
1000
0000
0100
0000
0000
0100
0000
0000
0010
0000
0000
0001
0100
0000
0001
0000
,  // measure 49
1000
0000
0010
0000
0000
0010
0000
0000
0100
0000
0000
0001
0010
0000
0001
0000
,  // measure 50
1000
0000
0010
0000
0000
0010
0000
0000
1000
0000
0000
0001
0010
0000
0100
0000
,  // measure 51
2000
0000
0000
0000
0000
0000
0000
0000
3002
0000
0000
0020
0000
0000
0000
0000
,  // measure 52
0033
0000
0011
0000
0001
0100
1000
0100
,  // measure 53
0010
0100
0001
0010
0100
1000
0010
1000
,  // measure 54
0001
0000
1000
0100
0001
0100
1000
0010
,  // measure 55
0001
0010
1000
0001
1001
0000
0110
0000
,  // measure 56
0002
0000
0103
0001
1000
0100
1000
0020
,  // measure 57
0000
0000
0031
0000
0010
0000
1000
0000
0001
0000
0000
0100
0001
0000
2000
0000
,  // measure 58
0000
3010
1000
0001
0100
0010
0100
0001
,  // measure 59
0020
0000
0000
0000
0000
0000
0130
0010
;

//---------------dance-single - ----------------
#NOTEDATA:;
#CHARTNAME:;
#STEPSTYPE:dance-single;
#DESCRIPTION:;
#CHARTSTYLE:;
#DIFFICULTY:Easy;
#METER:5;
#RADARVALUES:0.232030,0.337327,0.052114,0.043428,0.000000,187.000000,181.000000,6.000000,5.000000,0.000000,0.000000,0.000000,0.000000,0.000000,0.232030,0.337327,0.052114,0.043428,0.000000,187.000000,181.000000,6.000000,5.000000,0.000000,0.000000,0.000000,0.000000,0.000000;
#CREDIT:iamthek3n;
#NOTES:
// measure 0
0000
0000
0000
0000
,  // measure 1
0000
0000
0000
0000
,  // measure 2
0000
0000
0000
0000
,  // measure 3
0000
0000
0000
0000
,  // measure 4
1000
0000
0001
0000
,  // measure 5
1001
1000
0010
1000
,  // measure 6
0001
0010
0100
0010
,  // measure 7
0001
1000
0010
1000
,  // measure 8
0001
0010
0100
1000
,  // measure 9
0001
1000
0100
0000
,  // measure 10
0010
0100
1000
0001
,  // measure 11
0100
0010
0100
0001
,  // measure 12
1000
0000
0000
0000
,  // measure 13
0001
0000
0000
0000
,  // measure 14
1000
0000
0000
0000
,  // measure 15
0001
0000
0010
0000
,  // measure 16
0100
0000
1000
0000
0000
0010
1000
0000
,  // measure 17
0001
0000
0100
0000
0000
0010
0100
0000
,  // measure 18
0001
0000
0010
0000
0000
0100
1000
0000
,  // measure 19
0002
0000
2003
0000
,  // measure 20
3001
1000
0000
1000
,  // measure 21
0000
0001
0000
0001
,  // measure 22
0100
0010
0000
0010
,  // measure 23
0000
1000
0000
1000
,  // measure 24
0100
0010
0000
0010
,  // measure 25
0000
0001
0000
0001
,  // measure 26
0010
0100
0000
0100
,  // measure 27
2100
0000
3000
0000
,  // measure 28
0000
0000
0000
0001
,  // measure 29
1001
0100
1000
0001
,  // measure 30
0100
0001
0010
0100
,  // measure 31
0010
0001
1000
0100
,  // measure 32
0000
1000
0001
0100
,  // measure 33
0001
1000
0100
0010
,  // measure 34
0001
0100
0001
1000
,  // measure 35
0000
0000
0010
0000
0000
0000
0010
0100
,  // measure 36
0002
1000
0000
1000
,  // measure 37
0003
0001
0000
0001
,  // measure 38
0000
0100
0000
0100
,  // measure 39
0000
0010
0000
0010
,  // measure 40
0000
1000
0000
1000
,  // measure 41
0000
0100
0000
0100
,  // measure 42
0000
0010
0000
0010
,  // measure 43
0000
0000
0000
0000
,  // measure 44
0000
0000
0000
1000
,  // measure 45
1001
0000
0001
0000
0100
0000
0010
0100
,  // measure 46
0010
0000
1000
0000
0100
0000
0010
0001
,  // measure 47
0010
0000
0100
0000
1000
0000
0001
0100
,  // measure 48
0001
0000
0010
0000
0100
0000
1000
0100
,  // measure 49
1000
0000
0001
0000
1000
0000
0010
0100
,  // measure 50
0010
0000
1000
0000
0100
0000
0010
0001
,  // measure 51
0010
0000
0000
0000
,  // measure 52
1000
0000
1100
0000
0100
0000
0010
0100
,  // measure 53
1000
0000
0100
0010
0001
0000
0100
0001
,  // measure 54
1000
0000
0010
1000
0001
0000
0010
0100
,  // measure 55
1000
0000
0001
1000
0100
0000
1000
0000
,  // measure 56
0001
0000
0101
0000
0100
0000
0001
0010
,  // measure 57
0100
0000
0010
0100
1000
0000
0001
1000
,  // measure 58
0010
0000
0100
0001
0010
0000
0100
1000
,  // measure 59
0002
0000
0000
0003
;

//---------------dance-single - ----------------
#NOTEDATA:;
#CHARTNAME:;
#STEPSTYPE:dance-single;
#DESCRIPTION:;
#CHARTSTYLE:;
#DIFFICULTY:Beginner;
#METER:2;
#RADARVALUES:0.102986,0.127570,0.000000,0.000000,0.000000,83.000000,83.000000,0.000000,0.000000,0.000000,0.000000,0.000000,0.000000,0.000000,0.102986,0.127570,0.000000,0.000000,0.000000,83.000000,83.000000,0.000000,0.000000,0.000000,0.000000,0.000000,0.000000,0.000000;
#CREDIT:iamthek3n;
#NOTES:
// measure 0
0000
0000
0000
0000
,  // measure 1
0000
0000
0000
0000
,  // measure 2
0000
0000
0000
0000
,  // measure 3
0000
0000
0000
0000
,  // measure 4
0000
0000
0000
0000
,  // measure 5
1000
0000
0001
0000
,  // measure 6
1000
0000
0001
0000
,  // measure 7
0100
0000
0001
0000
,  // measure 8
0100
0000
0001
0000
,  // measure 9
0010
0000
0001
0000
,  // measure 10
0010
0000
0001
0000
,  // measure 11
1000
0000
0001
0000
,  // measure 12
1000
0000
0000
0000
,  // measure 13
0100
0000
0000
0000
,  // measure 14
0010
0000
0000
0000
,  // measure 15
0001
0000
0000
0000
,  // measure 16
0100
0000
0000
0000
,  // measure 17
0010
0000
0000
0000
,  // measure 18
1000
0000
0000
0000
,  // measure 19
0001
0000
0000
0000
,  // measure 20
0000
0100
0000
0001
,  // measure 21
0000
1000
0000
0001
,  // measure 22
0000
0100
0000
0001
,  // measure 23
0000
0010
0000
0100
,  // measure 24
0000
0010
0000
0001
,  // measure 25
0000
1000
0000
0001
,  // measure 26
0000
1000
0000
0010
,  // measure 27
0000
0000
0000
0000
,  // measure 28
0000
0000
0000
0000
,  // measure 29
0000
0001
0000
1000
,  // measure 30
0000
0010
0000
1000
,  // measure 31
0000
0001
0000
1000
,  // measure 32
0000
0100
0000
0010
,  // measure 33
0000
0100
0000
1000
,  // measure 34
0000
0100
0000
0010
,  // measure 35
0000
0001
0000
0000
,  // measure 36
1000
0000
0000
0000
,  // measure 37
0100
0000
0000
0000
,  // measure 38
0010
0000
0000
0000
,  // measure 39
0001
0000
0000
0000
,  // measure 40
0100
0000
0000
0000
,  // measure 41
0010
0000
0000
0000
,  // measure 42
1000
0000
0000
0000
,  // measure 43
0001
0000
0000
0000
,  // measure 44
0000
0000
0000
0000
,  // measure 45
0000
1000
0000
0010
,  // measure 46
0000
1000
0000
0001
,  // measure 47
0000
0100
0000
0001
,  // measure 48
0000
1000
0000
0100
,  // measure 49
0000
1000
0000
0001
,  // measure 50
0000
0100
0000
0001
,  // measure 51
0000
0000
0000
0000
,  // measure 52
0000
1000
0000
0100
,  // measure 53
0000
0010
0000
0001
,  // measure 54
0000
0100
0000
0001
,  // measure 55
0000
0010
0000
0100
,  // measure 56
0000
1000
0000
0010
,  // measure 57
0000
0100
0000
0001
,  // measure 58
0000
1000
0000
0001
;
