#VERSION:0.83;
#TITLE:De Flore Sonos;
#SUBTITLE:;
#ARTIST:phonon;
#TITLETRANSLIT:;
#SUBTITLETRANSLIT:;
#ARTISTTRANSLIT:;
#GENRE:;
#ORIGIN:;
#TAGS:;
#CREDIT:;
#BANNER:De Flore Sonos-bn.png;
#BACKGROUND:De Flore Sonos-bg.png;
#PREVIEWVID:;
#JACKET:De Flore Sonos-jk.png;
#CDIMAGE:;
#DISCIMAGE:;
#LYRICSPATH:;
#CDTITLE:;
#MUSIC:De Flore Sonos.ogg;
#OFFSET:0.000000;
#SAMPLESTART:54.622993;
#SAMPLELENGTH:15.000000;
#SELECTABLE:YES;
#BPMS:0.000000=145.000000
,204.000000=96.666664
;
#STOPS:;
#DELAYS:;
#WARPS:;
#TIMESIGNATURES:0.000000=4=4
;
#TICKCOUNTS:0.000000=4
;
#COMBOS:0.000000=1
;
#SPEEDS:0.000000=1.000000=0.000000=0
;
#SCROLLS:0.000000=1.000000
,204.000000=1.500000
;
#LABELS:0.000000=Song Start
;
#BGCHANGES:;
#KEYSOUNDS:;
#ATTACKS:
;

//---------------dance-single - ----------------
#NOTEDATA:;
#CHARTNAME:;
#CHARTHASH:1542771991;
#STEPSTYPE:dance-single;
#BANNER:;
#DESCRIPTION:;
#CHARTSTYLE:;
#DIFFICULTY:Hard;
#METER:15;
#METERF:15.000000;
#LASTSECONDHINT:105.517235;
#RADARVALUES:0.495711,0.605697,0.230152,0.522267,0.712585,392.000000,364.000000,26.000000,59.000000,16.000000,4.000000,0.000000,0.000000,0.000000,0.495711,0.605697,0.230152,0.522267,0.712585,392.000000,364.000000,26.000000,59.000000,16.000000,4.000000,0.000000,0.000000,0.000000;
#CREDIT:DJEmbrace;
#NOTES:
// measure 0
0000
0000
0000
0000
,  // measure 1
0000
0000
0000
0000
,  // measure 2
0000
0000
0000
0000
,  // measure 3
0000
0000
0000
0000
,  // measure 4
0000
0000
0000
0000
,  // measure 5
2000
0000
0000
3001
0000
0010
0200
0000
0000
0310
0000
0001
2000
0000
0000
3001
,  // measure 6
0000
0100
0020
0000
0000
0130
0000
0001
1000
0000
0200
0000
0000
0000
0000
0000
,  // measure 7
0000
0320
0000
0000
,  // measure 8
0000
0000
0000
0000
,  // measure 9
0032
0000
0000
0103
0000
0010
2000
0000
0000
3100
0000
1000
0002
0000
0000
1003
,  // measure 10
0000
0010
0200
0000
0000
0301
0010
0000
0200
0000
0000
0000
0000
0000
0000
0000
,  // measure 11
0000
0000
0000
0000
,  // measure 12
0000
0000
0000
0000
,  // measure 13
0320
0000
0000
0031
0000
1000
0020
0000
0000
0130
0000
0001
2000
0000
0000
3100
,  // measure 14
0000
0010
0002
0000
0000
1003
0000
0010
1000
0000
0002
0000
0000
0000
0000
0000
,  // measure 15
0000
2000
0000
0000
,  // measure 16
0000
0000
0003
0000
,  // measure 17
3101
0000
0000
0010
0000
0100
1000
0000
0010
1000
0010
0000
1100
0000
0000
0010
,  // measure 18
0000
0000
1000
0000
0200
0000
0000
0000
0300
00M0
0100
0000
0000
0000
0001
0000
1010
0000
0000
0000
0000
0000
0000
0000
0110
0000
0000
0000
0000
0000
0001
0000
,  // measure 19
1000
0000
0000
0010
0000
1000
0100
0000
0010
0000
0001
0000
0100
00M0
0100
1000
,  // measure 20
0010
0000
0100
0001
0000
1000
0010
0M00
0010
0000
0001
0000
0100
0010
0000
1000
,  // measure 21
0011
0000
0000
0100
0000
0010
1000
0000
0100
1000
0100
0000
1010
0000
0000
0100
,  // measure 22
0000
0000
1000
0000
0020
0000
0000
0000
0030
0M00
0010
0000
0000
0000
0001
0000
1100
0000
0000
0000
0020
0000
0000
0000
0200
0000
0000
0000
0330
0000
0000
0000
,  // measure 23
0001
1000
0001
1000
2002
0000
0000
0000
3003
0000
0000
0000
0002
0000
0013
0200
,  // measure 24
0300
0000
1000
0000
0000
0000
1000
0000
0010
0000
1000
0000
0100
0010
0000
0001
,  // measure 25
1010
0000
0000
0100
0000
0010
0001
0000
0100
0001
0100
0000
0011
0000
0000
0100
,  // measure 26
0000
0000
0001
0000
0020
0000
0000
0000
0030
0M00
0010
0000
0000
0000
1000
0000
0011
0000
0000
0000
0000
0000
0000
0000
0110
0000
0000
0000
0000
0000
1000
0000
,  // measure 27
0001
0000
0000
0100
0000
0001
0010
0000
0100
0000
1000
0000
0010
0M00
0010
0001
,  // measure 28
0100
0000
0010
1000
0000
0001
0100
00M0
0100
0000
1000
0000
0010
0100
0000
0001
,  // measure 29
1100
0000
0000
0010
0000
0100
0001
0000
0010
0001
0010
0000
0101
0000
0000
1000
,  // measure 30
0000
0000
0010
0000
0200
0000
0000
0000
0300
00M0
0100
0000
0000
0000
1000
0000
0011
0000
0000
0000
0200
0000
0000
0000
0020
0000
0000
0000
0000
0000
0300
0000
,  // measure 31
1030
2002
0000
0000
,  // measure 32
0000
0000
0000
0003
,  // measure 33
3101
0000
0000
1000
0000
0000
0001
0000
0010
0100
0010
0000
1000
0000
0000
0010
,  // measure 34
0001
1000
0001
0000
0000
1000
0000
0010
0100
0000
1000
0000
0100
0000
0000
0000
,  // measure 35
0002
0000
0000
0010
0000
0000
0103
0000
1000
0000
0100
0000
0010
0000
0100
0001
,  // measure 36
2000
0000
0000
0010
0000
0000
3100
0000
0001
0000
0100
0000
0010
0100
1000
0001
,  // measure 37
1010
0000
0000
0001
0000
0000
1000
0000
0100
0010
0100
0000
0001
0000
0000
0100
,  // measure 38
0000
1000
0001
0000
0000
0100
00M0
0100
0010
0000
0002
0000
0000
0000
0000
0000
,  // measure 39
1003
0000
0000
0010
0000
0000
1000
0000
0000
0010
0000
0000
1000
0000
0000
0000
0002
0000
0000
0000
0000
0000
0000
0000
0000
0000
0000
0000
0000
0000
0000
0000
0013
0000
0000
0000
0000
0000
0000
0000
0100
0000
0000
0000
0000
0000
0000
0000
2000
0000
0000
0000
0000
0000
0000
0000
3010
0000
0000
0000
0200
0000
0000
0000
,  // measure 40
0300
0000
0001
0000
0000
0000
0001
0000
0010
0000
0100
0000
0010
0001
0000
1000
,  // measure 41
0011
0000
0000
1000
0000
0000
0001
0000
0100
0010
0100
0000
1000
0000
0000
0100
,  // measure 42
0001
1000
0001
0000
0000
1000
0000
0100
0010
0000
1000
0000
0010
0000
0000
0000
,  // measure 43
0002
0000
0000
0100
0000
0000
0013
0000
1000
0000
0010
0000
0100
0000
0010
0001
,  // measure 44
2000
0000
0000
0100
0000
0000
3010
0000
0001
0000
0010
0000
0100
0010
1000
0001
,  // measure 45
1010
0000
0000
0001
0000
0000
1000
0000
0100
0010
0100
0000
0001
0000
0000
0100
,  // measure 46
0000
1000
0001
0000
0000
0010
0M00
0010
0100
0000
0002
0000
0000
0000
0000
0000
,  // measure 47
1003
0000
0000
0000
0000
0000
0000
0000
0000
0100
0000
0000
0000
0000
0000
0000
0000
0000
1000
0000
0000
0000
0000
0000
0000
0000
0000
0100
0000
0000
0000
0000
0000
0000
0000
0000
1000
0000
0000
0000
0000
0000
0000
0000
0000
0000
0000
0000
0020
0000
0000
0000
0000
0000
0000
0000
0000
0000
0000
0000
0000
0000
0000
0000
0000
0000
0000
0000
0000
0000
0000
0000
0000
0000
0000
0000
0000
0000
0000
0000
0000
0000
0000
0000
0000
0000
0000
0000
0000
0000
0000
0000
0000
0000
0000
0000
0000
0000
0000
0000
0000
0000
0000
0000
0000
0000
0000
0000
0000
0000
0000
0000
0000
0000
0000
0000
0000
0000
0000
0000
0000
0000
0000
0000
0000
0000
0000
0000
0000
0000
0000
0000
0000
0000
0000
0000
0000
0000
0000
0000
0000
0000
0000
0000
1030
0000
0000
0000
0000
0000
0000
0000
0000
0000
0000
0000
0000
0000
0000
0000
0010
0000
0000
0000
0000
0000
0000
0000
0000
0000
0000
0000
0000
0000
0000
0000
1000
0000
0000
0000
0000
0000
0000
0000
0000
0000
0000
0000
0000
0000
0000
0000
,  // measure 48
0001
0000
0100
0000
0001
0000
1000
0100
0000
0010
0000
0002
0000
0000
0000
0000
0000
0000
0000
0000
0000
0000
0000
0000
,  // measure 49
0000
0000
0000
0000
,  // measure 50
0000
0000
0000
0003
,  // measure 51
2000
0000
3000
0000
2000
0000
3000
0000
1000
0010
0100
0001
1000
0200
0000
0000
,  // measure 52
0310
0000
0000
0000
0000
0000
0000
0000
0000
0000
0000
0000
0000
0000
0000
0000
0000
0000
0000
0000
0000
0000
0000
0000
0001
0000
0000
0000
0000
0000
0000
0000
0000
0000
0000
0000
0000
0000
0000
0000
0000
0000
0000
0000
0000
0000
0000
0000
1010
0000
0000
0000
0000
0000
0000
0000
0000
0000
0000
0000
0000
0000
0000
0000
0000
0000
0000
0000
0000
0000
0000
0000
0001
0000
0000
0000
0000
0000
0000
0000
0000
0000
0000
0000
0000
0000
0000
0000
0000
0000
0000
0000
0000
0000
0000
0000
0100
0000
0000
0000
0000
0000
0000
0000
00M0
0000
0000
0000
0000
0000
0000
0100
0000
0000
0000
0000
0000
0000
0000
0000
1000
0000
0000
0000
0000
0000
0000
0000
0000
0000
0000
0000
0000
0000
0000
0001
0000
0000
0000
0000
0000
0000
0000
0000
0010
0000
0000
0000
0000
0000
0000
0000
0M00
0000
0000
0000
0000
0000
0000
0010
0000
0000
0000
0000
0000
0000
0000
0000
1000
0000
0000
0000
0000
0000
0000
0000
0000
0000
0000
0000
0000
0000
0000
0000
0000
0000
0000
0000
0000
0000
0000
0000
,  // measure 53
0002
0000
0003
0000
0002
0000
0003
0000
0001
0010
0100
1000
0001
0200
0000
0000
,  // measure 54
0301
0000
0000
0000
0000
0000
0000
0000
0000
0000
0000
0000
0000
0000
0000
0000
0000
0000
0000
0000
0000
0000
0000
0000
2100
0000
0000
0000
0000
0000
0000
0000
0000
0000
0000
0000
0000
0000
0000
0000
0000
0000
0000
0000
0000
0000
0000
0000
3010
0000
0000
0000
0000
0000
0000
0000
0000
0000
0000
0000
0000
0000
0000
0000
0000
0000
0000
0000
0000
0000
0000
0000
0000
0000
0000
0000
0000
0000
0000
0000
0000
0000
0000
0000
0000
0000
0000
0000
0000
0000
0000
0000
0000
0000
0000
0000
2110
0000
0000
0000
0000
0000
0000
0000
0000
0000
0000
0000
0000
0000
0000
0000
0000
0000
0000
0000
0000
0000
0000
0000
0000
0000
0000
0000
0000
0000
0000
0000
0000
0000
0000
0000
0000
0000
0000
0000
0000
0000
0000
0000
0000
0000
0000
0000
3001
0000
0000
0000
0000
0000
0000
0000
0000
0000
0000
0000
0000
0000
0000
1000
0000
0000
0000
0000
0000
0000
0000
0000
0100
0000
0000
0000
0000
0000
0000
0000
00M0
0000
0000
0000
0000
0000
0000
0100
0000
0000
0000
0000
0000
0000
0000
0000
,  // measure 55
0010
0000
0000
0000
0000
0000
0000
0000
0000
0000
0000
0000
0000
0000
0000
1000
0000
0000
0000
0000
0000
0000
0000
0000
0100
0000
0000
0000
0000
0000
0000
0000
00M0
0000
0000
0000
0000
0000
0000
0100
0000
0000
0000
0000
0000
0000
0000
0000
0002
0000
0000
0000
0000
0000
0000
0000
0000
0000
0000
0000
0000
0000
0000
0000
0000
0000
0000
0000
0000
0000
0000
0000
0003
0000
0000
0000
0000
0000
0000
0000
0000
0000
0000
0000
0000
0000
0000
0000
0000
0000
0000
0000
0000
0000
0000
0000
0002
0000
0000
0000
0000
0000
0000
0000
0000
0000
0000
0000
0000
0000
0000
0000
0000
0000
0000
0000
0000
0000
0000
0000
0003
0000
0000
0000
0000
0000
0000
0000
0000
0000
0000
0000
0000
0000
0000
0000
0000
0000
0000
0000
0000
0000
0000
0000
1000
0000
0000
0000
0000
0000
0000
0000
0000
0000
0000
0000
0100
0000
0000
0000
0000
0000
0000
0000
0000
0000
0000
0000
0010
0000
0000
0000
0000
0000
0000
0000
0000
0000
0000
0000
1000
0000
0000
0000
0000
0000
0000
0000
0000
0000
0000
0000
,  // measure 56
0010
0000
0000
0000
0000
0000
0000
0000
0000
0000
0000
0000
0002
0000
0000
0000
0000
0000
0000
0000
0000
0000
0000
0000
0000
0000
0000
0000
0000
0000
0000
0000
0000
0000
0000
0000
0000
0000
0000
0000
0000
0000
0000
0000
0000
0000
0000
0000
1003
0000
0000
0000
0000
0000
0000
0000
0000
0000
0000
0000
0000
0000
0000
0000
0000
0000
0000
0000
0000
0000
0000
0000
0021
0000
0000
0000
0000
0000
0000
0000
0000
0000
0000
0000
0000
0000
0000
0000
0000
0000
0000
0000
0000
0000
0000
0000
0130
0000
0000
0000
0000
0000
0000
0000
0000
0000
0000
0000
0000
0000
0000
0000
0000
0000
0000
0000
0000
0000
0000
0000
0001
0000
0000
0000
0000
0000
0000
0000
0000
0000
0000
0000
0000
0000
0000
0000
0000
0000
0000
0000
0000
0000
0000
0000
0010
0000
0000
0000
0000
0000
0000
0000
0M00
0000
0000
0000
0000
0000
0000
0010
0000
0000
0000
0000
0000
0000
0000
0000
1000
0000
0000
0000
0000
0000
0000
0000
0000
0000
0000
0000
0000
0000
0000
0001
0000
0000
0000
0000
0000
0000
0000
0000
,  // measure 57
0100
0000
0000
0000
0000
0000
0000
0000
00M0
0000
0000
0000
0000
0000
0000
0100
0000
0000
0000
0000
0000
0000
0000
0000
0010
0000
0000
0000
0000
0000
0000
0000
0000
0000
0000
0000
0000
0000
0000
0001
0000
0000
0000
0000
0000
0000
0000
0000
2000
0000
0000
0000
0000
0000
0000
0000
0000
0000
0000
0000
0000
0000
0000
0000
0000
0000
0000
0000
0000
0000
0000
0000
3000
0000
0000
0000
0000
0000
0000
0000
0000
0000
0000
0000
0000
0000
0000
0000
0000
0000
0000
0000
0000
0000
0000
0000
2000
0000
0000
0000
0000
0000
0000
0000
0000
0000
0000
0000
0000
0000
0000
0000
0000
0000
0000
0000
0000
0000
0000
0000
3000
0000
0000
0000
0000
0000
0000
0000
0000
0000
0000
0000
0000
0000
0000
0000
0000
0000
0000
0000
0000
0000
0000
0000
0001
0000
0000
0000
0000
0000
0000
0000
0000
0000
0000
0000
0100
0000
0000
0000
0000
0000
0000
0000
0000
0000
0000
0000
1000
0000
0000
0000
0000
0000
0000
0000
0000
0000
0000
0000
0100
0000
0000
0000
0000
0000
0000
0000
0000
0000
0000
0000
,  // measure 58
0001
2000
0000
0000
3100
0000
1020
0000
0031
0000
0000
0000
0211
0000
0000
0000
,  // measure 59
0010
1300
0001
0000
;
