#VERSION:0.83;
#TITLE:Dancing is Over;
#SUBTITLE:;
#ARTIST:lapix;
#TITLETRANSLIT:;
#SUBTITLETRANSLIT:;
#ARTISTTRANSLIT:;
#GENRE:;
#ORIGIN:;
#CREDIT:;
#BANNER:Dancing is Over.png;
#BACKGROUND:Dancing is Over-bg.png;
#PREVIEWVID:;
#JACKET:Dancing is Over-jacket.png;
#CDIMAGE:;
#DISCIMAGE:;
#LYRICSPATH:;
#CDTITLE:;
#MUSIC:Dancing is Over.ogg;
#OFFSET:-0.020000;
#SAMPLESTART:94.077591;
#SAMPLELENGTH:15.000000;
#SELECTABLE:YES;
#DISPLAYBPM:140.000000:160.000000;
#BPMS:0.000=140.000,
70.000=141.000,
74.000=142.000,
78.000=143.000,
82.000=144.000,
86.000=146.000,
90.000=148.000,
94.000=150.000,
165.000=151.000,
169.000=152.000,
173.000=153.000,
177.000=154.000,
181.000=156.000,
185.000=157.000,
189.000=158.000,
193.000=159.000,
197.000=160.000,
229.000=80.000,
231.000=160.000;
#STOPS:36.500=0.857,
121.500=0.400,
229.000=1.500,
259.500=0.750;
#DELAYS:;
#WARPS:;
#TIMESIGNATURES:0.000=4=4;
#TICKCOUNTS:0.000=4;
#COMBOS:0.000=1;
#SPEEDS:0.000=1.000=0.000=0;
#SCROLLS:0.000=1.000;
#FAKES:;
#LABELS:0.000=Song Start;
#BGCHANGES:;
#KEYSOUNDS:;
#ATTACKS:
;

//---------------dance-single - ----------------
#NOTEDATA:;
#CHARTNAME:;
#STEPSTYPE:dance-single;
#DESCRIPTION:;
#CHARTSTYLE:;
#DIFFICULTY:Hard;
#METER:15;
#RADARVALUES:0.648411,0.876859,0.169868,0.231021,0.628512,668.000000,643.000000,25.000000,34.000000,0.000000,0.000000,0.000000,0.000000,0.000000,0.648411,0.876859,0.169868,0.231021,0.628512,668.000000,643.000000,25.000000,34.000000,0.000000,0.000000,0.000000,0.000000,0.000000;
#CREDIT:;
#DISPLAYBPM:140.000000:160.000000;
#NOTES:
// measure 0
0000
0000
0000
0000
,  // measure 1
0000
0000
0000
0000
,  // measure 2
0000
0000
0000
0000
,  // measure 3
0000
0000
0000
0000
,  // measure 4
0000
0000
0000
0000
,  // measure 5
0000
0000
0000
0000
,  // measure 6
1000
0000
0000
0000
0101
0000
0000
0011
0000
0000
0010
0000
0100
0000
0000
0000
,  // measure 7
1000
0000
0001
0000
1100
0000
0000
1010
0000
1000
0010
0000
0100
0000
0000
0000
,  // measure 8
0001
0000
1000
0000
0010
0000
1000
0100
0000
1000
0100
0000
0010
0000
0001
0000
,  // measure 9
0200
0000
0000
0000
0000
0000
0300
0000
0001
0000
1000
0000
1100
0000
0000
1001
,  // measure 10
0000
0000
0001
0000
1010
0000
0000
0000
1000
0000
0001
0000
0101
0000
0000
1001
,  // measure 11
0000
1000
0010
0000
1010
0000
0000
0000
1000
0000
0001
0100
0010
0000
0100
0001
,  // measure 12
0000
0001
1000
0000
0100
0000
0010
0000
0001
0000
1000
0100
0010
0000
0100
1000
,  // measure 13
0000
1000
0001
0000
0100
0000
0100
0000
0001
0000
0100
0000
0010
0000
0100
0000
,  // measure 14
1000
0000
0100
0000
0001
0000
1000
0100
1000
0000
0100
0000
0010
0000
0100
0000
,  // measure 15
0001
0000
0100
0000
1000
0000
0001
0100
0020
0000
0000
0000
0000
0000
0000
0000
,  // measure 16
0000
0000
0200
0000
,  // measure 17
0000
0000
0330
0000
1001
0000
0000
1000
,  // measure 18
0100
1000
0000
0100
0000
0010
0000
0002
0000
0000
0000
0000
0000
0000
0000
0000
,  // measure 19
0000
0000
0000
0000
0003
0000
1000
0010
1000
0001
0100
0000
0000
0000
2200
0000
,  // measure 20
3300
0000
0000
0000
0000
0000
0001
0010
0001
1000
0100
0000
0000
0000
0202
0000
,  // measure 21
0303
0000
0000
0000
0000
0000
1001
0000
1000
0000
0010
0000
0100
0000
0010
1000
,  // measure 22
0000
0001
0000
0010
0000
0100
0000
1000
0000
0001
0000
0100
0000
0000
0100
0000
,  // measure 23
0001
0010
0000
0100
0000
1000
0000
0220
0000
0000
0000
0000
0000
0000
0000
0000
,  // measure 24
0000
0000
0000
0000
0330
0000
0000
0000
1000
0100
1000
0100
0010
0000
0010
0000
,  // measure 25
0001
0100
0000
0001
1000
0000
1010
0000
0002
0000
0000
0000
1003
0000
0100
0000
,  // measure 26
1000
0010
0000
0100
0010
1000
0010
1000
0002
0000
0000
0000
0013
0000
0100
0000
,  // measure 27
1000
0100
0000
0010
0100
0010
0100
0010
1000
0000
1000
0000
0010
0000
0001
0000
,  // measure 28
0001
0000
1000
0001
0000
0100
0010
0000
0001
0000
0001
0000
0010
0000
1000
0000
,  // measure 29
0001
0000
0010
0000
0002
0000
2003
0000
3001
0000
0001
0100
0010
0000
1000
0000
,  // measure 30
1000
0100
0010
0000
0001
0000
0100
0000
0001
0000
0001
0010
0100
0000
1000
0000
,  // measure 31
1000
0010
0100
0000
1000
0000
0100
0000
0001
0000
0100
0001
0000
1000
0001
0000
,  // measure 32
0010
0100
2000
0000
3002
0000
0103
0100
,  // measure 33
0100
0010
0000
0010
1000
0000
0010
0000
1000
0000
0100
0000
0010
0001
0010
0000
,  // measure 34
0100
0000
0100
0000
1000
0001
1000
0000
0010
0000
0100
0001
0100
0010
1000
0000
,  // measure 35
0001
0000
0001
0000
1000
0000
0001
0010
0100
0000
1000
0001
0100
0000
0100
0010
,  // measure 36
0000
0010
0000
0000
1000
0000
0001
0100
0010
0000
1000
0001
0010
0001
0000
0010
,  // measure 37
0100
0010
0100
0010
0002
0000
2003
0000
3010
0000
0100
0001
0100
0010
1000
0000
,  // measure 38
0010
0000
0010
0000
1000
0000
0001
0010
0000
0010
0100
0000
1000
0100
1000
0001
,  // measure 39
0000
0101
0001
1000
0010
0100
1000
0100
,  // measure 40
0010
0000
1000
0000
1000
0000
0001
0000
0010
0000
0100
0000
0001
0000
0100
0010
,  // measure 41
0000
0100
1000
0000
2002
0000
0000
0000
0000
0000
0000
0000
0000
0000
0000
0000
,  // measure 42
0000
0000
0000
0000
,  // measure 43
3000
1000
0100
0000
,  // measure 44
0100
2003
0100
0000
,  // measure 45
0100
0000
3002
0000
0010
0000
0000
0010
,  // measure 46
1000
0000
2003
0000
0010
0000
0000
0010
,  // measure 47
0001
0000
3002
0000
0100
0000
0000
0100
,  // measure 48
1000
0000
2003
0000
0100
0000
0000
0100
,  // measure 49
0001
0000
3001
0100
0001
0100
0010
0100
,  // measure 50
0010
0100
0001
1000
0001
1000
0100
1000
,  // measure 51
0100
0000
1000
0000
0100
0000
0010
0100
0010
0000
0100
0000
0010
0001
0010
0000
,  // measure 52
0001
0000
0010
0000
0001
0000
1000
0001
1000
0000
0001
0000
1000
0010
1000
0000
,  // measure 53
0010
0000
1000
0000
0010
0000
0100
0001
0100
0000
0010
0000
1000
0001
0000
1000
,  // measure 54
0001
0000
0010
0000
0010
0000
0100
1000
0100
0000
0010
0000
0001
1000
0000
1000
,  // measure 55
0001
0000
0100
0000
0010
1000
0001
0000
1000
0010
0100
0000
0001
1000
0100
0000
,  // measure 56
0010
0001
1000
0000
0001
0010
0100
0010
0001
1000
0100
1000
0010
0100
0001
0100
,  // measure 57
0010
1000
0001
1000
0200
0000
0000
0000
0000
0000
0300
0000
1000
0000
0100
0000
,  // measure 58
0010
0001
0000
0001
1000
0000
0001
0000
0101
0000
0000
0000
0001
0000
0100
0000
,  // measure 59
0010
1000
0000
1000
0001
0000
1000
0000
1100
0000
0000
0000
0100
0000
1000
0000
,  // measure 60
0010
0000
0100
0001
0100
0001
1000
0000
1000
0000
0001
0000
0100
0000
0001
0000
,  // measure 61
0010
0000
0100
1000
0100
1000
0001
0000
0010
0000
0010
0000
0001
0000
0010
0000
,  // measure 62
0100
1000
0000
1000
0001
0000
0100
0000
1010
0000
0000
0000
1000
0000
0010
0000
,  // measure 63
0100
0001
0000
0001
1000
0000
0100
0000
0011
0000
0000
0000
0001
0000
0100
0000
,  // measure 64
1000
0000
0100
0010
0000
0100
0001
0000
1000
0000
0100
0000
0022
0000
0000
0000
,  // measure 65
0033
0000
0000
0000
1000
0000
0001
0000
0100
0010
0000
0100
0001
0000
1000
0000
,  // measure 66
1100
0000
0000
0000
0001
0000
1000
0000
0100
0010
0000
0100
1000
0000
0001
0000
,  // measure 67
0101
0000
0000
0000
0100
0000
0010
1000
0001
0000
1000
0010
0100
0000
0001
0010
,  // measure 68
0000
0010
0000
0000
0100
0000
0010
0001
1000
0000
0001
0010
0100
0010
0100
0000
,  // measure 69
1000
0000
1000
0000
0001
0000
0100
0001
0100
0000
0001
1000
0100
0000
1000
0100
,  // measure 70
1000
0000
0100
1000
0001
0010
0001
0010
0001
1000
0001
1000
0010
1000
0010
1000
,  // measure 71
0010
0100
0010
0100
0002
0000
0000
0000
0000
0000
0000
0000
0000
0000
0000
0000
,  // measure 72
0000
2000
0000
0000
,  // measure 73
3003
0000
0000
0000
1000
0000
0100
0000
0010
0000
0010
0100
1000
0100
0000
0010
,  // measure 74
0000
0010
0000
0000
0001
0100
0000
0010
1000
0000
0010
0100
0001
0100
0000
0010
,  // measure 75
0000
0010
0000
0000
1000
0001
0000
0001
0010
0000
0100
0001
0100
0000
0010
0001
,  // measure 76
0000
0001
0000
0000
1000
0000
0001
0100
0010
0000
0100
1000
0100
0010
0000
1000
,  // measure 77
0000
1000
0000
0000
0001
0000
0100
0001
1000
0000
0100
1000
0001
0000
0010
0100
,  // measure 78
0000
0100
0000
0000
0010
0000
0100
1000
0010
0000
0100
0001
1000
0000
0010
0100
,  // measure 79
0000
0100
0001
0000
1000
0000
0100
1000
0010
0000
1000
0000
0001
0100
0000
0010
,  // measure 80
0100
0000
0001
0000
0001
0000
0100
0001
0010
0000
0001
0000
0010
0100
0000
0100
,  // measure 81
1000
0000
0001
0000
1000
0000
0010
0000
0100
0000
0001
0000
1000
0010
0000
0100
,  // measure 82
0000
0100
0000
0000
0001
0000
0010
0000
0100
0000
1000
0000
0001
0010
0000
0100
,  // measure 83
0000
0100
0000
0000
1000
0000
0010
0000
0001
0000
0010
0000
0100
0000
0001
0010
,  // measure 84
0000
0010
0000
0000
0001
0000
0010
0000
1000
0000
0010
0000
0001
0000
1000
0010
,  // measure 85
0000
0010
0000
0000
1000
0000
0010
0000
0100
0000
0001
0000
0010
0000
0100
0000
,  // measure 86
2000
0000
3001
0010
0100
1000
0010
0100
,  // measure 87
0002
0000
0000
0000
2003
0000
0000
0100
0000
0000
0001
0000
0000
0100
0000
0000
,  // measure 88
0010
0000
0000
0002
0000
0000
0000
0000
0000
0000
0000
0000
0000
0000
0000
0000
,  // measure 89
3003
0000
0000
0000
;

//---------------dance-single - ----------------
#NOTEDATA:;
#CHARTNAME:;
#STEPSTYPE:dance-single;
#DESCRIPTION:;
#CHARTSTYLE:;
#DIFFICULTY:Medium;
#METER:12;
#RADARVALUES:0.410595,0.544257,0.135894,0.543578,0.152881,423.000000,403.000000,20.000000,80.000000,0.000000,0.000000,0.000000,0.000000,0.000000,0.410595,0.544257,0.135894,0.543578,0.152881,423.000000,403.000000,20.000000,80.000000,0.000000,0.000000,0.000000,0.000000,0.000000;
#CREDIT:;
#DISPLAYBPM:140.000000:160.000000;
#NOTES:
0000
0000
0000
0000
,
0000
0000
0000
0000
,
0000
0000
0000
0000
,
0000
0000
0000
0000
,
0000
0000
0000
0000
,
0000
0000
0000
0000
,
1000
0000
0000
0000
0001
0000
0000
0001
0000
0000
0010
0000
0200
0000
0000
0000
,
1300
0000
0000
0000
0001
0000
0000
0001
0000
0000
0100
0000
0020
0000
0000
0000
,
1030
0000
0001
0000
0100
0000
0000
0001
0000
0001
1000
0000
0100
0000
0000
0000
,
0220
0000
0000
0000
0330
0000
0000
0000
0001
0000
0000
0000
0100
0000
0000
0100
,
0000
0000
0010
0000
2000
0000
0000
0000
3001
0000
0000
0000
0010
0000
0000
0010
,
0000
0100
2000
0000
3100
1000
0001
0000
,
0001
1000
0000
0010
0000
0010
0000
0000
0100
0000
0001
0000
1000
0000
0000
0000
,
1000
0001
0010
0010
0200
0000
2300
0000
,
3020
0000
0230
0302
0000
2003
3200
0320
,
0000
0000
0230
2300
0000
0000
0000
0000
,
0000
0000
0002
0000
,
0000
0000
3003
0000
1002
0000
0000
0103
,
0000
0000
0000
0001
2001
0000
0000
3100
,
0000
0000
0000
0100
0120
0000
0000
0031
,
0000
1000
0000
0010
0120
0000
0000
1030
,
0000
0001
0000
1000
0100
1000
0100
0010
,
0001
0010
0100
1000
0001
0100
0010
1000
,
0010
0100
0001
1000
0020
0000
0000
0000
,
0000
0000
0000
0000
2030
3000
2000
3000
,
1000
1000
2000
3000
0001
0000
0010
0100
,
0000
0100
0000
0000
0010
0000
0001
0000
1000
0000
0000
0000
0010
0000
0100
0000
,
0000
0100
0000
0000
0002
0000
0000
0000
1003
0000
0100
0000
1000
0000
0001
0000
,
0100
0002
0003
0000
1000
0010
1000
0002
,
0000
2000
3003
0000
1000
0100
0010
0000
,
0100
1000
0001
0001
1000
1000
0000
0010
,
0200
0000
0301
0100
0001
1000
0100
2000
,
3000
0000
0001
0010
0001
0000
1000
0010
,
0020
0000
1030
0001
0010
0000
1100
0000
,
0011
0000
0001
1000
0010
0000
0101
0000
,
1010
0000
1000
0100
1000
0001
0100
0002
,
0003
0000
0001
0010
0001
1000
0010
1000
,
1000
1000
0100
0000
0011
0000
0110
0000
,
0100
0000
1000
0000
0001
0000
0000
0000
1010
0000
0000
0000
0110
0000
0000
0101
,
0000
1100
1000
0100
1000
0000
1001
0000
,
0000
0000
1000
0000
0001
0000
0100
0000
0001
0000
0000
0000
1001
0000
0000
1000
,
0000
0001
0020
0000
0000
0000
0000
0000
,
0000
0030
0000
0000
,
0000
0100
1000
0000
1000
0001
0000
0001
,
0000
0100
0000
0020
0000
0000
0000
0000
,
0000
0000
0030
0000
0000
1000
0010
1000
,
0001
0000
0010
0200
0000
0000
0000
0000
,
0000
0000
0300
0000
0000
0000
0100
1000
,
0000
0010
0000
0200
0000
0000
0000
0000
,
0300
0000
0000
0001
0100
0001
1000
0000
,
0020
0000
0000
0000
,
0030
0200
0302
0023
,
0230
2300
0000
3002
0203
0320
0000
0030
,
0200
0302
0000
0000
2000
0000
0000
0000
,
0000
3003
0000
0000
,
0000
0000
1000
0100
0001
0000
0001
0100
,
1000
0000
1000
0010
0001
0000
0001
0010
,
1000
0001
0020
0000
0000
0030
0100
0000
,
1000
0000
0000
1000
0001
0000
0100
0000
0010
0000
0000
0000
0100
0000
0000
0000
,
0001
0000
0000
0001
1000
0000
0100
0000
0010
0000
0000
0000
0001
0000
0010
0000
,
0001
1000
0100
2000
3000
0000
1000
0010
,
1000
0001
0100
0002
2000
3003
0001
0000
,
0100
0000
0000
0100
1000
0000
0100
0000
0001
0000
0000
0000
1000
0000
0000
0000
,
0100
0000
0000
0100
0001
0000
0100
0000
1000
0000
0000
0000
1000
0000
0001
0000
,
0010
0000
0000
0001
0000
0001
0100
0000
0010
0000
0000
0000
2002
0000
0000
0000
,
0003
0000
0000
0000
3100
0000
0000
0000
1100
0000
0000
1000
0100
0000
0010
0000
,
0002
0000
0000
0000
0103
0000
0000
0000
0101
0000
0000
0001
0100
0000
0010
0000
,
1000
0000
1000
0100
0010
0100
0010
0002
,
0003
0000
0001
0100
0010
0100
0010
2000
,
0002
3003
2000
0000
3200
0000
0320
0000
,
0032
0203
0000
0320
2030
3002
0000
0000
,
0023
0230
0000
0000
2000
0000
0000
0000
,
0300
0002
0000
0000
,
3003
0000
0000
0000
0001
0000
0100
0000
0001
0000
0100
0000
0010
0000
0000
1000
,
0000
1000
0000
0000
1000
0000
0100
0000
1000
0000
0100
0000
0010
0000
0000
0001
,
0000
0001
0000
0000
0001
0000
0100
0000
0010
0000
0100
0000
0010
0000
0000
1000
,
0000
1000
0000
0000
1000
0000
0100
0000
0010
0000
0100
0000
0010
0000
0000
0001
,
0000
0001
0000
0000
0001
0000
0100
0000
0001
0000
0010
0000
0001
0000
0000
1000
,
0000
1000
0000
0000
1000
0000
0100
0000
1000
0000
0010
0000
1000
0000
0000
0001
,
0000
0000
0001
0000
1000
0000
0010
0000
0001
0000
0010
0000
1000
0000
0000
0001
,
0000
0000
0001
0000
0001
0000
0010
0000
1000
0000
0010
0000
0001
0000
0000
1000
,
0000
0000
1000
0000
0001
0000
0100
0000
0010
0000
0000
0000
1000
0000
0000
0001
,
0000
0001
0000
0000
1000
0000
0100
0000
0010
0000
0000
0000
0001
0000
0000
1000
,
0000
1000
0000
0000
0001
0000
0100
0000
1000
0000
0000
0000
0100
0000
0000
0010
,
0000
0010
0000
0000
1000
0000
0100
0000
0001
0000
0000
0000
0100
0000
0000
0010
,
0000
0010
0000
0000
0002
0000
0000
0000
2003
0000
0000
0000
3020
0000
0000
0000
,
0230
0302
2003
3200
,
0320
0000
0000
0000
0031
0000
0000
0100
0000
0000
1000
0000
0000
0100
0000
0000
,
0001
0000
0000
0020
0000
0000
0000
0000
0000
0000
0000
0000
0000
0000
0000
0000
,
0030
0000
0000
0000
;

//---------------dance-single - ----------------
#NOTEDATA:;
#CHARTNAME:;
#STEPSTYPE:dance-single;
#DESCRIPTION:;
#CHARTSTYLE:;
#DIFFICULTY:Easy;
#METER:8;
#RADARVALUES:0.288290,0.362838,0.108716,0.441657,0.030576,297.000000,281.000000,16.000000,65.000000,0.000000,0.000000,0.000000,0.000000,0.000000,0.288290,0.362838,0.108716,0.441657,0.030576,297.000000,281.000000,16.000000,65.000000,0.000000,0.000000,0.000000,0.000000,0.000000;
#CREDIT:;
#DISPLAYBPM:140.000000:160.000000;
#NOTES:
0000
0000
0000
0000
,
0000
0000
0000
0000
,
0000
0000
0000
0000
,
0000
0000
0000
0000
,
0000
0000
0000
0000
,
0000
0000
0000
0000
,
2000
0000
0000
0000
0100
0000
0000
3100
0000
0000
0000
0000
2000
0000
0000
0000
,
3002
0000
0000
0000
0100
0000
0000
0103
0000
0000
0000
0000
0002
0000
0000
0000
,
1003
0100
0001
0100
,
0220
0000
0000
0000
0330
0000
0000
0000
2000
0000
0000
0000
0010
0000
0000
3020
,
0000
0000
0000
0000
0230
0000
0000
0000
0302
0000
0000
0000
0010
0000
0000
0023
,
0000
0230
1300
1000
,
0100
0010
0001
0001
,
0100
0000
0020
0030
2000
0000
3200
0000
,
0320
0032
0203
0320
,
2030
3200
0302
0000
,
0000
0000
0003
0000
,
0000
0000
0000
0000
1000
0000
0000
1000
,
0000
0000
0000
0001
0100
0000
0000
0100
,
0000
0000
0000
0001
0010
0000
0000
0010
,
0000
0000
0000
0100
1000
0000
0000
1000
,
0000
0000
0000
0001
2000
0000
0000
0000
,
3002
0000
2003
3020
,
0230
0302
0023
0000
,
0000
0000
0030
0000
,
0000
0000
0000
0000
0002
0000
0103
0100
,
0000
0100
0000
0000
0001
0000
0000
0000
2000
0000
0000
0000
3100
0000
0100
0000
,
0000
0100
0000
0000
1000
0000
0000
0000
0001
0000
0100
0000
0000
0000
0010
0000
,
0100
0000
0001
0000
1000
0100
0000
0010
,
0000
0010
0100
0000
2000
0000
3100
0100
,
0000
0010
0000
0000
0020
0000
0030
0000
0001
0000
0100
0000
0000
0010
0000
0000
,
0010
1000
0010
0001
,
0010
0100
0100
0200
,
0300
0000
1001
0000
1000
0100
0000
0100
,
0010
0000
0010
0000
0001
0100
0000
0100
,
0010
1000
0100
0010
,
0010
0001
0100
0010
,
0010
0010
2000
0000
0100
0000
3010
0000
,
1000
0002
0100
0013
,
0001
1000
1000
0011
,
1000
0000
0000
0000
0001
0000
0000
0000
0001
0000
0000
0000
1010
0000
0000
1000
,
0000
1000
0002
0000
0003
0000
0000
0000
,
0000
0000
0000
0000
,
0000
1000
0100
0000
,
1000
0001
0100
0000
,
0001
1000
0010
0000
,
1000
0001
0010
0000
,
0001
1000
0100
0000
,
1000
0001
0100
0000
,
0100
0220
0000
0000
,
0330
0000
0000
0000
,
0000
0002
0000
2003
,
0000
3002
0023
0230
,
2300
3002
0203
0000
,
0000
0020
0000
0000
,
0330
1000
0010
0001
,
0010
1000
0100
0001
,
0100
0000
2000
0000
0000
3000
0001
0000
,
0100
0010
0010
1000
,
0100
0010
0010
0001
,
0010
0000
0100
2000
3000
0000
1000
0000
,
0010
0000
0100
0002
0003
0000
1000
0000
,
0100
0010
0010
0001
,
0100
0010
0010
1000
,
0100
0001
0100
0220
,
0330
1000
0010
0101
,
1000
0001
0010
1100
,
0001
0000
1000
0000
0010
0000
0100
0001
,
0100
0000
0001
0000
0010
0000
0100
1000
,
0200
0300
2000
0000
0000
0000
3002
0000
,
0000
2003
3020
0230
,
0302
2003
3200
0000
,
0000
0020
0000
0000
,
0330
1100
0100
1000
,
0001
0101
0001
1000
,
0100
0011
0001
1000
,
0010
1010
1000
0001
,
0010
1100
1000
0010
,
0100
0101
0001
0010
,
0100
0011
0010
0100
,
1000
1010
0010
0100
,
0001
1000
1000
0100
,
0010
0100
0100
0010
,
0001
0010
0010
0001
,
1000
0001
0001
1000
,
0010
0100
0010
1000
,
0010
0100
0001
0010
,
0100
2000
0000
0000
,
0002
0000
0000
0000
,
3003
0000
0000
0000
;

//---------------dance-single - ----------------
#NOTEDATA:;
#CHARTNAME:;
#STEPSTYPE:dance-single;
#DESCRIPTION:;
#CHARTSTYLE:;
#DIFFICULTY:Beginner;
#METER:3;
#RADARVALUES:0.167927,0.269835,0.020384,0.027179,0.000000,173.000000,170.000000,3.000000,4.000000,0.000000,0.000000,0.000000,0.000000,0.000000,0.167927,0.269835,0.020384,0.027179,0.000000,173.000000,170.000000,3.000000,4.000000,0.000000,0.000000,0.000000,0.000000,0.000000;
#CREDIT:;
#DISPLAYBPM:140.000000:160.000000;
#NOTES:
0000
0000
0000
0000
,
0000
0000
0000
0000
,
0000
0000
0000
0000
,
0000
0000
0000
0000
,
0000
0000
0000
0000
,
0000
0000
0000
0000
,
1000
0000
0100
0000
,
0001
0000
0100
0000
,
1000
0000
1000
0000
,
0001
0000
1000
0000
,
1000
0000
0010
0000
,
0100
0000
0001
0000
,
0001
0000
0010
0000
,
0100
0000
1000
0000
,
0000
0000
0001
0000
,
0000
0000
1001
0000
,
0000
0000
0000
0000
,
0000
0000
0000
0000
1000
0000
0000
1000
,
0000
0000
0000
0000
0001
0000
0000
0001
,
0000
0000
0000
0000
0010
0000
0000
0010
,
0000
0000
0000
0000
0100
0000
0000
0100
,
0000
0000
1000
0000
,
0010
0000
0100
0000
,
0001
0000
0020
0000
,
0000
0000
0030
0000
,
0000
0000
1000
0000
,
0000
0001
0001
0000
,
0000
0000
1000
0000
0100
0000
0000
0100
,
0000
0000
0000
0000
0010
0000
0000
0010
,
0000
0000
0001
0000
,
0000
0001
1000
0000
,
1000
0000
0100
0000
0000
0100
0000
0000
,
0000
0010
0000
0010
,
0000
0001
0000
0100
,
0000
0010
0000
0100
,
0000
0001
0000
1000
,
0000
0001
0000
0010
,
0000
0100
0000
1000
,
0000
0001
0000
0100
,
0000
0010
0000
1000
,
0000
0001
0000
0010
,
0000
1001
0000
0000
,
0000
0000
0000
0000
,
0000
1000
0000
1000
,
0000
0001
0000
0001
,
0000
1000
0000
1000
,
0000
0001
0000
0001
,
0000
1000
0000
1000
,
0000
0001
0000
0001
,
0000
1001
0000
0000
,
0000
0000
0000
0000
,
0000
1000
0000
0100
,
0000
0010
0000
0001
,
0000
0100
0020
0000
,
0000
0030
0000
0000
,
0000
1000
1000
0010
,
0010
0100
0100
0001
,
0001
0010
0000
0001
,
0000
0001
0010
1000
,
0000
1000
0010
0001
,
0000
0001
0000
1000
,
0000
1000
0000
0001
,
0000
0001
0100
1000
,
0000
1000
0100
0001
,
0000
0001
0000
1000
,
0000
1000
0000
1000
,
0010
0001
0000
0001
,
0010
1000
0000
1000
,
0000
0001
0000
0001
,
0000
0001
0010
0001
,
0000
1000
0100
1000
,
0000
1000
0020
0000
,
0000
0030
0000
0000
,
0000
1000
1000
1000
,
0000
0001
0001
0001
,
0000
0100
0100
0100
,
0000
0010
0010
0010
,
0000
1000
1000
1000
,
0000
0001
0001
0001
,
0000
0010
0010
0010
,
0000
0100
0100
0100
,
0000
1000
0100
1000
,
0000
0001
0100
0001
,
0000
1000
0010
1000
,
0000
0001
0010
0001
,
0000
1000
0000
0100
,
0000
0010
0000
0001
,
0000
0200
0000
0000
,
0000
0300
0000
0000
;
