#TITLE:Dance the Nation (Extended Mix);
#SUBTITLE:;
#ARTIST:Edo;
#TITLETRANSLIT:;
#SUBTITLETRANSLIT:;
#ARTISTTRANSLIT:;
#GENRE:;
#CREDIT:;
#MUSIC:Dance The Nation (Extended Mix).ogg;
#BANNER:Dance The Nation (Extended Mix).png;
#BACKGROUND:Dance The Nation (Extended Mix) bg.png;
#CDTITLE:;
#SAMPLESTART:99.477;
#SAMPLELENGTH:12.817;
#SELECTABLE:YES;
#OFFSET:-0.308;
#BPMS:0.000=150.026
,124.000=150.126
,196.000=150.026
,244.000=149.526
,262.000=150.026
;
#STOPS:;
#BGCHANGES:;
#FGCHANGES:;

//--------------- dance-single - ----------------
#NOTES:
     dance-single:
     :
     Hard:
     13:
     0,0,0,0,0:
0000
0000
0000
0000
,
0000
0000
0000
0000
,
0000
0000
0000
0000
,
0000
0000
0000
0000
,
1000
0001
0100
0001
0010
0001
1000
0000
,
0100
1000
0010
0100
0001
0010
0100
0000
,
1000
0001
0100
0001
0010
0100
0010
0000
,
0001
0100
0010
0100
0010
0100
0001
0000
,
0100
0000
0002
0000
0000
0103
0000
0010
,
1000
0000
0200
0000
0000
0310
0000
0001
,
0010
0000
0002
0000
0000
1003
0000
0010
,
0100
0001
1000
0001
0100
0001
0100
0010
,
1000
0010
1000
0001
0000
1001
0000
1000
,
0100
0100
0010
0001
0000
0110
0000
0010
,
0100
0100
1000
1010
0000
0010
0000
0100
,
0001
0001
0010
0001
1000
0100
0001
0100
,
2000
0000
0000
0000
,
0000
0000
3000
0000
2002
0000
0000
3003
,
0001
0000
1000
0001
0000
0000
0100
0000
0001
0000
0100
0010
0000
0000
1000
0000
,
0010
0000
0100
0001
0000
0000
0100
0000
0001
0000
1000
0100
0000
0000
1000
0000
,
0001
0010
0100
1000
0001
0010
0100
1000
,
0001
0100
1000
0100
0001
0100
1000
0100
,
0001
0000
0010
0100
0000
0000
1000
0000
0100
0000
0010
0001
0000
0000
0010
0000
,
0001
0000
1000
0001
0000
0000
0100
0000
0010
0000
0100
0001
0000
0000
1000
0000
,
0001
0100
0010
1000
0001
0100
0010
1000
,
0001
0010
1000
0010
0001
1000
0002
0000
,
1003
0100
0010
0001
1000
0000
0001
1000
,
0010
0100
0010
1000
0100
1000
0001
0100
,
2000
0000
3100
0002
0000
0013
2000
0000
,
3010
0001
1000
0010
0100
0000
0001
0100
,
0010
1000
0010
1000
0001
0000
1000
0100
,
0010
0001
1000
0100
0010
0001
0100
0001
,
2000
0000
3100
0002
0000
0103
2000
0000
,
3010
0100
0001
0100
0010
1000
0001
1000
,
0001
0010
1000
0010
0002
0000
0103
0010
,
1000
0100
0001
0100
2000
0000
3001
0010
,
0100
1000
0010
1000
0020
0100
0130
0001
,
0010
0001
1000
0100
0020
0001
0031
1000
,
0001
0100
1000
0100
0002
0000
1003
0001
,
1000
0010
0001
0010
2000
0000
3001
0020
,
0000
0031
1000
0200
0000
1300
0010
0200
,
0000
0310
1000
0001
1000
0001
1001
0000
,
1000
0100
0010
0001
1000
0100
0010
0001
,
1000
0100
0001
0100
1000
0010
0001
0010
,
1000
0010
0100
0002
0000
0013
0100
0010
,
0001
1000
0100
1000
0000
1001
0000
0001
,
1000
0010
0100
0001
1000
0010
0100
0001
,
1000
0010
0001
0010
1000
0100
0001
0100
,
1000
0100
0010
0002
0000
0013
0100
0010
,
0001
0100
0010
1010
0000
0100
0020
0000
,
1030
0000
0100
0000
0010
0000
0100
0000
1000
0100
1000
0000
0001
0000
1000
0000
,
0010
0000
0100
0000
0010
0000
1000
0000
0001
0100
0001
0000
0010
0000
0001
0000
,
0100
0001
0100
0020
0000
0130
0010
1000
,
0010
0100
0010
1000
0000
1100
0000
0100
,
0010
0010
0001
0100
0000
0010
0000
1000
,
0100
0100
0001
0100
0000
1000
0000
0001
,
0100
0100
1000
0100
0000
0001
0000
0010
,
1000
1000
0010
0001
0010
0010
0100
1000
,
0001
1000
0001
0000
1000
0000
0010
0000
0100
0000
0010
0000
0100
0000
0001
0000
,
0010
0001
0010
0000
0001
0000
1000
0000
0001
0000
0100
0000
0010
0000
1000
0000
,
0010
1000
0100
0020
0000
0031
0010
0001
,
0010
0100
0010
0200
0000
0301
2000
0000
,
3001
0010
0100
1000
0001
0010
0100
1000
,
0001
0010
1000
0010
0001
0100
1000
0100
,
0001
0100
0010
2000
0000
3100
0010
0100
,
1000
0001
0010
0001
0000
1001
0000
1000
,
0001
0100
0010
1000
0001
0100
0010
1000
,
0001
0100
1000
0100
0001
0010
1000
0010
,
0001
0010
0100
2000
0000
3100
0010
0100
,
1000
0010
0100
0002
0000
1003
0200
0000
,
0310
0000
0001
0100
0000
0000
1000
0000
0100
0000
0001
0010
0000
0000
1000
0000
,
0010
0000
0001
0100
0000
0000
1000
0000
0100
0000
0001
0010
0000
0000
1000
0000
,
0010
0001
1000
0010
0100
0001
1000
0010
,
0100
0001
1000
0001
1000
0100
0001
0010
,
1000
0000
0100
0001
0000
0000
0100
0000
1000
0000
0010
0001
0000
0000
0010
0000
,
1000
0000
0100
0001
0000
0000
0100
0000
1000
0000
0010
0001
0000
0000
0010
0000
,
1000
0100
0010
0001
1000
0100
0010
0001
,
1000
0001
1000
0100
0001
0010
2000
0000
,
3001
0010
0100
1000
0001
0000
1000
0001
,
0100
0010
0100
0001
0010
0001
1000
0010
,
0002
0000
0013
2000
0000
3100
0002
0000
,
0103
1000
0001
0100
0010
0000
1000
0010
,
0100
0001
0100
0001
1000
0000
0001
0010
,
0100
1000
0001
0010
0100
1000
0010
1000
,
0002
0000
0013
2000
0000
3010
0002
0000
,
0103
0010
1000
0010
0100
0001
1000
0001
,
0220
0000
0000
0000
,
0000
0000
0000
0000
,
0330
0000
0000
0000
;

//--------------- dance-single - ----------------
#NOTES:
     dance-single:
     :
     Challenge:
     16:
     0,0,0,0,0:
0000
0000
0000
0000
,
0000
0000
0000
0000
,
0000
0000
0000
0000
,
0000
0000
0000
0000
0000
0100
0100
0100
,
0001
0000
1000
0000
0010
0000
1000
0100
0000
0100
1000
0000
0001
0000
0010
0000
,
0100
0000
1000
0000
0010
0000
0100
0001
0000
0001
0010
0000
0100
0000
0010
0000
,
0001
0000
1000
0000
0010
0000
1000
0100
0000
0100
0010
0000
0100
0000
0010
0000
,
0001
0000
0100
0000
0010
0000
0100
0010
0000
0010
0100
0000
0001
0000
0100
0000
,
0010
0000
1001
0000
0000
1000
0000
1010
,
0010
0000
0110
0000
0000
0100
0000
0001
,
0011
0000
1001
0000
0000
1100
0000
1000
,
0100
0010
0001
1000
0010
1000
0010
0100
,
0010
1000
0100
1100
0000
0110
0000
0011
,
0001
0001
1000
1010
0000
0110
0000
0101
,
0100
0100
0010
0110
0000
1100
0000
1001
,
1000
0100
0010
0001
1000
0100
1000
0001
,
2002
0000
0000
0000
,
0000
0000
3003
0000
0220
0000
0000
0330
,
1000
0000
0001
1000
0000
0010
1000
0010
1000
0000
0010
0100
0000
0001
0100
0001
,
0100
0000
0010
1000
0000
0100
1000
0100
1000
0000
0001
0010
0000
0001
1000
0000
,
0001
0010
0001
0010
0100
0010
0100
1000
0100
1000
0100
0010
0100
0010
0001
0010
,
0001
0010
0100
1000
0001
0010
0100
1000
0001
0010
0100
1000
0001
0010
0100
1000
,
0001
0000
0100
0010
0000
1000
0010
0100
0010
0000
0100
0001
0000
0010
0100
0010
,
0100
0000
1000
0001
0000
0100
0010
0100
0010
0000
1000
0100
0000
1000
0010
0000
,
1000
0010
1000
0010
0100
0010
0100
0010
0100
0001
0100
0001
1000
0010
1000
0010
,
1000
0010
0100
0001
1000
0010
0100
0001
1000
0010
0100
0001
2000
0000
0000
0000
,
3001
0100
1000
0100
0101
0000
0001
0010
,
1000
0010
0001
0100
1000
0100
0001
1000
,
1200
0000
0310
0012
0000
0103
0210
0000
,
0310
1000
0001
0100
0110
0000
1010
0000
,
1000
0100
0001
0100
1100
0000
1001
0000
,
1000
0010
0001
0010
1000
0100
0010
0001
,
0201
0000
0310
2010
0000
3100
1002
0000
,
1003
0000
0100
0000
0001
0000
0100
0000
1100
0000
0000
0000
1000
0001
1000
0001
,
1000
0100
0100
0001
0011
0000
1000
0001
,
1000
0010
0010
0001
0101
0000
1000
0100
,
0100
0001
0010
0001
1001
1100
1100
1000
,
0100
0100
0001
0010
0011
0011
0110
0001
,
0100
0100
1000
0010
1010
0000
1000
0010
,
0010
0001
0100
0010
0110
0000
1000
0100
,
0001
1000
0010
0001
1000
0100
0001
1000
,
0010
0001
0100
0010
2000
0001
3001
0000
,
1000
0100
0001
1000
0001
0100
1000
0100
,
0010
0001
1000
0010
0001
1000
0001
0010
,
1000
0001
0100
0120
0000
1030
0100
0001
,
1000
0010
0001
1010
0000
1001
0000
1000
,
0001
0100
1000
0001
1000
0100
0001
0100
,
0010
1000
0001
0010
1000
0001
1000
0010
,
0001
0010
0100
1002
0000
1003
0100
0001
,
1000
0010
0001
0101
0000
0110
0020
0000
,
1030
0000
0100
0000
0010
0000
0100
0000
1000
0010
1000
0010
1000
0000
0001
0000
,
0100
0000
0010
0000
0100
0000
0001
0000
1000
0100
1000
0100
1000
0000
0100
0000
,
0010
0001
0100
0020
0000
0130
0001
1000
,
0010
0100
0010
1010
0000
1100
0000
0100
,
0010
0100
0010
0110
0000
0011
0000
0101
,
0001
0001
0001
1001
0000
1010
0000
1100
,
1000
1000
1000
1001
0000
0110
0000
1010
,
0010
0010
0010
0110
0100
0001
0100
0010
,
1000
0100
0010
0100
1000
0000
0100
0000
0010
0000
0001
0000
1000
0000
0010
0000
,
0100
0001
0100
0001
0100
0000
0001
0000
1000
0000
0010
0000
1000
0000
0100
0000
,
1000
0100
0010
0002
0000
0103
0010
1000
,
0010
1000
0100
0110
0000
1001
2000
0000
,
3001
0010
1000
0001
1000
0010
0001
0010
,
0100
1000
0001
0100
1000
0001
1000
0100
,
0001
1000
0010
0210
0000
0301
0010
1000
,
0001
0100
1000
0101
0000
1001
0000
0001
,
1000
0010
0001
1000
0001
0010
1000
0010
,
0100
0001
1000
0100
0001
1000
0001
0100
,
1000
0100
0010
0210
0000
0301
0010
1000
,
0001
0100
1000
0001
0000
1001
2000
0000
,
3001
0000
1000
0001
0000
0100
0001
0100
0001
0000
0100
0010
0000
1000
0010
1000
,
0010
0000
0100
0001
0000
0010
0001
0010
0001
0000
1000
0100
0000
1000
0001
0000
,
1000
0010
0100
0001
1000
0010
0100
0001
1000
0010
0100
0001
1000
0010
0100
0001
,
2000
0100
3010
0001
2000
0100
3010
0001
2000
0100
3010
0001
2000
0100
3010
0001
,
1000
0000
0010
0100
0000
0001
0100
0010
0100
0000
0010
1000
0000
0100
0010
0100
,
0010
0000
0001
1000
0000
0010
0100
0010
0100
0000
0001
0010
0000
0001
0100
0000
,
0001
0010
0100
1000
0001
0010
0100
1000
0001
0010
0100
1000
0001
0010
0100
1000
,
0002
0100
0013
1000
0002
0100
0013
1000
0002
0100
0013
1000
0002
0100
0013
1000
,
0001
0010
1000
0010
0011
0000
0001
0100
,
1000
0100
0001
0010
1000
0010
0001
1000
,
0021
0000
0130
2100
0000
3010
0120
0000
,
0130
0001
1000
0010
0110
0000
0101
0000
,
0001
0010
1000
0010
0011
0000
1001
0000
,
0001
0100
1000
0100
0001
0010
0100
1000
,
1020
0000
0130
0102
0000
0013
2001
0000
,
3001
0000
0010
0000
1000
0000
0010
0000
0011
0000
0000
0000
0001
1000
0001
1000
,
0002
0000
0000
0000
,
0000
0000
0000
0000
,
0003
0000
0000
0000
;
