#VERSION:0.83;
#TITLE:DOV;
#SUBTITLE:;
#ARTIST:Ras;
#TITLETRANSLIT:;
#SUBTITLETRANSLIT:;
#ARTISTTRANSLIT:;
#GENRE:;
#ORIGIN:;
#CREDIT:;
#BANNER:DOV.png;
#BACKGROUND:DOV-bg.png;
#PREVIEWVID:;
#JACKET:DOV-jacket.png;
#CDIMAGE:;
#DISCIMAGE:;
#LYRICSPATH:;
#CDTITLE:;
#MUSIC:DOV.ogg;
#OFFSET:-0.041000;
#SAMPLESTART:23.718351;
#SAMPLELENGTH:15.000000;
#SELECTABLE:YES;
#BPMS:0.000=152.000,
60.000=76.000,
62.000=152.000;
#STOPS:;
#DELAYS:;
#WARPS:;
#TIMESIGNATURES:0.000=4=4;
#TICKCOUNTS:0.000=4;
#COMBOS:0.000=1;
#SPEEDS:0.000=1.000=0.000=0;
#SCROLLS:0.000=1.000;
#FAKES:;
#LABELS:0.000=Song Start;
#BGCHANGES:-2.500=DOV.mp4=1.000=1=0=1===CrossFade==,
321.000=DOV-bg.png=1.000=0=0=1=====,
99999=-nosongbg-=1.000=0=0=0 // don't automatically add -songbackground-
;
#KEYSOUNDS:;
#ATTACKS: TIME=14.28:LEN=7.89:MODS=*0.25 100% stealth: TIME=39.15:LEN=1.58:MODS=*3 invert: TIME=40.73:LEN=1.58:MODS=*3 100% flip: TIME=40.73:LEN=1.58:MODS=*10 no invert: TIME=26.91:LEN=3.16:MODS=*.5 50% flip: TIME=33.23:LEN=3.16:MODS=*.5 50% flip: TIME=45.47:LEN=1.58:MODS=*3 invert: TIME=47.04:LEN=1.18:MODS=*10 no invert: TIME=47.04:LEN=1.18:MODS=*3 100% flip: TIME=49.81:LEN=0.20:MODS=*100 stealth: TIME=50.01:LEN=0.20:MODS=*100 no stealth: TIME=50.20:LEN=0.20:MODS=*100 stealth: TIME=50.40:LEN=0.20:MODS=*100 no stealth: TIME=52.18:LEN=3.95:MODS=*.25 XMode: TIME=56.91:LEN=4.74:MODS=*.25 -100% XMode: TIME=63.23:LEN=4.74:MODS=*.25 XMode: TIME=64.81:LEN=3.16:MODS=*.5 50% flip: TIME=69.54:LEN=4.74:MODS=*.25 -100% XMode: TIME=71.12:LEN=3.16:MODS=*.5 50% flip: TIME=79.02:LEN=8.69:MODS=*2 blink: TIME=87.70:LEN=5.00:MODS=*5 no blink: TIME=80.60:LEN=7.11:MODS=*2 dark: TIME=90.07:LEN=10.66:MODS=*.25 25% tornado: TIME=94.81:LEN=5.92:MODS=*.25 50% dizzy: TIME=101.12:LEN=4.74:MODS=*.25 25% drunk: TIME=101.12:LEN=4.74:MODS=*.25 100% stealth: TIME=107.44:LEN=3.95:MODS=*.25 50% drunk: TIME=107.44:LEN=3.95:MODS=*.33 100% stealth: TIME=113.76:LEN=4.74:MODS=*.25 25% drunk: TIME=113.76:LEN=4.74:MODS=*.25 100% stealth: TIME=120.08:LEN=3.95:MODS=*.25 50% drunk: TIME=120.08:LEN=3.95:MODS=*.33 100% stealth: TIME=113.76:LEN=4.74:MODS=*.25 50% dizzy: TIME=120.08:LEN=4.74:MODS=*.25 50% dizzy;

//---------------dance-single - ----------------
#NOTEDATA:;
#CHARTNAME:MEMORY GAME -intense-;
#STEPSTYPE:dance-single;
#DESCRIPTION:MEMORY GAME -intense-;
#CHARTSTYLE:;
#DIFFICULTY:Hard;
#METER:14;
#RADARVALUES:0.631958,0.589355,0.015631,0.359524,0.394695,566.000000,564.000000,2.000000,46.000000,2.000000,0.000000,0.000000,0.000000,0.000000,0.631958,0.589355,0.015631,0.359524,0.394695,566.000000,564.000000,2.000000,46.000000,2.000000,0.000000,0.000000,0.000000,0.000000;
#CREDIT:;
#NOTES:
0000
0000
0000
0000
,
0000
0000
0000
0000
,
0000
0000
0000
0000
,
0000
0000
0000
0000
,
1000
0100
1000
0100
1000
0100
1000
0100
,
0010
0001
0010
0001
0010
0001
0010
0001
,
1000
0010
1000
0010
1000
0010
1000
0010
,
0100
0001
0100
0001
0100
0001
0100
0020
,
103M
0100
0010
0001
0010
0100
1000
0100
,
0010
0001
0010
0100
1000
0100
0010
0001
,
0010
0100
1000
0100
0010
0001
0010
0100
,
1000
0100
0010
0001
0010
0100
1000
0100
,
0010
0001
0010
0100
1000
0100
0010
0001
,
0010
0100
1000
0100
0010
0001
0010
0100
,
1000
0100
0010
0001
0010
0100
1000
0100
,
000M
0000
1000
0000
0000
0000
1000
0010
0000
0000
0100
0000
0002
0000
1003
0000
0001
0000
0000
0000
0100
0000
0000
0000
1000
0000
0000
0000
0100
0000
0000
0000
,
0001
0100
1000
0100
0001
0100
1000
0100
,
0001
0100
1000
0100
0001
0100
1000
0100
,
0001
0100
1000
0100
0001
0100
1000
0100
,
0001
0100
0010
2000
3001
0010
1000
0010
,
0001
0010
1000
0010
0001
0010
1000
0010
,
0001
0010
1000
0010
0001
0010
1000
0010
,
0001
0010
1000
0010
0001
0010
1000
0010
,
0001
0010
0100
2000
3001
0010
0001
1000
,
0001
0100
0001
1000
0001
0010
0001
1000
,
0001
0100
0001
1000
0001
0010
0001
1000
,
0001
0100
0001
1000
0001
0010
0001
1000
,
0001
0100
0001
0001
1000
0010
1000
0001
,
1000
0100
1000
0001
1000
0010
1000
0001
,
1000
0100
1000
0001
1000
0010
1000
0001
,
1000
0100
1000
0001
1000
0010
1000
0001
,
0200
0300
0200
0300
0001
0100
0010
1000
,
0001
0100
0010
1000
0001
0100
0010
1000
,
0001
0100
0010
1000
0001
0100
0010
1000
,
0001
0100
0010
1000
0001
0100
0010
1000
,
0001
0100
0001
1000
0100
1000
0001
0010
,
0100
1000
0001
0010
0100
1000
0001
0010
,
0100
1000
0001
0010
0100
1000
0001
0010
,
0100
1000
0001
0010
0100
1000
0001
0010
,
0100
0000
1001
0000
0001
1000
0010
0100
,
0001
1000
0010
0100
0001
1000
0010
0100
,
0001
1000
0010
0100
0001
1000
0010
0100
,
0001
1000
0010
0100
0001
1000
0010
0100
,
0001
1000
0010
1000
1000
0001
0010
0100
,
1000
0001
0010
0100
1000
0001
0010
0100
,
1000
0001
0010
0100
1000
0001
0010
0100
,
1000
0001
0010
0100
1000
0001
0010
0100
,
1000
0000
0000
0000
1001
0000
0000
0000
1000
0000
0010
0100
0000
0100
0000
0010
,
1000
0000
0001
0000
1000
0000
0000
0000
0001
0000
0010
0100
0000
0100
0000
0010
,
0001
0000
1000
0000
0001
0000
0000
0000
1000
0000
0010
0100
0000
0100
0000
0010
,
1000
0000
0001
0000
1000
0000
0000
0000
0001
0000
0010
0100
0000
0100
0000
0010
,
0001
0000
1000
0000
0001
0000
0000
0000
1000
0000
0010
0100
0000
0100
0000
0010
,
1000
0000
0001
0000
1000
0000
0000
0000
0001
0000
0010
0100
0000
0100
0000
0010
,
0001
0000
1000
0000
0001
0000
0000
0000
1000
0000
0010
0100
0000
0100
0000
0010
,
1000
0000
0001
0000
1000
0000
0000
0000
0001
0000
0010
0100
0000
0100
0000
0010
,
0001
0000
1000
0000
0001
0000
0020
0000
0031
0000
0010
0100
0000
0100
0000
1000
,
0001
0000
0010
0000
0100
0000
0000
0000
1000
0000
0010
0100
0000
0100
0000
0001
,
1000
0000
0010
0000
0100
0000
0000
0000
0001
0000
0010
0100
0000
0100
0000
1000
,
0001
0000
0010
0000
0100
0000
0000
0000
1000
0000
0010
0100
0000
0100
0000
0001
,
1000
0000
0010
0000
0100
0000
0000
0000
0001
0000
0100
0000
0002
0000
0000
0103
,
0000
0001
0000
0200
0000
0000
0300
0000
0010
0000
1000
0000
0020
0000
0000
1030
,
0000
0010
0000
2000
0000
0000
3000
0000
0001
0000
0010
0000
0002
0000
0000
0013
,
0000
0001
0000
0020
0000
0000
0030
0000
0100
0000
1000
0000
0200
0000
0000
1300
,
0000
0100
0000
0020
0000
0000
0030
0000
0001
0000
0100
0000
0002
0000
0000
0103
,
0000
0001
0000
0200
0000
0000
0300
0000
0010
0000
1000
0000
0020
0000
0000
1030
,
0000
0010
0000
2000
0000
0000
3000
0000
0001
0000
0010
0000
0002
0000
0000
0013
,
0000
0001
0000
0020
0000
0000
0030
0000
0100
0000
1000
0000
0200
0000
0000
1300
,
0000
0100
0000
0020
0000
0000
0030
0000
0001
0000
0100
0000
0002
0000
0000
0103
,
0000
0001
0000
0200
0000
0000
0300
0000
0010
0000
1000
0000
0020
0000
0000
1030
,
0000
0010
0000
2000
0000
0000
3000
0000
0001
0000
0010
0000
0002
0000
0000
0013
,
0000
0001
0000
0020
0000
0000
0030
0000
0100
0000
1000
0000
0200
0000
0000
1300
,
0000
0100
0000
1000
0020
0000
0000
0000
0130
0000
0001
0000
0200
0000
0000
0301
,
0000
0100
0000
0002
0000
0000
0003
0000
1000
0000
0100
0000
2000
0000
0000
3100
,
0000
1000
0000
0200
0000
0000
0300
0000
0010
0000
0001
0000
0020
0000
0000
0031
,
0000
0010
0000
0002
0000
0000
0003
0000
1000
0000
0010
0000
2000
0000
0000
3010
,
0000
1000
0000
0002
0000
0000
0003
0000
0100
0000
0001
0000
0200
0000
0000
0301
,
0000
0100
0000
0002
0000
0000
0003
0000
1000
0000
0100
0000
2000
0000
0000
3100
,
0000
1000
0000
0200
0000
0000
0300
0000
0010
0000
0001
0000
0020
0000
0000
0031
,
0000
0010
0000
0002
0000
0000
0003
0000
1000
0000
0010
0000
2000
0000
0000
3010
,
0000
1000
0000
1000
0001
0000
0100
0000
0000
0000
0000
0000
0000
0000
0000
0000
;

//---------------dance-single - ----------------
#NOTEDATA:;
#CHARTNAME:MEMORY GAME -indepth-;
#STEPSTYPE:dance-single;
#DESCRIPTION:MEMORY GAME -indepth-;
#CHARTSTYLE:;
#DIFFICULTY:Medium;
#METER:11;
#RADARVALUES:0.472294,0.496299,0.015631,0.312629,0.222748,423.000000,421.000000,2.000000,40.000000,2.000000,0.000000,0.000000,0.000000,0.000000,0.472294,0.496299,0.015631,0.312629,0.222748,423.000000,421.000000,2.000000,40.000000,2.000000,0.000000,0.000000,0.000000,0.000000;
#CREDIT:;
#NOTES:
0000
0000
0000
0000
,
0000
0000
0000
0000
,
0000
0000
0000
0000
,
0000
0000
0000
0000
,
1000
0100
0000
0010
0000
0100
0000
1000
,
0000
0001
0000
0100
0000
0010
0000
0100
,
0000
0001
0000
1000
0000
0100
0000
0010
,
0000
0100
0000
1000
0000
0001
0000
0100
,
00M1
1000
0100
0000
1000
0001
0100
0000
,
1000
0001
0010
0000
0001
1000
0010
0000
,
1000
0001
0100
0000
0001
1000
0100
0000
,
1000
0001
0010
0000
0001
1000
0010
0000
,
1000
0001
0100
0000
0001
1000
0100
0000
,
1000
0001
0010
0000
0001
1000
0010
0000
,
1000
0001
0100
0000
0001
1000
0100
0000
,
100M
1100
0001
0101
1000
0100
0010
0000
,
0010
0100
1000
0000
1000
0100
0010
0000
,
0010
0100
1000
0000
1000
0100
0010
0000
,
0010
0100
1000
0000
1000
0100
0010
0000
,
0010
0100
1000
0001
0001
0100
0010
0000
,
0010
0100
0001
0000
0001
0100
0010
0000
,
0010
0100
0001
0000
0001
0100
0010
0000
,
0010
0100
0001
0000
0001
0100
0010
0000
,
0010
0100
0001
1000
1000
0100
0010
0000
,
0001
0010
0100
0000
1000
0100
0010
0000
,
0001
0010
0100
0000
1000
0100
0010
0000
,
0001
0010
0100
0000
1000
0100
0010
0000
,
0001
0010
0100
0010
0001
0100
0010
0000
,
1000
0010
0100
0000
0001
0100
0010
0000
,
1000
0010
0100
0000
0001
0100
0010
0000
,
1000
0010
0100
0000
0001
0100
0010
0000
,
2000
0000
3002
0000
1003
0000
0100
1000
,
0100
0000
0010
0000
0001
0000
0100
0001
,
0100
0000
0010
0000
1000
0000
0100
1000
,
0100
0000
0010
0000
0001
0000
0100
0001
,
0100
0000
0010
0000
1000
0000
0100
1000
,
0100
0000
0010
0000
0001
0000
0100
0001
,
0100
0000
0010
0000
1000
0000
0100
1000
,
0100
0000
0010
0000
0001
0000
0100
0001
,
0100
0000
0010
0000
1000
0000
0001
0010
,
0100
0000
0010
0000
0001
0000
1000
0010
,
0100
0000
0010
0000
1000
0000
0001
0010
,
0100
0000
0010
0000
0001
0000
1000
0010
,
0100
0000
0010
0000
1000
0000
0001
0010
,
0100
0000
0010
0000
0001
0000
1000
0010
,
0100
0000
0010
0000
1000
0000
0001
0010
,
0100
0000
0010
0000
0001
0000
1000
0010
,
0100
0000
0100
0000
0001
0100
0001
0010
,
0001
0000
0001
0000
1000
0100
1000
0010
,
1000
0000
1000
0000
0001
0100
0001
0010
,
0001
0000
0001
0000
1000
0100
1000
0010
,
1000
0000
1000
0000
0001
0100
0001
0010
,
0001
0000
0001
0000
1000
0100
1000
0010
,
1000
0000
1000
0000
0001
0100
0001
0010
,
0001
0000
0001
0000
1000
0100
1000
0010
,
1000
0000
1000
0010
0100
0010
0100
0010
,
0100
0000
0001
1000
0100
0010
0100
0010
,
0100
0000
1000
0001
0100
0010
0100
0010
,
0100
0000
0001
1000
0100
0010
0100
0010
,
0100
0000
0000
0000
1000
0000
0001
0000
0100
0000
0000
0000
0200
0000
0000
0301
,
0000
1000
0000
0002
0000
0000
0003
0000
0010
0000
0000
0000
0020
0000
0000
0031
,
0000
1000
0000
0002
0000
0000
0003
0000
0100
0000
0000
0000
0200
0000
0000
0301
,
0000
1000
0000
0002
0000
0000
0003
0000
0010
0000
0000
0000
0020
0000
0000
0031
,
0000
1000
0000
2000
0000
0000
3000
0000
0100
0000
0000
0000
0200
0000
0000
1300
,
0000
0001
0000
2000
0000
0000
3000
0000
0010
0000
0000
0000
0020
0000
0000
1030
,
0000
0001
0000
2000
0000
0000
3000
0000
0100
0000
0000
0000
0200
0000
0000
1300
,
0000
0001
0000
2000
0000
0000
3000
0000
0010
0000
0000
0000
0020
0000
0000
1030
,
0000
0001
0000
0002
0000
0000
0003
0000
0100
0000
0000
0000
0200
0000
0000
0301
,
0000
1000
0000
0002
0000
0000
0003
0000
0010
0000
0000
0000
0020
0000
0000
0031
,
0000
1000
0000
0002
0000
0000
0003
0000
0100
0000
0000
0000
0200
0000
0000
0301
,
0000
1000
0000
0002
0000
0000
0003
0000
0010
0000
0000
0000
0020
0000
0000
0031
,
0000
1000
0000
1000
0020
0000
0000
0000
0130
0000
0000
0000
0200
0000
0000
0301
,
0000
1000
0000
0002
0000
0000
0003
0000
0010
0000
0000
0000
0020
0000
0000
0031
,
0000
1000
0000
0002
0000
0000
0003
0000
0100
0000
0000
0000
0200
0000
0000
0301
,
0000
1000
0000
0002
0000
0000
0003
0000
0010
0000
0000
0000
0020
0000
0000
0031
,
0000
1000
0000
2000
0000
0000
3000
0000
0100
0000
0000
0000
0200
0000
0000
1300
,
0000
0001
0000
2000
0000
0000
3000
0000
0010
0000
0000
0000
0020
0000
0000
1030
,
0000
0001
0000
2000
0000
0000
3000
0000
0100
0000
0000
0000
0200
0000
0000
1300
,
0000
0001
0000
2000
0000
0000
3000
0000
0010
0000
0100
0000
0010
0000
0000
0000
,
0100
0001
1000
0010
0000
0000
0000
0000
;

//---------------dance-single - ----------------
#NOTEDATA:;
#CHARTNAME:MEMORY GAME -instance-;
#STEPSTYPE:dance-single;
#DESCRIPTION:MEMORY GAME -instance-;
#CHARTSTYLE:;
#DIFFICULTY:Easy;
#METER:8;
#RADARVALUES:0.318212,0.310187,0.007816,0.148499,0.000000,285.000000,284.000000,1.000000,19.000000,2.000000,0.000000,0.000000,0.000000,0.000000,0.318212,0.310187,0.007816,0.148499,0.000000,285.000000,284.000000,1.000000,19.000000,2.000000,0.000000,0.000000,0.000000,0.000000;
#CREDIT:;
#NOTES:
0000
0000
0000
0000
,
0000
0000
0000
0000
,
0000
0000
0000
0000
,
0000
0000
0000
0000
,
1000
0100
0010
0001
,
1000
0100
0010
0001
,
1000
0001
0100
0010
,
1000
0001
0100
0010
,
100M
0100
0010
0001
,
1000
0100
0010
0001
,
1000
0100
0010
0001
,
1000
0100
0010
0001
,
1000
0100
0010
0001
,
1000
0100
0010
0001
,
1000
0100
0010
0001
,
000M
1000
0000
1000
0001
0000
0100
0000
,
1000
0100
0001
0100
,
1000
0100
0001
0100
,
1000
0100
0001
0100
,
1000
0100
0001
0010
,
1000
0010
0001
0010
,
1000
0010
0001
0010
,
1000
0010
0001
0010
,
1000
0010
0001
0100
,
1000
0100
0001
0100
,
1000
0100
0001
0100
,
1000
0100
0001
0100
,
1000
0100
0001
0010
,
1000
0010
0001
0010
,
1000
0010
0001
0010
,
1000
0010
0001
0010
,
0100
0100
1000
0100
,
1000
0010
1000
0100
,
1000
0010
1000
0100
,
1000
0010
1000
0100
,
1000
0010
0100
0001
,
0010
0001
0100
0001
,
0010
0001
0100
0001
,
0010
0001
0100
0001
,
0010
0001
1000
0100
,
1000
0010
1000
0100
,
1000
0010
1000
0100
,
1000
0010
1000
0100
,
1000
0010
0100
0001
,
0010
0001
0100
0001
,
0010
0001
0100
0001
,
0010
0001
0100
0001
,
1000
1001
0001
0010
,
0100
1000
0001
0100
,
0010
1000
0001
0010
,
0100
1000
0001
0100
,
0010
1000
0001
0010
,
0100
1000
0001
0100
,
0010
1000
0001
0010
,
0100
1000
0001
0100
,
0010
1000
1000
0010
,
0100
0001
1000
0100
,
0010
0001
1000
0010
,
0100
0001
1000
0100
,
0010
0001
1000
1000
,
2000
3000
0001
0001
,
0002
0003
0100
0100
,
0200
0300
0010
0010
,
0020
0030
1000
1000
,
2000
3000
0001
0001
,
0002
0003
0010
0010
,
0020
0030
0100
0100
,
0200
0300
1000
1000
,
2000
3000
0001
0001
,
0002
0003
0100
0100
,
0200
0300
0010
0010
,
0020
0030
1000
0010
,
2000
3000
0001
0100
,
0002
0003
1000
0010
,
2000
3000
0001
0100
,
0002
0003
0010
0001
,
0020
0030
0100
1000
,
0200
0300
0010
0001
,
0020
0030
0100
1000
,
0100
0000
0010
0001
0000
0000
0000
0000
;

//---------------dance-single - ----------------
#NOTEDATA:;
#CHARTNAME:MEMORY GAME -intro-;
#STEPSTYPE:dance-single;
#DESCRIPTION:MEMORY GAME -intro-;
#CHARTSTYLE:;
#DIFFICULTY:Beginner;
#METER:3;
#RADARVALUES:0.176412,0.185819,0.000000,0.000000,0.000000,158.000000,158.000000,0.000000,0.000000,2.000000,0.000000,0.000000,0.000000,0.000000,0.176412,0.185819,0.000000,0.000000,0.000000,158.000000,158.000000,0.000000,0.000000,2.000000,0.000000,0.000000,0.000000,0.000000;
#CREDIT:MEMORY GAME;
#NOTES:
// measure 0
0000
0000
0000
0000
,  // measure 1
0000
0000
0000
0000
,  // measure 2
0000
0000
0000
0000
,  // measure 3
0000
0000
0000
0000
,  // measure 4
0000
1000
0000
1000
,  // measure 5
0000
0001
0000
0001
,  // measure 6
0000
1000
0000
1000
,  // measure 7
0000
0001
0000
0001
,  // measure 8
000M
1000
0000
1000
,  // measure 9
0000
0001
0000
0001
,  // measure 10
0000
1000
0000
1000
,  // measure 11
0000
0001
0000
0001
,  // measure 12
0000
1000
0000
1000
,  // measure 13
0000
0001
0000
0001
,  // measure 14
0000
1000
0000
1000
,  // measure 15
M000
0001
0000
0001
1000
0000
0000
0000
,  // measure 16
0100
0000
1000
0000
,  // measure 17
0100
0000
1000
0000
,  // measure 18
0100
0000
1000
0000
,  // measure 19
0100
0000
1000
0000
,  // measure 20
0100
0000
1000
0000
,  // measure 21
0100
0000
1000
0000
,  // measure 22
0100
0000
1000
0000
,  // measure 23
0100
0010
0001
0000
,  // measure 24
0100
0000
0001
0000
,  // measure 25
0100
0000
0001
0000
,  // measure 26
0100
0000
0001
0000
,  // measure 27
0100
0000
0001
0000
,  // measure 28
0100
0000
0001
0000
,  // measure 29
0100
0000
0001
0000
,  // measure 30
0100
0000
0001
0000
,  // measure 31
0100
0100
0010
0000
,  // measure 32
1000
0000
0001
0000
,  // measure 33
0100
0000
0010
0000
,  // measure 34
1000
0000
0001
0000
,  // measure 35
0100
0000
0010
0000
,  // measure 36
1000
0000
0001
0000
,  // measure 37
0100
0000
0010
0000
,  // measure 38
1000
0000
0001
0000
,  // measure 39
0100
0001
0010
0000
,  // measure 40
0001
0000
1000
0000
,  // measure 41
0100
0000
0010
0000
,  // measure 42
0001
0000
1000
0000
,  // measure 43
0100
0000
0010
0000
,  // measure 44
0001
0000
1000
0000
,  // measure 45
0100
0000
0010
0000
,  // measure 46
0001
0000
1000
0000
,  // measure 47
0100
1000
0001
0000
,  // measure 48
1000
0000
1000
0000
,  // measure 49
0001
0000
0001
0000
,  // measure 50
1000
0000
1000
0000
,  // measure 51
0001
0000
0001
0000
,  // measure 52
1000
0000
1000
0000
,  // measure 53
0001
0000
0001
0000
,  // measure 54
1000
0000
1000
0000
,  // measure 55
0001
0000
0010
0000
,  // measure 56
0100
0000
0100
0000
,  // measure 57
0010
0000
0010
0000
,  // measure 58
0100
0000
0100
0000
,  // measure 59
0010
0000
0001
0000
,  // measure 60
0001
0000
1000
0000
,  // measure 61
1000
0000
0010
0000
,  // measure 62
0010
0000
0100
0000
,  // measure 63
0100
0000
0001
0000
,  // measure 64
0001
0000
1000
0000
,  // measure 65
1000
0000
0100
0000
,  // measure 66
0100
0000
0010
0000
,  // measure 67
0010
0000
0001
0000
,  // measure 68
0001
0000
1000
0000
,  // measure 69
1000
0000
0010
0000
,  // measure 70
0010
0000
0100
0000
,  // measure 71
0100
0010
1000
0000
,  // measure 72
1000
0000
0001
0000
,  // measure 73
0001
0000
0010
0000
,  // measure 74
0010
0000
0100
0000
,  // measure 75
0100
0000
1000
0000
,  // measure 76
1000
0000
0001
0000
,  // measure 77
0001
0000
0100
0000
,  // measure 78
0100
0000
0010
0000
,  // measure 79
0010
0010
0000
0000
;

//---------------dance-single - MEMORY GAME----------------
#NOTEDATA:;
#CHARTNAME:MEMORY GAME -instinct-;
#STEPSTYPE:dance-single;
#DESCRIPTION:MEMORY GAME -instinct-;
#CHARTSTYLE:;
#DIFFICULTY:Challenge;
#METER:15;
#RADARVALUES:0.708999,0.682411,0.226656,0.039079,0.265735,635.000000,606.000000,29.000000,5.000000,2.000000,0.000000,0.000000,0.000000,0.000000,0.708999,0.682411,0.226656,0.039079,0.265735,635.000000,606.000000,29.000000,5.000000,2.000000,0.000000,0.000000,0.000000,0.000000;
#CREDIT:;
#NOTES:
0000
0000
0000
0000
,
0000
0000
0000
0000
,
0000
0000
0000
0000
,
0000
0000
0000
0000
,
0001
1000
0100
0010
0001
0100
0001
1000
,
0001
0100
0010
1000
0100
1000
0001
0100
,
0010
1000
0001
1000
0100
0010
0001
1000
,
0001
0100
0010
1000
0001
0010
0100
1000
,
001M
0100
0001
0010
0100
1000
0010
0100
,
0001
0010
0100
1000
0010
0100
0001
0010
,
0100
1000
0010
0100
0001
0010
0100
1000
,
0010
0100
0001
0010
0100
1000
0010
0100
,
0001
0010
0100
1000
0010
0100
0001
0010
,
0100
1000
0010
0100
0001
0010
0100
1000
,
0010
0100
0001
0010
0100
1000
0010
0100
,
00M0
0000
0001
0000
0101
0000
0000
0001
1000
0000
0100
0000
1100
0000
0001
0000
1000
0000
0000
0000
0100
0000
0000
0000
0010
0000
0000
0000
0001
0000
0000
0000
,
0010
0100
1000
0001
1000
0100
0010
0001
,
0010
0100
1000
0001
1000
0100
0010
0001
,
0010
0100
1000
0001
1000
0100
0010
0001
,
0010
0100
1000
0010
0100
0001
1000
0010
,
1000
0001
0100
0010
0100
0001
1000
0010
,
1000
0001
0100
0010
0100
0001
1000
0010
,
1000
0001
0100
0010
0100
0001
1000
0010
,
1000
0001
0100
0001
1000
0100
0010
0100
,
0001
0100
0010
0100
1000
0100
0010
0100
,
0001
0100
0010
0100
1000
0100
0010
0100
,
0001
0100
0010
0100
1000
0100
0010
0100
,
0001
0100
0010
0001
0001
0100
0010
0100
,
1000
0100
0010
0100
0001
0100
0010
0100
,
1000
0100
0010
0100
0001
0100
0010
0100
,
1000
0100
0010
0100
0001
0100
0010
0100
,
0002
0013
0002
0103
0001
0010
1100
0000
,
0001
0010
1100
0100
1000
0010
0101
0000
,
1000
0010
0101
0100
0001
0010
1100
0000
,
0001
0010
1100
0100
1000
0010
0101
0000
,
1000
0010
0101
1000
0001
0100
1010
0000
,
0001
0100
1010
0010
1000
0100
0011
0000
,
1000
0100
0011
0010
0001
0100
1010
0000
,
0001
0100
1010
0010
1000
0100
0011
0000
,
1000
0100
0011
1000
0001
0010
0100
0010
,
0001
0010
1000
0010
0001
0010
0100
0010
,
0001
0010
1000
0010
0001
0010
0100
0010
,
0001
0010
1000
0010
0001
0010
0100
0010
,
0001
0010
1000
0010
0001
0100
0010
0100
,
0001
0100
1000
0100
0001
0100
0010
0100
,
0001
0100
1000
0100
0001
0100
0010
0100
,
0001
0100
1000
0100
0001
0100
0010
0100
,
0001
0000
0100
0000
1000
0000
0100
0000
0001
0000
0100
0010
0000
0010
0000
1000
,
0001
0000
0100
0000
0101
0000
0001
0000
1000
0000
0100
0010
0000
0010
0000
0001
,
1000
0000
0100
0000
1100
0000
0000
0000
0001
0000
0100
0010
0000
0010
0000
1000
,
0001
0000
0100
0000
0101
0000
0001
0000
1000
0000
0100
0010
0000
0010
0000
0001
,
1000
0000
0100
0000
1100
0000
0000
0000
0001
0000
0100
0010
0000
0010
0000
1000
,
0001
0000
0100
0000
0101
0000
0001
0000
1000
0000
0100
0010
0000
0010
0000
0001
,
1000
0000
0100
0000
1100
0000
0000
0000
0001
0000
0100
0010
0000
0010
0000
1000
,
0001
0000
0100
0000
0101
0000
0001
0000
1000
0000
0100
0010
0000
0010
0000
0001
,
1000
0000
0100
0000
1100
0000
0001
0000
0100
0000
0001
0010
0000
0010
0000
0001
,
0100
0000
0001
0000
0010
0000
0100
0000
0100
0000
1000
0010
0000
0010
0000
1000
,
0100
0000
1000
0000
0010
0000
0100
0000
0100
0000
0001
0010
0000
0010
0000
0001
,
0100
0000
0001
0000
0010
0000
0100
0000
0100
0000
1000
0010
0000
0010
0000
1000
,
0100
0000
1000
0000
0010
0000
1000
0000
0100
0000
0100
0000
0100
0000
0000
1000
,
0000
1000
0100
1000
0000
0000
1000
0000
0001
0000
0001
0000
0001
0000
0000
0100
,
0000
0100
0001
0100
0000
0000
0100
0000
0010
0000
0010
0000
0010
0000
0000
1000
,
0000
1000
0010
1000
0000
0000
1000
0000
0001
0000
0001
0000
0001
0000
0000
0010
,
0000
0010
0001
0020
0000
0000
0030
0000
0100
0000
1000
0100
0000
0000
0100
0000
,
1000
0000
0100
0000
1000
0000
0100
0000
0010
0000
0001
0010
0000
0000
0010
0000
,
0001
0000
0010
0000
0001
0000
0010
0000
0001
0000
0100
0001
0000
0000
0001
0000
,
0100
0000
0001
0000
0100
0000
0001
0000
1000
0000
0010
1000
0000
0000
1000
0000
,
0010
0000
1000
0000
0010
0000
1000
0000
0100
0000
1000
0100
0000
0000
0100
0000
,
1000
0000
0100
0000
1000
0000
0100
0000
0010
0000
0001
0010
0000
0000
0010
0000
,
0001
0000
0010
0000
0001
0000
0010
0000
0001
0000
0100
0001
0000
0000
0001
0000
,
0100
0000
0001
0000
0100
0000
0001
0000
1000
0000
0010
1000
0000
0000
1000
0000
,
0010
0000
1000
0000
2002
0000
3003
0000
0001
0000
0100
0010
0000
0000
0010
0000
,
0100
0000
0001
0000
0100
0000
0010
0000
1000
0000
0100
0010
0000
0000
0010
0000
,
0100
0000
1000
0000
0100
0000
0010
0000
0001
0000
0100
0010
0000
0000
0010
0000
,
0100
0000
0001
0000
0100
0000
0010
0000
1000
0000
0100
0010
0000
0000
0010
0000
,
0100
0000
1000
0000
0001
0000
1000
0000
1000
0000
0010
0100
0000
0000
0100
0000
,
0010
0000
1000
0000
0010
0000
0100
0000
0001
0000
0010
0100
0000
0000
0100
0000
,
0010
0000
0001
0000
0010
0000
0100
0000
1000
0000
0010
0100
0000
0000
0100
0000
,
0010
0000
1000
0000
0010
0000
0100
0000
0001
0000
0010
0100
0000
0000
0100
0000
,
1100
0001
0101
0010
0000
0000
0000
0000
;
